osu file format v14

[General]
AudioFilename: preparing for te shakedown_200705155_soundcloud.mp3
AudioLeadIn: 0
PreviewTime: 10350
Countdown: 1
SampleSet: None
StackLeniency: 0.2
Mode: 0
LetterboxInBreaks: 1
WidescreenStoryboard: 1

[Editor]
DistanceSpacing: 1
BeatDivisor: 8
GridSize: 16
TimelineZoom: 4.799998

[Metadata]
Title:preparing for te shakedown
TitleUnicode:preparing for te shakedown
Artist:yumyumyuumyy
ArtistUnicode:yumyumyuumyy
Creator:[Toy]
Version:TAG4
Source:
Tags:
BeatmapID:705764
BeatmapSetID:316625

[Difficulty]
HPDrainRate:8
CircleSize:4
OverallDifficulty:8
ApproachRate:10
SliderMultiplier:3.59999990463257
SliderTickRate:1

[Events]
//Background and Video events
0,0,"patrick.jpg",0,0
//Break Periods
//Storyboard Layer 0 (Background)
//Storyboard Layer 1 (Fail)
//Storyboard Layer 2 (Pass)
//Storyboard Layer 3 (Foreground)
//Storyboard Sound Samples

[TimingPoints]
1440,297.029702970297,4,2,0,100,1,0
3185,-50,4,2,0,100,0,0
4967,-66.6666666666667,4,2,0,100,0,0
5115,-100,4,2,0,100,0,0
5264,-133.333333333333,4,2,0,100,0,0
5412,-133.333333333333,4,2,0,100,0,0
5561,-100,4,2,0,100,0,0
5709,-66.6666666666667,4,2,0,100,0,0
5858,-50,4,2,0,100,0,0
10350,-133.333333333333,4,2,0,100,0,0
15994,-50,4,2,0,100,0,0
16440,-133.333333333333,4,2,0,100,0,0
17553,-200,4,2,0,100,0,0
17888,-133.333333333333,4,2,0,100,0,0
20709,-50,4,2,0,100,0,0

[HitObjects]
48,336,1440,6,0,L|48:232,1,89.9999976158143
464,336,1588,6,0,L|464:232,1,89.9999976158143
48,48,1737,6,0,L|48:152,1,89.9999976158143
464,48,1885,6,0,L|464:152,1,89.9999976158143
48,336,2034,6,0,L|48:232,1,89.9999976158143
464,336,2182,6,0,L|464:232,1,89.9999976158143
48,48,2331,6,0,L|48:152,1,89.9999976158143
464,48,2479,6,0,L|464:152,1,89.9999976158143
48,336,2628,6,0,B|80:304|80:304|48:344,1,89.9999976158143
464,336,2776,6,0,B|424:312|424:312|456:344,1,89.9999976158143
48,48,2925,6,0,B|80:80|80:80|40:40,1,89.9999976158143
464,48,3073,6,0,B|424:80|424:80|456:48,1,89.9999976158143
464,336,3222,6,0,L|400:144,1,179.999995231629
48,48,3370,6,0,L|112:232,1,179.999995231629
464,48,3519,6,0,L|400:248,1,179.999995231629
64,264,3667,6,0,P|160:264|176:344,1,179.999995231629
384,240,3816,6,0,P|392:344|336:328,1,179.999995231629
120,32,3964,6,0,P|120:152|168:160,1,179.999995231629
328,80,4113,6,0,P|472:152|456:208,1,179.999995231629
48,336,4261,6,0,B|144:336|144:336|144:248,1,179.999995231629
464,336,4410,6,0,B|368:336|368:336|368:248,1,179.999995231629
48,48,4558,6,0,B|48:144|48:144|152:144,1,179.999995231629
464,48,4707,6,0,B|464:144|464:144|352:144,1,179.999995231629
160,192,4855,6,0,L|352:192,1,179.999995231629
160,192,5004,6,0,L|352:192,1,135.000001573563
160,192,5152,6,0,L|280:192,1,89.9999976158143
168,192,5301,6,0,L|256:192,1,67.5000007867814
340,192,5449,6,0,L|260:192,1,67.5000007867814
344,192,5598,6,0,L|216:192,1,89.9999976158143
344,192,5746,6,0,L|200:192,1,135.000001573563
348,192,5895,6,0,L|156:192,1,179.999995231629
168,192,6043,6,0,L|376:192,1,179.999995231629
136,72,6192,5,0,0:0:0:0:
376,72,6266,5,0,0:0:0:0:
376,312,6340,5,0,0:0:0:0:
136,312,6415,5,0,0:0:0:0:
168,72,6489,5,0,0:0:0:0:
376,104,6563,5,0,0:0:0:0:
344,312,6638,5,0,0:0:0:0:
136,280,6712,5,0,0:0:0:0:
200,72,6786,5,0,0:0:0:0:
376,136,6860,5,0,0:0:0:0:
312,312,6935,5,0,0:0:0:0:
136,248,7009,5,0,0:0:0:0:
232,72,7083,5,0,0:0:0:0:
376,168,7157,5,0,0:0:0:0:
280,312,7232,5,0,0:0:0:0:
136,216,7306,5,0,0:0:0:0:
264,72,7380,5,0,0:0:0:0:
376,200,7454,5,0,0:0:0:0:
248,312,7529,5,0,0:0:0:0:
136,184,7603,5,0,0:0:0:0:
296,72,7677,5,0,0:0:0:0:
376,232,7751,5,0,0:0:0:0:
216,312,7826,5,0,0:0:0:0:
136,152,7900,5,0,0:0:0:0:
328,72,7974,5,0,0:0:0:0:
376,264,8048,5,0,0:0:0:0:
184,312,8123,5,0,0:0:0:0:
136,120,8197,5,0,0:0:0:0:
360,72,8271,5,0,0:0:0:0:
376,296,8345,5,0,0:0:0:0:
152,312,8420,5,0,0:0:0:0:
136,88,8494,5,0,0:0:0:0:
256,192,8568,5,0,0:0:0:0:
256,192,8605,5,0,0:0:0:0:
256,192,8642,5,0,0:0:0:0:
256,192,8680,5,0,0:0:0:0:
240,176,8717,5,0,0:0:0:0:
272,176,8754,5,0,0:0:0:0:
272,208,8791,5,0,0:0:0:0:
240,208,8828,5,0,0:0:0:0:
224,160,8865,5,0,0:0:0:0:
288,160,8902,5,0,0:0:0:0:
288,224,8940,5,0,0:0:0:0:
224,224,8977,5,0,0:0:0:0:
208,144,9014,5,0,0:0:0:0:
304,144,9051,5,0,0:0:0:0:
304,240,9088,5,0,0:0:0:0:
208,240,9125,5,0,0:0:0:0:
192,128,9162,5,0,0:0:0:0:
320,128,9199,5,0,0:0:0:0:
320,256,9237,5,0,0:0:0:0:
192,256,9274,5,0,0:0:0:0:
176,112,9311,5,0,0:0:0:0:
336,112,9348,5,0,0:0:0:0:
336,272,9385,5,0,0:0:0:0:
176,272,9422,5,0,0:0:0:0:
192,96,9459,5,0,0:0:0:0:
352,128,9496,5,0,0:0:0:0:
320,288,9534,5,0,0:0:0:0:
160,256,9571,5,0,0:0:0:0:
208,80,9608,5,0,0:0:0:0:
368,144,9645,5,0,0:0:0:0:
304,304,9682,5,0,0:0:0:0:
144,240,9719,5,0,0:0:0:0:
224,64,9756,5,0,0:0:0:0:
384,160,9793,5,0,0:0:0:0:
288,320,9831,5,0,0:0:0:0:
128,224,9868,5,0,0:0:0:0:
240,48,9905,5,0,0:0:0:0:
400,176,9942,5,0,0:0:0:0:
272,336,9979,5,0,0:0:0:0:
112,208,10016,5,0,0:0:0:0:
256,32,10053,5,0,0:0:0:0:
416,192,10090,5,0,0:0:0:0:
256,352,10128,5,0,0:0:0:0:
96,192,10165,5,0,0:0:0:0:
176,192,10350,6,0,L|336:192,1,135.000001573563
176,192,10573,2,0,L|320:192,1,135.000001573563
176,192,10796,2,0,L|320:192,1,135.000001573563
48,48,11241,6,0,L|96:48,1,33.7500003933907
464,48,11316,6,0,L|416:48,1,33.7500003933907
464,336,11390,6,0,L|416:336,1,33.7500003933907
48,336,11464,6,0,L|96:336,1,33.7500003933907
256,192,11539,5,0,0:0:0:0:
80,96,11836,6,0,L|112:64,1,33.7500003933907
96,176,12133,2,0,L|192:80,1,135.000001573563
448,336,12430,6,0,L|480:304,1,33.7500003933907
352,336,12578,6,0,L|448:224,1,135.000001573563
112,336,13024,6,0,B|80:288|80:288|48:304|48:304|80:320|80:320|96:288,1,135.000001573563
176,80,13469,6,0,L|176:160,1,67.5000007867814
336,80,13618,6,0,L|336:160,1,67.5000007867814
176,240,13915,6,0,L|176:320,1,67.5000007867814
336,240,14063,6,0,L|336:320,1,67.5000007867814
256,192,14360,5,0,0:0:0:0:
112,80,14509,5,0,0:0:0:0:
416,192,14583,5,0,0:0:0:0:
128,288,14657,5,0,0:0:0:0:
384,32,14732,5,0,0:0:0:0:
224,192,14806,5,0,0:0:0:0:
256,352,14954,5,0,0:0:0:0:
208,48,15103,5,0,0:0:0:0:
80,176,15326,5,0,0:0:0:0:
416,272,15548,5,0,0:0:0:0:
128,64,15697,5,0,0:0:0:0:
256,224,15994,6,0,L|256:32,1,179.999995231629
256,160,16142,6,0,L|256:352,1,179.999995231629
464,192,16291,5,0,0:0:0:0:
48,192,16588,5,0,0:0:0:0:
256,44,16885,5,0,0:0:0:0:
256,340,17182,5,0,0:0:0:0:
256,208,17331,6,0,B|304:208|304:208|304:176|304:176|256:176|256:176,1,135.000001573563
112,128,17628,2,0,B|144:112|144:112|128:128,1,44.9999988079071
368,256,17776,2,0,B|384:272|384:272|384:240,1,44.9999988079071
144,208,18222,6,0,L|224:224,1,67.5000007867814
416,48,18370,6,0,L|448:64,1,33.7500003933907
112,48,18444,6,0,L|80:80,1,33.7500003933907
464,320,18519,5,0,0:0:0:0:
256,192,18667,6,0,L|192:128,1,67.5000007867814
304,240,18816,6,0,L|256:192,1,67.5000007867814
176,288,19113,5,0,0:0:0:0:
64,320,19261,6,0,L|80:288,1,33.7500003933907
400,48,19336,6,0,L|432:64,1,33.7500003933907
48,64,19410,6,0,L|80:48,1,33.7500003933907
256,144,19485,2,0,L|284:116,1,33.7500003933907
240,192,19558,6,0,B|288:192|288:192|272:176,1,67.5000007867814
80,144,19707,6,0,L|128:144,1,33.7500003933907
80,248,19782,6,0,L|108:220,1,33.7500003933907
200,216,19856,6,0,L|152:256,1,33.7500003933907
152,336,19931,6,0,L|180:308,1,33.7500003933907
368,192,20004,6,0,L|336:268,1,67.5000007867814
48,48,20115,5,0,0:0:0:0:
464,336,20152,5,0,0:0:0:0:
48,48,20190,5,0,0:0:0:0:
464,336,20227,5,0,0:0:0:0:
48,48,20264,5,0,0:0:0:0:
464,336,20301,5,0,0:0:0:0:
288,288,20746,6,0,L|384:192,1,89.9999976158143
160,224,20821,6,0,L|224:288,1,89.9999976158143
224,96,20895,6,0,L|160:160,1,89.9999976158143
352,160,20969,6,0,L|288:96,1,89.9999976158143
256,192,21043,5,0,0:0:0:0:
256,192,21340,5,0,0:0:0:0:
256,192,21638,5,0,0:0:0:0:
256,192,21935,5,0,0:0:0:0:
256,192,22083,5,0,0:0:0:0:
256,192,22529,5,0,0:0:0:0:
