osu file format v14

[General]
AudioFilename: preparing for te shakedown_200705155_soundcloud.mp3
AudioLeadIn: 0
PreviewTime: 10350
Countdown: 1
SampleSet: Soft
StackLeniency: 0.2
Mode: 0
LetterboxInBreaks: 1
WidescreenStoryboard: 1

[Editor]
DistanceSpacing: 0.9
BeatDivisor: 4
GridSize: 4
TimelineZoom: 1.900002

[Metadata]
Title:preparing for te shakedown
TitleUnicode:preparing for te shakedown
Artist:yumyumyuumyy
ArtistUnicode:yumyumyuumyy
Creator:[Toy]
Version:TAG2
Source:
Tags:
BeatmapID:705844
BeatmapSetID:316625

[Difficulty]
HPDrainRate:2
CircleSize:4
OverallDifficulty:9
ApproachRate:9.6
SliderMultiplier:1.49999990463257
SliderTickRate:1

[Events]
//Background and Video events
0,0,"patrick.jpg",0,0
//Break Periods
//Storyboard Layer 0 (Background)
//Storyboard Layer 1 (Fail)
//Storyboard Layer 2 (Pass)
//Storyboard Layer 3 (Foreground)
//Storyboard Sound Samples

[TimingPoints]
1440,297.029702970297,4,2,0,50,1,0
10350,-200,4,2,1,100,0,0
10350,-200,4,2,1,100,0,0
10573,-52.6315789473684,4,2,1,100,0,0
10852,-52.6315789473684,4,2,1,100,0,0
15697,-133.333333333333,4,2,1,100,0,0
18964,-66.6666666666667,4,2,1,100,0,0
22677,-200,4,2,1,100,0,0
23123,-200,4,2,1,80,0,0
23420,-200,4,2,1,50,0,0
23717,-200,4,2,1,40,0,0

[Colours]
Combo1 : 45,45,168
Combo2 : 0,202,0
Combo3 : 18,124,255
Combo4 : 26,125,23

[HitObjects]
303,287,1440,5,0,0:0:0:0:
230,339,1588,1,0,0:0:0:0:
138,339,1737,1,0,0:0:0:0:
65,287,1886,1,0,0:0:0:0:
206,95,2034,5,0,0:0:0:0:
279,42,2182,1,0,0:0:0:0:
371,42,2331,1,0,0:0:0:0:
444,95,2480,1,0,0:0:0:0:
13,202,2628,5,0,0:0:0:0:
44,106,2776,1,0,0:0:0:0:
125,47,2924,1,0,0:0:0:0:
227,47,3072,1,0,0:0:0:0:
497,180,3222,5,0,0:0:0:0:
465,275,3370,1,0,0:0:0:0:
384,335,3518,1,0,0:0:0:0:
283,335,3666,1,0,0:0:0:0:
176,64,3816,5,0,0:0:0:0:
320,32,3964,1,0,0:0:0:0:
336,320,4113,5,0,0:0:0:0:
192,352,4261,1,0,0:0:0:0:
464,112,4410,5,0,0:0:0:0:
496,256,4558,1,0,0:0:0:0:
48,272,4707,5,0,0:0:0:0:
16,128,4855,1,0,0:0:0:0:
358,87,5004,5,0,0:0:0:0:
358,294,5152,5,0,0:0:0:0:
151,294,5301,5,0,0:0:0:0:
151,87,5449,5,0,0:0:0:0:
415,98,5598,5,0,0:0:0:0:
347,351,5746,5,0,0:0:0:0:
93,284,5895,6,0,P|64:256|48:248,1,56.2499964237214
162,30,6043,5,0,0:0:0:0:
66,81,6192,6,0,P|52:20|37:-1,2,49.9999968210857
384,24,6489,6,0,P|443:42|469:39,2,49.9999968210857
275,328,6786,6,0,P|229:370|218:394,2,49.9999968210857
447,299,7083,6,0,P|462:360|478:381,2,49.9999968210857
130,362,7380,6,0,P|70:344|45:347,2,49.9999968210857
234,56,7677,6,0,P|279:12|289:-10,2,49.9999968210857
254,286,7974,5,0,0:0:0:0:
181,329,8073,1,0,0:0:0:0:
180,244,8172,1,0,0:0:0:0:
258,98,8271,5,0,0:0:0:0:
331,55,8370,1,0,0:0:0:0:
332,140,8469,1,0,0:0:0:0:
180,277,8568,5,0,0:0:0:0:
79,260,8667,1,0,0:0:0:0:
145,181,8766,1,0,0:0:0:0:
331,106,8865,5,0,0:0:0:0:
432,123,8964,1,0,0:0:0:0:
366,202,9063,1,0,0:0:0:0:
113,214,9162,5,0,0:0:0:0:
28,114,9261,1,0,0:0:0:0:
156,90,9360,1,0,0:0:0:0:
398,169,9459,5,0,0:0:0:0:
483,269,9558,1,0,0:0:0:0:
355,293,9657,1,0,0:0:0:0:
82,157,9756,5,0,0:0:0:0:
26,8,9855,1,0,0:0:0:0:
184,33,9954,1,0,0:0:0:0:
429,226,10053,5,0,0:0:0:0:
485,375,10152,1,0,0:0:0:0:
327,350,10251,1,0,0:0:0:0:
249,230,10350,6,4,P|255:200|249:166,1,56.2499964237214,2|4,0:0|0:3,0:3:0:0:
311,124,10647,6,0,B|349:166|330:205|330:205|370:252|313:251|309:284|309:284|307:313|247:338,1,213.749980702401,0|4,0:0|0:0,0:0:0:0:
472,40,10944,5,8,0:0:0:0:
155,297,11241,6,0,L|187:313,1,35.6249967837335,8|0,0:0|0:0,0:0:0:0:
128,248,11316,2,0,L|160:264,1,35.6249967837335,8|0,0:0|0:0,0:0:0:0:
87,216,11390,2,0,L|119:232,1,35.6249967837335,8|0,0:0|0:0,0:0:0:0:
42,213,11464,2,0,L|74:229,1,35.6249967837335
473,358,11539,5,0,0:0:0:0:
131,318,11836,2,0,P|29:333|29:356,1,142.499987134934,2|0,0:0|0:0,0:0:0:0:
313,284,12133,5,4,0:3:0:0:
374,320,12207,1,4,0:3:0:0:
311,355,12281,1,0,0:3:0:0:
219,155,12430,6,0,P|248:93|210:38,1,142.499987134934,2|0,0:0|0:0,0:0:0:0:
255,292,12727,5,4,0:3:0:0:
285,371,12801,1,2,0:0:0:0:
206,360,12875,1,2,0:0:0:0:
332,284,13024,5,4,0:0:0:0:
180,100,13172,5,8,0:0:0:0:
481,155,13469,5,8,0:0:0:0:
31,229,13618,5,8,0:0:0:0:
436,45,13915,5,8,0:0:0:0:
76,339,14063,5,8,0:0:0:0:
292,10,14212,6,2,L|328:17,1,35.6249967837335,2|2,0:0|0:0,0:0:0:0:
246,21,14286,2,2,L|281:27,1,35.6249967837335,2|2,0:0|0:0,0:0:0:0:
199,34,14360,1,2,0:0:0:0:
219,373,14509,5,4,0:3:0:0:
266,363,14583,1,0,0:0:0:0:
313,350,14657,1,0,0:0:0:0:
152,96,14806,5,4,0:0:0:0:
360,288,14954,5,4,0:0:0:0:
172,172,15103,5,4,0:0:0:0:
340,212,15307,5,4,0:0:0:0:
236,224,15511,5,8,0:0:0:0:
276,160,15697,6,0,P|231:148|177:177,1,105.468747317791,8|0,0:0|0:0,0:0:0:0:
494,198,15994,5,2,0:0:0:0:
491,188,16031,1,2,0:0:0:0:
489,178,16068,1,2,0:0:0:0:
486,169,16105,1,2,0:0:0:0:
484,159,16142,1,2,0:0:0:0:
27,224,16291,5,4,0:3:0:0:
463,84,16588,5,2,0:0:0:0:
49,300,16885,5,4,0:0:0:0:
73,303,16959,1,4,0:0:0:0:
340,42,17182,5,4,0:0:0:0:
386,248,17331,1,4,0:0:0:0:
183,195,17628,5,4,0:0:0:0:
102,230,17776,2,8,P|128:264|198:281,1,112.499997138977,8|4,0:0|0:0,0:0:0:0:
371,163,18222,5,2,0:0:0:0:
196,192,18296,2,0,L|182:194,2,14.0624996423721,0|0|2,0:0|0:0|0:0,0:0:0:0:
52,95,18667,5,8,0:0:0:0:
31,269,18816,1,0,0:0:0:0:
270,219,18964,6,0,P|259:144|211:114,1,112.499997138977,2|0,0:0|0:0,0:0:0:0:
171,342,19261,5,4,0:3:0:0:
247,364,19336,1,4,0:3:0:0:
321,340,19410,5,2,0:0:0:0:
191,44,19558,1,2,0:0:0:0:
104,249,19707,5,4,0:3:0:0:
156,309,19782,1,2,0:0:0:0:
230,329,19856,5,2,0:0:0:0:
282,55,20004,1,2,0:0:0:0:
147,326,20152,5,2,0:0:0:0:
356,327,20190,5,4,0:3:0:0:
147,294,20227,5,2,0:0:0:0:
356,295,20265,5,4,0:0:0:0:
147,262,20301,5,2,0:0:0:0:
356,263,20339,5,8,0:0:0:0:
256,324,20449,6,2,L|256:344,1,14.0624996423721
180,88,20524,6,2,L|169:72,1,14.0624996423721
373,230,20635,6,2,L|392:236,1,14.0624996423721
324,98,20728,6,2,L|335:81,1,14.0624996423721
141,229,20858,6,2,L|122:235,1,14.0624996423721
256,303,21043,6,2,L|256:324,1,14.0624996423721
118,147,21340,1,4,0:3:0:0:
340,308,21638,5,2,0:0:0:0:
256,47,21712,5,2,0:0:0:0:
171,308,21786,5,2,0:0:0:0:
393,147,21935,1,4,0:3:0:0:
393,147,22083,1,0,0:0:0:0:
118,147,22529,5,4,0:0:0:0:
184,169,22677,2,0,L|256:193,1,74.9999952316285,4|8,0:0|0:0,0:0:0:0:
256,118,23123,5,8,0:0:0:0:
256,118,23420,5,2,0:0:0:0:
320,228,23494,5,2,0:0:0:0:
193,228,23569,5,2,0:0:0:0:
424,74,23717,5,2,0:0:0:0:
88,310,23865,5,2,0:0:0:0:
