osu file format v14

[General]
AudioFilename: preparing for te shakedown_200705155_soundcloud.mp3
AudioLeadIn: 0
PreviewTime: 1440
Countdown: 1
SampleSet: Soft
StackLeniency: 0.7
Mode: 0
LetterboxInBreaks: 1
WidescreenStoryboard: 1

[Editor]
DistanceSpacing: 0.5
BeatDivisor: 4
GridSize: 4
TimelineZoom: 3

[Metadata]
Title:preparing for te shakedown
TitleUnicode:preparing for te shakedown
Artist:yumyumyuumyy
ArtistUnicode:yumyumyuumyy
Creator:[Toy]
Version:STATRICK
Source:
Tags:
BeatmapID:705924
BeatmapSetID:316625

[Difficulty]
HPDrainRate:10
CircleSize:6
OverallDifficulty:10
ApproachRate:10
SliderMultiplier:3.59999990463257
SliderTickRate:1

[Events]
//Background and Video events
0,0,"patrick.jpg",0,0
//Break Periods
//Storyboard Layer 0 (Background)
//Storyboard Layer 1 (Fail)
//Storyboard Layer 2 (Pass)
//Storyboard Layer 3 (Foreground)
//Storyboard Sound Samples

[TimingPoints]
1440,297.029702970297,4,2,0,100,1,0

[HitObjects]
236,216,251,5,0,0:0:0:0:
256,168,548,1,0,0:0:0:0:
276,216,845,1,0,0:0:0:0:
232,180,1142,1,0,0:0:0:0:
284,180,1440,1,0,0:0:0:0:
204,256,1588,1,0,0:0:0:0:
256,112,1737,1,0,0:0:0:0:
300,260,1885,1,0,0:0:0:0:
192,148,2034,1,0,0:0:0:0:
320,144,2182,1,0,0:0:0:0:
176,300,2331,1,0,0:0:0:0:
256,60,2479,1,0,0:0:0:0:
336,296,2628,1,0,0:0:0:0:
156,112,2776,1,0,0:0:0:0:
352,108,2925,1,0,0:0:0:0:
144,340,3073,1,0,0:0:0:0:
256,8,3222,1,0,0:0:0:0:
364,340,3370,1,0,0:0:0:0:
124,72,3519,1,0,0:0:0:0:
388,64,3667,1,0,0:0:0:0:
109,305,3816,1,0,0:0:0:0:
303,14,3965,1,0,0:0:0:0:
322,362,4113,1,0,0:0:0:0:
159,41,4262,1,0,0:0:0:0:
416,102,4410,1,0,0:0:0:0:
85,264,4558,1,0,0:0:0:0:
348,32,4707,1,0,0:0:0:0:
275,374,4855,1,0,0:0:0:0:
201,22,5004,1,0,0:0:0:0:
434,147,5152,1,0,0:0:0:0:
72,217,5301,1,0,0:0:0:0:
386,61,5450,1,0,0:0:0:0:
227,373,5598,1,0,0:0:0:0:
247,13,5747,1,0,0:0:0:0:
439,194,5895,1,0,0:0:0:0:
71,169,6043,1,0,0:0:0:0:
416,102,6192,1,0,0:0:0:0:
439,194,6266,1,0,0:0:0:0:
408,276,6340,1,0,0:0:0:0:
336,332,6415,1,0,0:0:0:0:
256,372,6489,1,0,0:0:0:0:
172,344,6563,1,0,0:0:0:0:
104,280,6638,1,0,0:0:0:0:
68,196,6712,1,0,0:0:0:0:
96,112,6786,1,0,0:0:0:0:
160,48,6860,1,0,0:0:0:0:
244,16,6935,1,0,0:0:0:0:
332,36,7009,1,0,0:0:0:0:
404,88,7083,1,0,0:0:0:0:
432,172,7157,1,0,0:0:0:0:
416,260,7232,1,0,0:0:0:0:
352,320,7306,1,0,0:0:0:0:
264,324,7380,1,0,0:0:0:0:
184,288,7454,1,0,0:0:0:0:
132,216,7529,1,0,0:0:0:0:
148,128,7603,1,0,0:0:0:0:
216,72,7677,1,0,0:0:0:0:
304,80,7751,1,0,0:0:0:0:
368,144,7826,1,0,0:0:0:0:
352,232,7900,1,0,0:0:0:0:
264,252,7974,1,0,0:0:0:0:
228,224,8048,1,0,0:0:0:0:
208,184,8123,1,0,0:0:0:0:
224,144,8197,1,0,0:0:0:0:
268,136,8271,1,0,0:0:0:0:
304,164,8345,1,0,0:0:0:0:
292,208,8420,1,0,0:0:0:0:
256,232,8494,1,0,0:0:0:0:
226,168,8531,2,0,P|220:189|232:208,15,44.9999988079071
272,152,9125,2,0,P|251:145|232:157,15,44.9999988079071
280,196,9719,2,0,P|286:175|274:156,15,44.9999988079071
280,196,10944,1,0,0:0:0:0:
