osu file format v14

[General]
AudioFilename: preparing for te shakedown_200705155_soundcloud.mp3
AudioLeadIn: 0
PreviewTime: 10350
Countdown: 1
SampleSet: None
StackLeniency: 1
Mode: 0
LetterboxInBreaks: 1
WidescreenStoryboard: 1

[Editor]
Bookmarks: 21006
DistanceSpacing: 1.2
BeatDivisor: 8
GridSize: 4
TimelineZoom: 8

[Metadata]
Title:preparing for te shakedown
TitleUnicode:preparing for te shakedown
Artist:yumyumyuumyy
ArtistUnicode:yumyumyuumyy
Creator:[Toy]
Version:Oh no, dropped my bag of sliders!
Source:
Tags:
BeatmapID:706570
BeatmapSetID:316625

[Difficulty]
HPDrainRate:7
CircleSize:4
OverallDifficulty:7
ApproachRate:9
SliderMultiplier:3.59999990463257
SliderTickRate:4

[Events]
//Background and Video events
0,0,"patrick.jpg",0,0
//Break Periods
//Storyboard Layer 0 (Background)
//Storyboard Layer 1 (Fail)
//Storyboard Layer 2 (Pass)
//Storyboard Layer 3 (Foreground)
//Storyboard Sound Samples

[TimingPoints]
1440,297.029702970297,4,2,0,100,1,0
8519,-50,4,2,0,100,0,0
8619,-100,4,2,0,100,0,0
15474,-200,4,2,0,100,0,0
15994,-100,4,2,0,100,0,0

[HitObjects]
168,92,1440,6,0,L|244:176,1,89.9999976158143
448,96,1514,6,0,L|384:208,1,89.9999976158143
244,308,1588,6,0,L|120:268,1,89.9999976158143
448,300,1662,6,0,L|344:244,1,89.9999976158143
344,40,1737,6,0,L|296:156,1,89.9999976158143
132,176,1811,6,0,L|228:212,1,89.9999976158143
108,348,1885,6,0,L|204:288,1,89.9999976158143
404,176,1959,6,0,L|288:196,1,89.9999976158143
352,360,2034,6,0,B|288:284|288:284|288:280,1,89.9999976158143
56,112,2108,6,0,L|136:168,1,89.9999976158143
248,224,2182,6,0,B|308:132|308:132|312:132,1,89.9999976158143
396,268,2256,6,0,L|272:288,1,89.9999976158143
252,56,2331,6,0,L|188:136,1,89.9999976158143
56,320,2405,6,0,L|140:264|140:264,1,89.9999976158143
456,28,2479,6,0,L|360:96,1,89.9999976158143
240,360,2553,6,0,L|288:268,1,89.9999976158143
316,128,2628,6,0,L|212:148,1,89.9999976158143
28,200,2702,6,0,L|124:216,1,89.9999976158143
80,60,2776,6,0,L|144:144,1,89.9999976158143
328,208,2850,6,0,L|228:244,1,89.9999976158143
116,320,2925,6,0,L|188:252,1,89.9999976158143
396,92,2999,6,0,L|276:76,1,89.9999976158143
44,224,3073,6,0,B|144:172|144:172|144:168,1,89.9999976158143
464,352,3147,6,0,L|372:304,1,89.9999976158143
440,156,3222,6,0,L|320:180|320:180,1,89.9999976158143
208,84,3296,6,0,L|208:180,1,89.9999976158143
176,384,3370,6,0,L|248:292,1,89.9999976158143
432,248,3444,6,0,L|304:248,1,89.9999976158143
124,252,3519,6,0,L|224:240,1,89.9999976158143
304,128,3593,6,0,L|176:120|176:120,1,89.9999976158143
100,144,3667,6,0,L|172:212,1,89.9999976158143
368,360,3741,6,0,L|292:296,1,89.9999976158143
336,44,3816,6,0,B|268:128|268:128|264:128,1,89.9999976158143
80,352,3890,6,0,L|176:288,1,89.9999976158143
168,92,3965,6,0,L|244:176,1,89.9999976158143
448,96,4039,6,0,L|384:208,1,89.9999976158143
244,308,4113,6,0,L|120:268,1,89.9999976158143
448,300,4187,6,0,L|344:244,1,89.9999976158143
344,40,4262,6,0,L|296:156,1,89.9999976158143
132,176,4336,6,0,L|228:212,1,89.9999976158143
108,348,4410,6,0,L|204:288,1,89.9999976158143
404,176,4484,6,0,L|288:196,1,89.9999976158143
352,360,4559,6,0,B|288:284|288:284|288:280,1,89.9999976158143
56,112,4633,6,0,L|136:168,1,89.9999976158143
248,224,4707,6,0,B|308:132|308:132|312:132,1,89.9999976158143
396,268,4781,6,0,L|272:288,1,89.9999976158143
252,56,4856,6,0,L|188:136,1,89.9999976158143
56,320,4930,6,0,L|140:264|140:264,1,89.9999976158143
456,28,5004,6,0,L|360:96,1,89.9999976158143
240,360,5078,6,0,L|288:268,1,89.9999976158143
316,128,5153,6,0,L|212:148,1,89.9999976158143
28,200,5227,6,0,L|124:216,1,89.9999976158143
80,60,5301,6,0,L|144:144,1,89.9999976158143
328,208,5375,6,0,L|228:244,1,89.9999976158143
116,320,5450,6,0,L|188:252,1,89.9999976158143
396,92,5524,6,0,L|276:76,1,89.9999976158143
44,224,5598,6,0,B|144:172|144:172|144:168,1,89.9999976158143
464,352,5672,6,0,L|372:304,1,89.9999976158143
440,156,5747,6,0,L|320:180|320:180,1,89.9999976158143
208,84,5821,6,0,L|208:180,1,89.9999976158143
176,384,5895,6,0,L|248:292,1,89.9999976158143
432,248,5969,6,0,L|304:248,1,89.9999976158143
124,252,6044,6,0,L|224:240,1,89.9999976158143
304,128,6118,6,0,L|176:120|176:120,1,89.9999976158143
96,144,6192,6,0,L|164:192,1,44.9999988079071
360,68,6229,6,0,L|280:104,1,44.9999988079071
304,288,6266,6,0,L|224:300,1,44.9999988079071
376,256,6303,6,0,L|300:240,1,44.9999988079071
152,320,6340,6,0,L|196:288,1,44.9999988079071
208,164,6378,6,0,L|144:188,1,44.9999988079071
276,160,6415,6,0,L|264:232,1,44.9999988079071
440,104,6452,6,0,L|364:88,1,44.9999988079071
152,84,6489,6,0,L|112:152,1,44.9999988079071
48,308,6526,6,0,L|128:312,1,44.9999988079071
392,336,6563,6,0,L|348:352,1,44.9999988079071
396,204,6600,6,0,L|324:176,1,44.9999988079071
252,60,6638,6,0,L|216:116,1,44.9999988079071
132,244,6675,6,0,L|184:264,1,44.9999988079071
375,122,6712,6,0,L|352:192,1,44.9999988079071
216,208,6749,6,0,L|280:240,1,44.9999988079071
464,312,6786,6,0,L|444:236,1,44.9999988079071
180,104,6823,6,0,L|148:168,1,44.9999988079071
48,132,6860,6,0,L|136:136,1,44.9999988079071
356,80,6897,6,0,L|280:108,1,44.9999988079071
272,336,6935,6,0,L|316:272,1,44.9999988079071
404,148,6972,6,0,L|344:164,1,44.9999988079071
116,264,7009,6,0,L|176:248,1,44.9999988079071
164,328,7046,6,0,L|168:284,1,44.9999988079071
280,216,7083,6,0,L|224:188,1,44.9999988079071
240,264,7120,6,0,L|208:320,1,44.9999988079071
320,276,7157,6,0,L|240:280,1,44.9999988079071
400,236,7194,6,0,L|356:188,1,44.9999988079071
472,132,7232,6,0,L|456:184,1,44.9999988079071
252,92,7269,6,0,L|188:96,1,44.9999988079071
88,168,7306,6,0,L|56:232,1,44.9999988079071
152,184,7343,6,0,L|128:260,1,44.9999988079071
308,156,7380,6,0,L|228:144,1,44.9999988079071
212,360,7417,6,0,L|288:340,1,44.9999988079071
356,176,7454,6,0,L|280:208,1,44.9999988079071
96,48,7491,6,0,L|80:108,1,44.9999988079071
128,296,7529,6,0,L|188:248,1,44.9999988079071
28,336,7566,6,0,L|96:308,1,44.9999988079071
464,296,7603,6,0,L|392:268,1,44.9999988079071
404,84,7640,6,0,B|368:128,1,44.9999988079071
200,128,7677,6,0,L|216:172,1,44.9999988079071
368,360,7714,6,0,L|296:312,1,44.9999988079071
452,168,7751,6,0,L|384:180,1,44.9999988079071
80,104,7789,6,0,L|136:88,1,44.9999988079071
404,52,7826,6,0,L|332:68,1,44.9999988079071
472,240,7863,6,0,L|392:240,1,44.9999988079071
288,348,7900,6,0,L|296:276,1,44.9999988079071
212,36,7937,6,0,L|220:96,1,44.9999988079071
56,232,7974,6,0,L|120:224,1,44.9999988079071
396,128,8011,6,0,L|328:148,1,44.9999988079071
308,64,8048,6,0,B|280:116,1,44.9999988079071
140,344,8086,6,0,L|200:292,1,44.9999988079071
400,224,8123,6,0,L|328:204,1,44.9999988079071
468,28,8160,6,0,L|432:68,1,44.9999988079071
72,188,8197,6,0,L|136:200,1,44.9999988079071
328,284,8234,6,0,L|280:344,1,44.9999988079071
256,120,8271,6,0,L|208:88,1,44.9999988079071
460,324,8308,6,0,L|400:288,1,44.9999988079071
304,160,8345,6,0,L|248:212,1,44.9999988079071
276,160,8383,6,0,L|264:232,1,44.9999988079071
440,104,8420,6,0,L|364:88,1,44.9999988079071
152,84,8457,6,0,L|112:152,1,44.9999988079071
48,308,8494,6,0,L|128:312,1,44.9999988079071
392,336,8531,6,0,L|284:356,1,89.9999976158143
284,48,8568,6,0,L|232:136,1,89.9999976158143
24,28,8605,6,0,L|92:108,1,89.9999976158143
132,244,8642,6,0,L|184:264,1,44.9999988079071
375,122,8679,6,0,L|352:192,1,44.9999988079071
216,208,8716,6,0,L|280:240,1,44.9999988079071
464,312,8753,6,0,L|444:236,1,44.9999988079071
180,104,8790,6,0,L|148:168,1,44.9999988079071
48,132,8827,6,0,L|136:136,1,44.9999988079071
356,80,8864,6,0,L|280:108,1,44.9999988079071
272,336,8902,6,0,L|316:272,1,44.9999988079071
404,148,8939,6,0,L|344:164,1,44.9999988079071
116,264,8976,6,0,L|176:248,1,44.9999988079071
164,328,9013,6,0,L|168:284,1,44.9999988079071
280,216,9050,6,0,L|224:188,1,44.9999988079071
240,264,9087,6,0,L|208:320,1,44.9999988079071
320,276,9124,6,0,L|240:280,1,44.9999988079071
400,236,9161,6,0,L|356:188,1,44.9999988079071
472,132,9199,6,0,L|456:184,1,44.9999988079071
252,92,9236,6,0,L|188:96,1,44.9999988079071
88,168,9273,6,0,L|56:232,1,44.9999988079071
152,184,9310,6,0,L|128:260,1,44.9999988079071
308,156,9347,6,0,L|228:144,1,44.9999988079071
212,360,9384,6,0,L|288:340,1,44.9999988079071
356,176,9421,6,0,L|280:208,1,44.9999988079071
96,48,9458,6,0,L|80:108,1,44.9999988079071
128,296,9496,6,0,L|188:248,1,44.9999988079071
28,336,9533,6,0,L|96:308,1,44.9999988079071
464,296,9570,6,0,L|392:268,1,44.9999988079071
404,84,9607,6,0,B|368:128,1,44.9999988079071
200,128,9644,6,0,L|216:172,1,44.9999988079071
368,360,9681,6,0,L|296:312,1,44.9999988079071
452,168,9718,6,0,L|384:180,1,44.9999988079071
80,104,9756,6,0,L|136:88,1,44.9999988079071
404,52,9793,6,0,L|332:68,1,44.9999988079071
472,240,9830,6,0,L|392:240,1,44.9999988079071
288,348,9867,6,0,L|296:276,1,44.9999988079071
212,36,9904,6,0,L|220:96,1,44.9999988079071
56,232,9941,6,0,L|120:224,1,44.9999988079071
396,128,9978,6,0,L|328:148,1,44.9999988079071
308,64,10015,6,0,B|280:116,1,44.9999988079071
140,344,10053,6,0,L|200:292,1,44.9999988079071
400,224,10090,6,0,L|328:204,1,44.9999988079071
468,28,10127,6,0,L|432:68,1,44.9999988079071
72,188,10164,6,0,L|136:200,1,44.9999988079071
328,284,10201,6,0,L|280:344,1,44.9999988079071
256,120,10238,6,0,L|208:88,1,44.9999988079071
460,324,10275,6,0,L|400:288,1,44.9999988079071
304,160,10312,6,0,L|248:212,1,44.9999988079071
156,48,10425,6,0,L|184:152,6,89.9999976158143
280,208,10870,6,0,P|216:252|216:216,2,89.9999976158143
52,80,11093,2,0,B|96:160|96:160|156:100|156:100|160:192|160:192|232:132|232:132|256:236,1,449.999988079071
36,304,11576,2,0,B|64:320|64:320|100:256|100:256|148:304,1,89.9999976158143
436,92,11836,2,0,B|416:68|416:68|276:108,1,89.9999976158143
200,208,12170,2,0,B|208:236|208:236|252:220|276:224|276:224|296:280,1,134.999996423721
292,112,12392,2,0,B|272:64|272:64|224:112|224:112|224:80|224:80|196:112|196:112|176:96,1,179.999995231629
488,340,12615,2,0,B|488:292|428:320|428:320|384:308,1,89.9999976158143
108,212,13061,2,0,B|120:180|120:180|68:192|68:192|72:152,1,89.9999976158143
424,80,13506,2,0,B|400:48|400:48|380:76|380:76|392:112|392:112|384:128,1,89.9999976158143
140,84,13655,2,0,B|116:52|116:52|96:80|96:80|108:116|108:116|100:132,1,89.9999976158143
280,324,13952,2,0,B|244:332|244:332|208:332|208:332|168:304,1,89.9999976158143
368,192,14100,2,0,B|312:196|312:196|328:168|328:168|264:172,1,134.999996423721
72,312,14249,2,0,B|116:296|116:296|120:256|120:256|160:264,1,89.9999976158143
176,160,14546,2,0,B|148:156|148:156|184:208|184:208|152:200|152:200|128:260,1,179.999995231629
432,268,14843,2,0,B|408:232|408:232|416:204|416:204|360:208,1,89.9999976158143
38,176,14991,2,0,B|56:216|56:216|116:224|116:224|132:232,1,89.9999976158143
416,56,15140,2,0,B|388:40|388:40|312:100,1,89.9999976158143
200,316,15363,2,0,B|231:286|231:286|224:268|224:268|244:274|244:274|264:308,1,89.9999976158143
96,68,15586,2,0,L|44:104,1,44.9999988079071
336,148,15734,2,0,B|352:180|352:180|316:180|316:180|332:208,1,89.9999976158143
240,112,15957,2,0,B|248:132|248:132|240:176|240:176|272:192|272:192|288:240|288:240|316:240|316:240|352:268,1,224.999994039536
88,176,16625,2,0,B|108:212|108:212|88:216|88:216|96:272,1,89.9999976158143
456,120,16922,2,0,B|416:128|404:176|364:152|364:152|332:264,1,179.999995231629
140,72,17182,2,0,B|152:112|152:112|132:164|132:164|184:224,1,134.999996423721
408,328,17368,2,0,L|296:300,1,89.9999976158143
360,68,17813,2,0,B|328:108|328:108|292:96|292:96|268:120,1,89.9999976158143
88,320,18259,2,0,B|132:332|132:332|144:268|144:268|164:272,1,89.9999976158143
160,196,18407,2,0,B|188:168|188:168|216:184|216:184|264:172,1,89.9999976158143
416,172,18704,2,0,B|440:156|440:156|460:132|460:132|440:100,1,89.9999976158143
192,88,18853,2,0,B|152:120|152:120|128:104|128:104|104:152|104:152,1,89.9999976158143
472,280,19001,2,0,B|412:276|412:276|400:228|400:228|316:260|316:260|304:248,1,179.999995231629
224,316,19298,2,0,B|192:336|192:336|180:272|180:272|72:224,1,179.999995231629
88,116,19595,2,0,B|96:100|96:100|113:98|113:98|116:80|116:80|130:86|130:86|180:56,1,89.9999976158143
476,112,19744,2,0,B|452:136|452:136|440:128|440:128|432:128|432:128|424:140|424:140|424:156|424:156|428:192,1,89.9999976158143
116,268,20041,2,0,B|140:236|140:236|164:232|164:232|172:252|172:252|208:228,1,89.9999976158143
316,64,20190,2,0,B|304:96|304:96|264:104|264:104|268:144,1,89.9999976158143
372,296,20338,2,0,B|372:272|372:272|328:272|328:272|328:240,1,89.9999976158143
120,52,20487,2,0,B|220:52|220:52|172:120|172:120|208:160|208:160|304:116|304:116|288:196|288:196|352:248|352:248|456:168,1,629.9999833107
176,324,21081,2,0,B|200:288|200:288|239:293|239:293|284:292,1,89.9999976158143
440,104,21378,2,0,B|408:84|408:84|388:104|388:104|368:112|368:112|324:112,1,89.9999976158143
64,164,21675,2,0,B|100:168|100:168|112:180|112:180|120:164|120:164|168:188|168:188,1,89.9999976158143
384,260,22120,2,0,B|348:216|348:216|276:224,1,89.9999976158143
48,332,22566,2,0,B|72:336|88:288|88:288|128:264,1,89.9999976158143
248,48,23011,2,0,B|256:48|256:48|248:52|248:52|256:52|256:52|248:56|248:56|256:56|256:56|248:60|248:60|256:60|256:60|248:64|248:64|256:64|256:64|248:68|248:68|256:68|256:68|248:72|248:72|256:72,1,89.9999976158143
256,140,23160,2,0,B|264:140|264:140|256:144|256:144|264:144|264:144|256:148|256:148|264:148|264:148|256:152|256:152|264:152|264:152|256:156|256:156|264:156|264:156|256:160|256:160|264:160|264:160|256:164|256:164|264:164,1,89.9999976158143
268,232,23457,2,0,B|276:232|276:232|268:236|268:236|276:236|276:236|268:240|268:240|276:240|276:240|268:244|268:244|276:244|276:244|268:248|268:248|276:248|276:248|268:252|268:252|276:252|276:252|268:256|268:256|276:256,1,89.9999976158143
280,328,23605,2,0,B|288:328|288:328|280:332|280:332|288:332|288:332|280:336|280:336|288:336|288:336|280:340|280:340|288:340|288:340|280:344|280:344|288:344|288:344|280:348|280:348|288:348|288:348|280:352|280:352|288:352,1,89.9999976158143
