osu file format v14

[General]
AudioFilename: preparing for te shakedown_200705155_soundcloud.mp3
AudioLeadIn: 0
PreviewTime: 10350
Countdown: 0
SampleSet: None
StackLeniency: 0.2
Mode: 1
LetterboxInBreaks: 0
WidescreenStoryboard: 1

[Editor]
DistanceSpacing: 0.9
BeatDivisor: 6
GridSize: 32
TimelineZoom: 5.099998

[Metadata]
Title:preparing for te shakedown
TitleUnicode:preparing for te shakedown
Artist:yumyumyuumyy
ArtistUnicode:yumyumyuumyy
Creator:[Toy]
Version:OH BOY 3AM
Source:
Tags:
BeatmapID:712752
BeatmapSetID:316625

[Difficulty]
HPDrainRate:6
CircleSize:5
OverallDifficulty:6
ApproachRate:6
SliderMultiplier:1.4
SliderTickRate:1

[Events]
//Background and Video events
0,0,"patrick.jpg",0,0
//Break Periods
//Storyboard Layer 0 (Background)
//Storyboard Layer 1 (Fail)
//Storyboard Layer 2 (Pass)
//Storyboard Layer 3 (Foreground)
//Storyboard Sound Samples

[TimingPoints]
1440,297.029702970297,4,1,0,100,1,0

[HitObjects]
128,288,1440,5,0,0:0:0:0:
128,288,1588,1,0,0:0:0:0:
128,288,1737,1,0,0:0:0:0:
128,288,1885,1,0,0:0:0:0:
128,288,2034,1,0,0:0:0:0:
128,288,2182,1,0,0:0:0:0:
128,288,2331,1,0,0:0:0:0:
128,288,2479,1,0,0:0:0:0:
128,288,2628,1,0,0:0:0:0:
128,288,2776,1,0,0:0:0:0:
128,288,2925,1,0,0:0:0:0:
128,288,3073,1,0,0:0:0:0:
128,288,3222,1,0,0:0:0:0:
128,288,3370,1,0,0:0:0:0:
128,288,3519,1,0,0:0:0:0:
128,288,3667,1,0,0:0:0:0:
128,288,3816,1,0,0:0:0:0:
128,288,3890,1,0,0:0:0:0:
128,288,3964,1,0,0:0:0:0:
128,288,4039,1,0,0:0:0:0:
128,288,4113,1,0,0:0:0:0:
128,288,4187,1,0,0:0:0:0:
128,288,4261,1,0,0:0:0:0:
128,288,4336,1,0,0:0:0:0:
128,288,4410,1,0,0:0:0:0:
128,288,4484,1,0,0:0:0:0:
128,288,4558,1,0,0:0:0:0:
128,288,4633,1,0,0:0:0:0:
128,288,4707,1,0,0:0:0:0:
128,288,4781,1,0,0:0:0:0:
128,288,4855,1,0,0:0:0:0:
128,288,4930,1,0,0:0:0:0:
128,288,5004,1,0,0:0:0:0:
128,288,5078,1,0,0:0:0:0:
128,288,5152,1,0,0:0:0:0:
128,288,5227,1,0,0:0:0:0:
128,288,5301,1,0,0:0:0:0:
128,288,5375,1,0,0:0:0:0:
128,288,5449,1,0,0:0:0:0:
128,288,5524,1,0,0:0:0:0:
128,288,5598,1,0,0:0:0:0:
128,288,5672,1,0,0:0:0:0:
128,288,5746,1,0,0:0:0:0:
128,288,5821,1,0,0:0:0:0:
128,288,5895,1,0,0:0:0:0:
128,288,5969,1,0,0:0:0:0:
128,288,6043,1,0,0:0:0:0:
128,288,6118,1,0,0:0:0:0:
416,256,6192,1,8,0:0:0:0:
128,288,6291,1,0,0:0:0:0:
128,288,6390,1,0,0:0:0:0:
352,256,6489,1,8,0:0:0:0:
128,288,6588,1,0,0:0:0:0:
128,288,6687,1,0,0:0:0:0:
320,256,6786,1,8,0:0:0:0:
96,288,6885,1,0,0:0:0:0:
96,288,6984,1,0,0:0:0:0:
320,256,7083,1,8,0:0:0:0:
128,288,7182,1,0,0:0:0:0:
128,288,7281,1,0,0:0:0:0:
352,256,7380,1,8,0:0:0:0:
320,256,7479,1,8,0:0:0:0:
96,288,7578,1,0,0:0:0:0:
352,256,7677,1,8,0:0:0:0:
352,256,7776,1,8,0:0:0:0:
96,288,7875,1,0,0:0:0:0:
320,256,7974,1,8,0:0:0:0:
320,256,8073,1,8,0:0:0:0:
96,288,8172,1,0,0:0:0:0:
320,288,8271,1,8,0:0:0:0:
320,288,8370,1,8,0:0:0:0:
96,288,8469,1,0,0:0:0:0:
352,256,8568,1,8,0:0:0:0:
352,288,8667,1,8,0:0:0:0:
384,288,8766,1,8,0:0:0:0:
160,256,8865,1,0,0:0:0:0:
160,288,8964,1,0,0:0:0:0:
160,256,9063,1,0,0:0:0:0:
352,288,9162,1,8,0:0:0:0:
352,288,9261,1,8,0:0:0:0:
352,288,9360,1,8,0:0:0:0:
128,256,9459,1,0,0:0:0:0:
160,288,9558,1,0,0:0:0:0:
160,288,9657,1,0,0:0:0:0:
352,256,9756,1,8,0:0:0:0:
352,256,9831,1,8,0:0:0:0:
352,256,9905,1,8,0:0:0:0:
352,256,9979,1,8,0:0:0:0:
352,256,10053,1,8,0:0:0:0:
352,256,10128,1,8,0:0:0:0:
352,256,10202,1,8,0:0:0:0:
352,256,10276,1,8,0:0:0:0:
160,288,10350,1,0,0:0:0:0:
352,288,10796,1,8,0:0:0:0:
352,288,10845,1,8,0:0:0:0:
352,288,10895,1,8,0:0:0:0:
128,288,10944,1,0,0:0:0:0:
160,288,11241,1,0,0:0:0:0:
160,288,11291,1,0,0:0:0:0:
160,288,11340,1,0,0:0:0:0:
160,288,11390,1,0,0:0:0:0:
160,288,11440,1,0,0:0:0:0:
160,288,11489,1,0,0:0:0:0:
352,288,11539,1,8,0:0:0:0:
128,288,11687,1,0,0:0:0:0:
384,288,11836,1,8,0:0:0:0:
384,288,12133,1,8,0:0:0:0:
384,288,12207,1,8,0:0:0:0:
384,288,12281,1,8,0:0:0:0:
160,288,12430,1,0,0:0:0:0:
384,288,12578,1,8,0:0:0:0:
128,288,12727,1,0,0:0:0:0:
128,288,12875,1,0,0:0:0:0:
128,288,13024,1,8,0:0:0:0:
128,288,13172,1,0,0:0:0:0:
160,288,13469,1,0,0:0:0:0:
160,288,13618,1,0,0:0:0:0:
128,256,13915,1,0,0:0:0:0:
384,288,14063,1,8,0:0:0:0:
128,288,14212,1,0,0:0:0:0:
128,288,14360,1,0,0:0:0:0:
416,288,14509,1,8,0:0:0:0:
416,288,14583,1,8,0:0:0:0:
416,288,14657,1,8,0:0:0:0:
128,288,14806,1,0,0:0:0:0:
352,288,14954,1,8,0:0:0:0:
384,320,15103,1,8,0:0:0:0:
192,320,15326,1,0,0:0:0:0:
416,320,15548,1,8,0:0:0:0:
128,320,15697,1,0,0:0:0:0:
160,320,15994,1,0,0:0:0:0:
160,320,16043,1,0,0:0:0:0:
160,320,16093,1,0,0:0:0:0:
160,320,16142,1,0,0:0:0:0:
160,320,16192,1,0,0:0:0:0:
160,288,16241,1,0,0:0:0:0:
384,320,16291,1,8,0:0:0:0:
128,288,16440,1,0,0:0:0:0:
384,288,16588,1,8,0:0:0:0:
384,320,16885,1,8,0:0:0:0:
384,320,16959,1,8,0:0:0:0:
384,320,17034,1,8,0:0:0:0:
160,288,17182,1,0,0:0:0:0:
352,288,17331,1,8,0:0:0:0:
160,320,17479,1,0,0:0:0:0:
320,320,17628,1,8,0:0:0:0:
128,320,17776,1,8,0:0:0:0:
128,288,17925,1,0,0:0:0:0:
384,288,18222,1,8,0:0:0:0:
128,288,18370,1,0,0:0:0:0:
128,288,18420,1,0,0:0:0:0:
128,288,18469,1,0,0:0:0:0:
288,320,18519,1,8,0:0:0:0:
128,288,18667,1,0,0:0:0:0:
320,320,18816,1,8,0:0:0:0:
96,288,18964,1,0,0:0:0:0:
384,320,19113,1,8,0:0:0:0:
352,288,19261,1,8,0:0:0:0:
352,288,19335,1,8,0:0:0:0:
352,288,19409,1,8,0:0:0:0:
128,320,19558,1,0,0:0:0:0:
320,320,19706,1,8,0:0:0:0:
320,320,19781,1,8,0:0:0:0:
320,320,19855,1,8,0:0:0:0:
160,320,20003,1,0,0:0:0:0:
320,320,20152,1,8,0:0:0:0:
384,288,20301,1,8,0:0:0:0:
128,96,20449,1,4,0:0:0:0:
128,96,20672,1,4,0:0:0:0:
128,96,20895,1,4,0:0:0:0:
352,288,21043,1,8,0:0:0:0:
352,288,21340,1,8,0:0:0:0:
384,288,21638,1,8,0:0:0:0:
384,288,21712,1,8,0:0:0:0:
384,288,21786,1,8,0:0:0:0:
384,288,21935,1,8,0:0:0:0:
128,288,22083,1,0,0:0:0:0:
128,288,22529,1,0,0:0:0:0:
