osu file format v14

[General]
AudioFilename: preparing for te shakedown_200705155_soundcloud.mp3
AudioLeadIn: 0
PreviewTime: 10350
Countdown: 1
SampleSet: Normal
StackLeniency: 0.7
Mode: 1
LetterboxInBreaks: 1
WidescreenStoryboard: 1

[Editor]
DistanceSpacing: 1
BeatDivisor: 6
GridSize: 8
TimelineZoom: 1.9

[Metadata]
Title:preparing for te shakedown
TitleUnicode:preparing for te shakedown
Artist:yumyumyuumyy
ArtistUnicode:yumyumyuumyy
Creator:[Toy]
Version:Nose tapping easy difficulty
Source:
Tags:
BeatmapID:705918
BeatmapSetID:316625

[Difficulty]
HPDrainRate:6
CircleSize:4
OverallDifficulty:8
ApproachRate:9.5
SliderMultiplier:1.79999990463257
SliderTickRate:1

[Events]
//Background and Video events
0,0,"patrick.jpg",0,0
//Break Periods
//Storyboard Layer 0 (Background)
//Storyboard Layer 1 (Fail)
//Storyboard Layer 2 (Pass)
//Storyboard Layer 3 (Foreground)
//Storyboard Sound Samples

[TimingPoints]
1440,297.029702970297,4,1,0,100,1,0

[HitObjects]
232,160,251,5,0,0:0:0:0:
208,280,548,1,0,0:0:0:0:
208,280,845,1,0,0:0:0:0:
232,160,1142,1,0,0:0:0:0:
208,280,1439,1,0,0:0:0:0:
208,280,1588,1,0,0:0:0:0:
208,280,1736,1,0,0:0:0:0:
208,280,1885,1,0,0:0:0:0:
208,280,2034,1,0,0:0:0:0:
208,280,2183,1,0,0:0:0:0:
208,280,2331,1,0,0:0:0:0:
208,280,2480,1,0,0:0:0:0:
208,280,2628,1,0,0:0:0:0:
208,280,2702,1,0,0:0:0:0:
208,280,2777,1,0,0:0:0:0:
208,280,2850,1,0,0:0:0:0:
208,280,2925,1,0,0:0:0:0:
208,280,2999,1,0,0:0:0:0:
208,280,3074,1,0,0:0:0:0:
208,280,3147,1,0,0:0:0:0:
208,280,3222,1,0,0:0:0:0:
208,280,3296,1,0,0:0:0:0:
208,280,3370,1,0,0:0:0:0:
208,280,3445,1,0,0:0:0:0:
208,280,3518,1,0,0:0:0:0:
208,280,3593,1,0,0:0:0:0:
208,280,3667,1,0,0:0:0:0:
208,280,3742,1,0,0:0:0:0:
208,280,3815,1,8,0:0:0:0:
208,280,3890,1,8,0:0:0:0:
208,280,3964,1,8,0:0:0:0:
208,280,4039,1,8,0:0:0:0:
208,280,4113,1,0,0:0:0:0:
208,280,4188,1,0,0:0:0:0:
208,280,4262,1,0,0:0:0:0:
208,280,4337,1,0,0:0:0:0:
208,280,4410,1,8,0:0:0:0:
208,280,4485,1,8,0:0:0:0:
208,280,4559,1,8,0:0:0:0:
208,280,4634,1,8,0:0:0:0:
208,280,4707,1,0,0:0:0:0:
208,280,4782,1,0,0:0:0:0:
208,280,4855,1,0,0:0:0:0:
208,280,4931,1,0,0:0:0:0:
208,280,5004,1,8,0:0:0:0:
208,280,5079,1,8,0:0:0:0:
208,280,5153,1,0,0:0:0:0:
208,280,5228,1,0,0:0:0:0:
208,280,5301,1,8,0:0:0:0:
208,280,5376,1,8,0:0:0:0:
208,280,5450,1,0,0:0:0:0:
208,280,5525,1,0,0:0:0:0:
208,280,5598,1,8,0:0:0:0:
208,280,5673,1,8,0:0:0:0:
208,280,5747,1,0,0:0:0:0:
208,280,5822,1,0,0:0:0:0:
208,280,5895,1,8,0:0:0:0:
208,280,5970,1,8,0:0:0:0:
208,280,6044,1,0,0:0:0:0:
208,280,6119,1,0,0:0:0:0:
208,280,6192,1,8,0:0:0:0:
208,280,6267,1,0,0:0:0:0:
208,280,6341,1,8,0:0:0:0:
208,280,6416,1,0,0:0:0:0:
208,280,6489,1,8,0:0:0:0:
208,280,6564,1,0,0:0:0:0:
208,280,6638,1,8,0:0:0:0:
208,280,6713,1,0,0:0:0:0:
208,280,6786,1,8,0:0:0:0:
208,280,6861,1,0,0:0:0:0:
208,280,6935,1,8,0:0:0:0:
208,280,7010,1,0,0:0:0:0:
208,280,7083,1,8,0:0:0:0:
208,280,7158,1,0,0:0:0:0:
208,280,7232,1,8,0:0:0:0:
208,280,7307,1,0,0:0:0:0:
208,280,7380,1,8,0:0:0:0:
208,280,7455,1,8,0:0:0:0:
208,280,7529,1,8,0:0:0:0:
208,280,7604,1,8,0:0:0:0:
208,280,7677,1,8,0:0:0:0:
208,280,7751,1,8,0:0:0:0:
208,280,7826,1,8,0:0:0:0:
208,280,7901,1,8,0:0:0:0:
208,280,7974,1,0,0:0:0:0:
208,280,8048,1,0,0:0:0:0:
208,280,8123,1,0,0:0:0:0:
208,280,8197,1,0,0:0:0:0:
208,280,8271,1,0,0:0:0:0:
208,280,8420,1,0,0:0:0:0:
208,280,8568,1,0,0:0:0:0:
208,280,8865,1,0,0:0:0:0:
208,280,9014,1,0,0:0:0:0:
208,280,9162,1,8,0:0:0:0:
208,280,9459,1,0,0:0:0:0:
208,280,9756,1,0,0:0:0:0:
208,280,9905,1,0,0:0:0:0:
208,280,9979,1,0,0:0:0:0:
208,280,10053,1,8,0:0:0:0:
208,280,10202,1,0,0:0:0:0:
208,280,10276,1,0,0:0:0:0:
208,280,10350,1,8,0:0:0:0:
208,280,10425,1,8,0:0:0:0:
208,280,10499,1,0,0:0:0:0:
208,280,10573,1,8,0:0:0:0:
208,280,10647,1,8,0:0:0:0:
208,280,10722,1,8,0:0:0:0:
208,280,10796,1,0,0:0:0:0:
208,280,10944,1,0,0:0:0:0:
208,280,11241,1,8,0:0:0:0:
208,280,11291,1,8,0:0:0:0:
208,280,11340,1,8,0:0:0:0:
208,280,11390,1,8,0:0:0:0:
208,280,11440,1,8,0:0:0:0:
208,280,11489,1,8,0:0:0:0:
208,280,11539,1,0,0:0:0:0:
208,280,11687,1,0,0:0:0:0:
208,280,11836,1,8,0:0:0:0:
208,280,12133,1,0,0:0:0:0:
208,280,12281,1,0,0:0:0:0:
208,280,12355,1,0,0:0:0:0:
208,280,12430,1,0,0:0:0:0:
208,280,12578,1,0,0:0:0:0:
208,280,12727,1,8,0:0:0:0:
208,280,13024,1,0,0:0:0:0:
208,280,13073,1,0,0:0:0:0:
208,280,13123,1,0,0:0:0:0:
208,280,13172,1,8,0:0:0:0:
208,280,13321,1,0,0:0:0:0:
208,280,13469,1,8,0:0:0:0:
208,280,13618,1,8,0:0:0:0:
208,280,13915,1,8,0:0:0:0:
208,280,13964,1,0,0:0:0:0:
208,280,14014,1,0,0:0:0:0:
208,280,14063,1,8,0:0:0:0:
208,280,14212,1,0,0:0:0:0:
208,280,14360,1,0,0:0:0:0:
208,280,14509,1,8,0:0:0:0:
208,280,14558,1,8,0:0:0:0:
208,280,14608,1,8,0:0:0:0:
208,280,14657,1,8,0:0:0:0:
208,280,14707,1,8,0:0:0:0:
208,280,14756,1,8,0:0:0:0:
208,280,14806,1,0,0:0:0:0:
208,280,14954,1,0,0:0:0:0:
208,280,15103,1,8,0:0:0:0:
208,280,15152,1,8,0:0:0:0:
208,280,15202,1,8,0:0:0:0:
208,280,15301,1,0,0:0:0:0:
208,280,15499,1,0,0:0:0:0:
208,280,15697,1,4,0:0:0:0:
208,280,15994,1,8,0:0:0:0:
208,280,16043,1,8,0:0:0:0:
208,280,16093,1,8,0:0:0:0:
208,280,16142,1,8,0:0:0:0:
208,280,16192,1,8,0:0:0:0:
208,280,16241,1,8,0:0:0:0:
208,280,16291,1,0,0:0:0:0:
208,280,16440,1,0,0:0:0:0:
144,176,16588,1,8,0:0:0:0:
208,280,16885,1,0,0:0:0:0:
208,280,16959,1,0,0:0:0:0:
208,280,17034,1,0,0:0:0:0:
208,280,17182,1,0,0:0:0:0:
208,280,17331,1,8,0:0:0:0:
208,280,17479,1,0,0:0:0:0:
208,280,17628,1,8,0:0:0:0:
208,280,17677,1,0,0:0:0:0:
208,280,17727,1,0,0:0:0:0:
208,280,17776,1,8,0:0:0:0:
184,192,18222,1,8,0:0:0:0:
184,192,18370,1,8,0:0:0:0:
200,176,18667,1,0,0:0:0:0:
200,176,18816,1,8,0:0:0:0:
200,176,18964,1,0,0:0:0:0:
200,176,19113,1,0,0:0:0:0:
200,176,19261,1,8,0:0:0:0:
200,176,19311,1,8,0:0:0:0:
200,176,19360,1,8,0:0:0:0:
200,176,19410,1,8,0:0:0:0:
200,176,19459,1,8,0:0:0:0:
200,176,19509,1,8,0:0:0:0:
200,176,19558,1,0,0:0:0:0:
200,176,19707,1,0,0:0:0:0:
200,176,19855,1,8,0:0:0:0:
200,176,19905,1,8,0:0:0:0:
200,176,19954,1,8,0:0:0:0:
200,176,20004,1,0,0:0:0:0:
200,176,20152,1,0,0:0:0:0:
200,176,20301,1,8,0:0:0:0:
200,176,20746,1,8,0:0:0:0:
200,176,20796,1,8,0:0:0:0:
200,176,20845,1,8,0:0:0:0:
200,176,20895,1,8,0:0:0:0:
200,176,20944,1,8,0:0:0:0:
200,176,20994,1,8,0:0:0:0:
200,176,21043,1,0,0:0:0:0:
200,176,21192,1,0,0:0:0:0:
200,176,21340,1,8,0:0:0:0:
200,176,21638,1,8,0:0:0:0:
200,176,21687,1,8,0:0:0:0:
200,176,21737,1,0,0:0:0:0:
200,176,21786,1,8,0:0:0:0:
200,176,21935,1,0,0:0:0:0:
200,176,22083,1,8,0:0:0:0:
200,176,22132,1,0,0:0:0:0:
200,176,22182,1,8,0:0:0:0:
200,176,22231,1,8,0:0:0:0:
200,176,22380,1,0,0:0:0:0:
200,176,22529,1,8,0:0:0:0:
