osu file format v14

[General]
AudioFilename: preparing for te shakedown_200705155_soundcloud.mp3
AudioLeadIn: 0
PreviewTime: 1440
Countdown: 1
SampleSet: None
StackLeniency: 0.7
Mode: 0
LetterboxInBreaks: 1
WidescreenStoryboard: 1

[Editor]
DistanceSpacing: 0.5
BeatDivisor: 4
GridSize: 4
TimelineZoom: 1

[Metadata]
Title:preparing for te shakedown
TitleUnicode:preparing for te shakedown
Artist:yumyumyuumyy
ArtistUnicode:yumyumyuumyy
Creator:[Toy]
Version:NO, THIS IS PATRICK!!
Source:
Tags:
BeatmapID:705972
BeatmapSetID:316625

[Difficulty]
HPDrainRate:10
CircleSize:6
OverallDifficulty:10
ApproachRate:10
SliderMultiplier:3.59999990463257
SliderTickRate:1

[Events]
//Background and Video events
0,0,"patrick.jpg",0,0
//Break Periods
//Storyboard Layer 0 (Background)
//Storyboard Layer 1 (Fail)
//Storyboard Layer 2 (Pass)
//Storyboard Layer 3 (Foreground)
//Storyboard Sound Samples

[TimingPoints]
1440,297.029702970297,4,2,0,100,1,0

[HitObjects]
312,222,1440,5,0,0:0:0:0:
235,175,1588,1,0,0:0:0:0:
315,133,1737,1,0,0:0:0:0:
352,308,1885,1,0,0:0:0:0:
147,192,2034,1,0,0:0:0:0:
361,61,2182,1,0,0:0:0:0:
312,222,2331,1,0,0:0:0:0:
235,175,2479,1,0,0:0:0:0:
315,133,2628,1,0,0:0:0:0:
352,308,2776,1,0,0:0:0:0:
245,210,2925,1,0,0:0:0:0:
361,61,3073,1,0,0:0:0:0:
429,145,3222,5,0,0:0:0:0:
369,234,3370,1,0,0:0:0:0:
306,145,3519,1,0,0:0:0:0:
361,61,3667,1,0,0:0:0:0:
283,120,3816,5,0,0:0:0:0:
139,120,3964,1,0,0:0:0:0:
137,264,4113,1,0,0:0:0:0:
280,270,4261,1,0,0:0:0:0:
210,143,4410,1,0,0:0:0:0:
74,190,4558,1,0,0:0:0:0:
211,234,4707,1,0,0:0:0:0:
349,196,4855,1,0,0:0:0:0:
443,87,5004,1,0,0:0:0:0:
448,230,5152,1,0,0:0:0:0:
443,87,5301,1,0,0:0:0:0:
448,230,5449,1,0,0:0:0:0:
45,43,5598,5,0,0:0:0:0:
157,133,5747,1,0,0:0:0:0:
141,42,5895,5,0,0:0:0:0:
51,153,6044,1,0,0:0:0:0:
357,91,6192,5,0,0:0:0:0:
268,103,6266,1,0,0:0:0:0:
200,157,6340,1,0,0:0:0:0:
243,223,6414,1,0,0:0:0:0:
330,207,6489,1,0,0:0:0:0:
388,141,6563,1,0,0:0:0:0:
380,55,6637,1,0,0:0:0:0:
304,24,6711,1,0,0:0:0:0:
222,60,6786,1,0,0:0:0:0:
161,125,6860,1,0,0:0:0:0:
160,212,6934,1,0,0:0:0:0:
221,276,7008,1,0,0:0:0:0:
302,315,7083,1,0,0:0:0:0:
389,338,7157,1,0,0:0:0:0:
478,349,7231,1,0,0:0:0:0:
452,279,7305,1,0,0:0:0:0:
388,216,7380,1,0,0:0:0:0:
314,164,7454,1,0,0:0:0:0:
236,121,7528,1,0,0:0:0:0:
154,84,7602,1,0,0:0:0:0:
77,96,7677,1,0,0:0:0:0:
45,180,7751,1,0,0:0:0:0:
35,269,7825,1,0,0:0:0:0:
257,312,7900,5,0,0:0:0:0:
257,312,7974,1,0,0:0:0:0:
257,312,8049,1,0,0:0:0:0:
257,312,8123,1,0,0:0:0:0:
257,312,8197,1,0,0:0:0:0:
257,312,8271,1,0,0:0:0:0:
257,312,8346,1,0,0:0:0:0:
257,312,8420,1,0,0:0:0:0:
257,312,8494,1,0,0:0:0:0:
257,312,8568,1,0,0:0:0:0:
257,312,8643,1,0,0:0:0:0:
257,312,8717,1,0,0:0:0:0:
257,312,8791,1,0,0:0:0:0:
257,312,8866,1,0,0:0:0:0:
257,312,8940,1,0,0:0:0:0:
257,312,9014,1,0,0:0:0:0:
257,312,9088,1,0,0:0:0:0:
257,312,9163,1,0,0:0:0:0:
257,312,9237,1,0,0:0:0:0:
257,312,9311,1,0,0:0:0:0:
257,312,9385,1,0,0:0:0:0:
257,312,9460,1,0,0:0:0:0:
257,312,9534,1,0,0:0:0:0:
257,312,9608,1,0,0:0:0:0:
257,312,9682,1,0,0:0:0:0:
256,192,9756,12,0,9831,0:0:0:0:
256,192,9905,12,0,9979,0:0:0:0:
256,192,10053,12,0,10128,0:0:0:0:
284,192,10350,6,0,P|272:148|228:148,1,89.9999976158143
228,192,10499,6,0,P|240:235|284:235,1,89.9999976158143
284,192,10647,6,0,P|272:148|228:148,1,89.9999976158143
228,192,10796,6,0,P|240:235|284:235,1,89.9999976158143
408,208,10944,2,0,B|368:204|488:204|368:200|488:200|368:196|488:196|368:192|488:192|368:188|488:188|368:184|488:184|368:180|488:180|368:176|488:176|368:172|488:172|368:168|488:168|368:164|488:164|368:160|488:160|368:156|488:156|368:152|488:152|368:148,1,89.9999976158143,8|0,0:0|0:0,0:0:0:0:
472,44,11539,5,0,0:0:0:0:
44,112,11836,1,0,0:0:0:0:
468,188,12133,2,0,P|376:132|188:276,1,359.999990463257
424,328,12727,1,0,0:0:0:0:
96,48,13024,1,0,0:0:0:0:
128,328,13321,5,0,0:0:0:0:
180,120,13469,1,0,0:0:0:0:
252,116,13618,1,0,0:0:0:0:
152,208,13766,2,0,P|256:184|264:236,2,179.999995231629
368,220,14509,1,0,0:0:0:0:
352,152,14657,1,0,0:0:0:0:
316,88,14806,1,0,0:0:0:0:
252,56,14954,1,0,0:0:0:0:
188,88,15103,1,0,0:0:0:0:
148,148,15251,1,0,0:0:0:0:
128,216,15400,1,0,0:0:0:0:
156,284,15548,1,0,0:0:0:0:
256,196,15697,5,14,1:0:0:0:
36,40,15994,5,0,0:0:0:0:
464,40,16142,5,0,0:0:0:0:
40,344,16291,5,0,0:0:0:0:
476,344,16440,5,0,0:0:0:0:
104,88,16588,5,0,0:0:0:0:
404,96,16737,5,0,0:0:0:0:
412,296,16885,5,0,0:0:0:0:
104,296,17034,5,0,0:0:0:0:
168,136,17182,5,0,0:0:0:0:
336,136,17331,5,0,0:0:0:0:
172,248,17479,5,0,0:0:0:0:
348,244,17628,5,0,0:0:0:0:
40,188,17776,5,0,0:0:0:0:
476,192,17925,5,0,0:0:0:0:
256,36,18073,5,0,0:0:0:0:
256,344,18222,5,0,0:0:0:0:
84,56,18370,5,0,0:0:0:0:
424,56,18519,5,0,0:0:0:0:
72,336,18667,5,0,0:0:0:0:
448,332,18816,5,0,0:0:0:0:
97,244,19261,5,0,0:0:0:0:
148,204,19410,1,0,0:0:0:0:
159,275,19558,1,0,0:0:0:0:
29,256,19707,1,0,0:0:0:0:
173,141,19855,1,0,0:0:0:0:
165,339,20004,1,0,0:0:0:0:
467,37,20152,1,0,0:0:0:0:
392,68,20301,1,0,0:0:0:0:
456,116,20449,1,0,0:0:0:0:
256,60,20598,5,0,3:0:0:0:
256,336,20746,1,0,3:0:0:0:
128,192,20895,1,0,3:0:0:0:
416,188,21043,1,0,3:0:0:0:
212,276,21192,6,0,P|294:240|305:130,1,179.999995231629
316,160,21340,6,0,P|232:128|148:200,1,179.999995231629
240,200,21638,1,0,0:0:0:0:
64,40,21935,5,0,1:0:0:0:
56,344,22232,1,0,1:0:0:0:
256,344,22529,1,0,1:0:0:0:
472,348,22826,1,0,1:0:0:0:
464,40,23123,1,0,1:0:0:0:
0,369,23642,5,14,1:1:0:0:
86,138,23642,5,14,1:1:0:0:
236,226,23642,5,14,1:1:0:0:
294,181,23642,5,14,1:1:0:0:
307,21,23642,5,14,1:1:0:0:
232,381,23643,5,14,1:1:0:0:
368,0,23643,5,14,1:1:0:0:
425,248,23643,5,14,1:1:0:0:
185,28,23643,5,14,1:1:0:0:
251,370,23643,5,14,1:1:0:0:
190,357,23643,5,14,1:1:0:0:
385,69,23643,5,14,1:1:0:0:
141,376,23679,5,14,1:1:0:0:
294,181,23679,5,14,1:1:0:0:
261,148,23679,5,14,1:1:0:0:
221,219,23679,5,14,1:1:0:0:
212,0,23680,5,14,1:1:0:0:
407,375,23680,5,14,1:1:0:0:
190,357,23680,5,14,1:1:0:0:
385,69,23680,5,14,1:1:0:0:
217,202,23680,5,14,1:1:0:0:
289,213,23680,5,14,1:1:0:0:
235,158,23680,5,14,1:1:0:0:
247,153,23680,5,14,1:1:0:0:
247,230,23680,5,14,1:1:0:0:
124,312,23681,5,14,1:1:0:0:
324,28,23681,5,14,1:1:0:0:
366,366,23716,5,14,1:1:0:0:
221,219,23716,5,14,1:1:0:0:
102,56,23716,5,14,1:1:0:0:
269,396,23716,5,14,1:1:0:0:
136,5,23717,5,14,1:1:0:0:
427,309,23717,5,14,1:1:0:0:
247,153,23717,5,14,1:1:0:0:
247,230,23717,5,14,1:1:0:0:
291,165,23717,5,14,1:1:0:0:
213,183,23717,5,14,1:1:0:0:
292,218,23717,5,14,1:1:0:0:
280,228,23717,5,14,1:1:0:0:
249,148,23717,5,14,1:1:0:0:
265,154,23718,5,14,1:1:0:0:
264,231,23718,5,14,1:1:0:0:
509,360,23753,5,14,1:1:0:0:
269,396,23753,5,14,1:1:0:0:
123,278,23753,5,14,1:1:0:0:
411,225,23753,5,14,1:1:0:0:
36,207,23754,5,14,1:1:0:0:
433,83,23754,5,14,1:1:0:0:
280,228,23754,5,14,1:1:0:0:
249,148,23754,5,14,1:1:0:0:
246,0,23754,5,14,1:1:0:0:
449,123,23754,5,14,1:1:0:0:
111,335,23754,5,14,1:1:0:0:
460,193,23754,5,14,1:1:0:0:
71,104,23754,5,14,1:1:0:0:
262,236,23755,5,14,1:1:0:0:
232,155,23755,5,14,1:1:0:0:
502,151,23790,5,14,1:1:0:0:
411,225,23790,5,14,1:1:0:0:
241,211,23790,5,14,1:1:0:0:
280,188,23790,5,14,1:1:0:0:
0,335,23791,5,14,1:1:0:0:
437,0,23791,5,14,1:1:0:0:
71,104,23791,5,14,1:1:0:0:
460,193,23791,5,14,1:1:0:0:
101,156,23791,5,14,1:1:0:0:
246,33,23791,5,14,1:1:0:0:
333,330,23791,5,14,1:1:0:0:
299,39,23791,5,14,1:1:0:0:
151,311,23791,5,14,1:1:0:0:
52,187,23792,5,14,1:1:0:0:
439,283,23792,5,14,1:1:0:0:
485,70,23827,5,14,1:1:0:0:
280,188,23827,5,14,1:1:0:0:
394,136,23827,5,14,1:1:0:0:
119,133,23827,5,14,1:1:0:0:
227,0,23827,5,14,1:1:0:0:
156,384,23828,5,14,1:1:0:0:
227,0,23828,5,14,1:1:0:0:
151,311,23828,5,14,1:1:0:0:
299,39,23828,5,14,1:1:0:0:
231,195,23828,5,14,1:1:0:0:
246,170,23828,5,14,1:1:0:0:
275,207,23828,5,14,1:1:0:0:
253,167,23828,5,14,1:1:0:0:
247,214,23828,5,14,1:1:0:0:
256,232,23828,5,14,1:1:0:0:
222,154,23828,5,14,1:1:0:0:
210,344,23829,5,14,1:1:0:0:
363,74,23829,5,14,1:1:0:0:
301,198,23864,5,14,1:1:0:0:
119,133,23864,5,14,1:1:0:0:
259,307,23864,5,14,1:1:0:0:
335,108,23864,5,14,1:1:0:0:
91,161,23864,5,14,1:1:0:0:
147,0,23865,5,14,1:1:0:0:
233,381,23865,5,14,1:1:0:0:
247,214,23865,5,14,1:1:0:0:
253,167,23865,5,14,1:1:0:0:
391,253,23865,5,14,1:1:0:0:
237,340,23865,5,14,1:1:0:0:
211,49,23865,5,14,1:1:0:0:
187,324,23865,5,14,1:1:0:0:
374,100,23865,5,14,1:1:0:0:
43,195,23865,5,14,1:1:0:0:
435,270,23865,5,14,1:1:0:0:
258,217,23866,5,14,1:1:0:0:
265,170,23866,5,14,1:1:0:0:
335,108,23901,5,14,1:1:0:0:
223,194,23901,5,14,1:1:0:0:
260,136,23902,5,14,1:1:0:0:
120,322,23902,5,14,1:1:0:0:
214,232,23902,5,14,1:1:0:0:
374,100,23902,5,14,1:1:0:0:
187,324,23902,5,14,1:1:0:0:
175,274,23902,5,14,1:1:0:0:
154,139,23902,5,14,1:1:0:0:
71,369,23902,5,14,1:1:0:0:
371,196,23902,5,14,1:1:0:0:
177,107,23902,5,14,1:1:0:0:
512,197,23902,5,14,1:1:0:0:
291,301,23902,5,14,1:1:0:0:
210,343,23902,5,14,1:1:0:0:
348,66,23902,5,14,1:1:0:0:
327,61,23903,5,14,1:1:0:0:
136,281,23903,5,14,1:1:0:0:
386,243,23938,5,14,1:1:0:0:
292,177,23939,5,14,1:1:0:0:
291,301,23939,5,14,1:1:0:0:
512,197,23939,5,14,1:1:0:0:
177,107,23939,5,14,1:1:0:0:
195,493,23939,5,14,1:1:0:0:
512,21,23939,5,14,1:1:0:0:
251,214,23939,5,14,1:1:0:0:
256,166,23939,5,14,1:1:0:0:
372,325,23940,5,14,1:1:0:0:
193,13,23940,5,14,1:1:0:0:
333,278,23940,5,14,1:1:0:0:
0,182,23940,5,14,1:1:0:0:
222,82,23940,5,14,1:1:0:0:
190,0,23940,5,14,1:1:0:0:
376,343,23940,5,14,1:1:0:0:
278,0,23940,5,14,1:1:0:0:
127,413,23940,5,14,1:1:0:0:
171,275,23975,5,14,1:1:0:0:
170,189,23976,5,14,1:1:0:0:
512,21,23976,5,14,1:1:0:0:
305,401,23976,5,14,1:1:0:0:
369,9,23976,5,14,1:1:0:0:
312,54,23976,5,14,1:1:0:0:
133,285,23976,5,14,1:1:0:0:
236,234,23977,5,14,1:1:0:0:
240,144,23977,5,14,1:1:0:0:
127,413,23977,5,14,1:1:0:0:
278,0,23977,5,14,1:1:0:0:
0,358,23977,5,14,1:1:0:0:
499,219,23977,5,14,1:1:0:0:
21,0,23977,5,14,1:1:0:0:
103,0,23977,5,14,1:1:0:0:
281,498,23977,5,14,1:1:0:0:
230,383,23978,5,14,1:1:0:0:
388,0,23978,5,14,1:1:0:0:
281,160,24013,5,14,1:1:0:0:
326,203,24013,5,14,1:1:0:0:
369,9,24013,5,14,1:1:0:0:
463,240,24013,5,14,1:1:0:0:
144,11,24013,5,14,1:1:0:0:
329,271,24013,5,14,1:1:0:0:
0,193,24013,5,14,1:1:0:0:
208,81,24013,5,14,1:1:0:0:
414,109,24013,5,14,1:1:0:0:
86,138,24013,5,14,1:1:0:0:
255,150,24014,5,14,1:1:0:0:
258,227,24014,5,14,1:1:0:0:
243,266,24014,5,14,1:1:0:0:
285,121,24014,5,14,1:1:0:0:
103,0,24014,5,14,1:1:0:0:
281,498,24014,5,14,1:1:0:0:
139,372,24014,5,14,1:1:0:0:
468,157,24014,5,14,1:1:0:0:
49,134,24014,5,14,1:1:0:0:
81,66,24014,5,14,1:1:0:0:
361,379,24014,5,14,1:1:0:0:
123,316,24014,5,14,1:1:0:0:
210,201,24014,5,14,1:1:0:0:
236,0,24015,5,14,1:1:0:0:
405,386,24015,5,14,1:1:0:0:
475,213,24050,5,14,1:1:0:0:
144,11,24050,5,14,1:1:0:0:
512,138,24050,5,14,1:1:0:0:
0,12,24050,5,14,1:1:0:0:
197,250,24051,5,14,1:1:0:0:
268,112,24051,5,14,1:1:0:0:
81,66,24051,5,14,1:1:0:0:
361,379,24051,5,14,1:1:0:0:
364,374,24051,5,14,1:1:0:0:
319,0,24051,5,14,1:1:0:0:
113,349,24051,5,14,1:1:0:0:
67,291,24051,5,14,1:1:0:0:
468,181,24051,5,14,1:1:0:0:
154,3,24052,5,14,1:1:0:0:
428,321,24052,5,14,1:1:0:0:
252,204,24087,5,14,1:1:0:0:
0,12,24087,5,14,1:1:0:0:
416,0,24087,5,14,1:1:0:0:
0,221,24087,5,14,1:1:0:0:
287,0,24088,5,14,1:1:0:0:
116,377,24088,5,14,1:1:0:0:
67,291,24088,5,14,1:1:0:0:
468,181,24088,5,14,1:1:0:0:
508,376,24088,5,14,1:1:0:0:
224,0,24088,5,14,1:1:0:0:
171,469,24088,5,14,1:1:0:0:
58,434,24088,5,14,1:1:0:0:
512,55,24088,5,14,1:1:0:0:
43,199,24089,5,14,1:1:0:0:
446,96,24089,5,14,1:1:0:0:
40,129,24124,5,14,1:1:0:0:
0,221,24124,5,14,1:1:0:0:
349,0,24124,5,14,1:1:0:0:
14,302,24124,5,14,1:1:0:0:
232,186,24125,5,14,1:1:0:0:
263,186,24125,5,14,1:1:0:0:
58,434,24125,5,14,1:1:0:0:
512,55,24125,5,14,1:1:0:0:
512,167,24125,5,14,1:1:0:0:
66,18,24125,5,14,1:1:0:0:
322,397,24125,5,14,1:1:0:0:
267,449,24125,5,14,1:1:0:0:
354,0,24125,5,14,1:1:0:0:
0,324,24126,5,14,1:1:0:0:
458,0,24126,5,14,1:1:0:0:
14,302,24161,5,14,1:1:0:0:
301,162,24161,5,14,1:1:0:0:
203,181,24161,5,14,1:1:0:0:
173,383,24162,5,14,1:1:0:0:
400,37,24162,5,14,1:1:0:0:
267,449,24162,5,14,1:1:0:0:
354,0,24162,5,14,1:1:0:0:
499,86,24162,5,14,1:1:0:0:
376,342,24162,5,14,1:1:0:0:
14,80,24162,5,14,1:1:0:0:
348,441,24162,5,14,1:1:0:0:
277,0,24162,5,14,1:1:0:0:
154,382,24163,5,14,1:1:0:0:
249,0,24163,5,14,1:1:0:0:
203,181,24198,5,14,1:1:0:0:
277,0,24199,5,14,1:1:0:0:
348,441,24199,5,14,1:1:0:0:
308,203,24199,5,14,1:1:0:0:
260,246,24199,5,14,1:1:0:0:
253,376,24199,5,14,1:1:0:0:
229,144,24199,5,14,1:1:0:0:
241,244,24199,5,14,1:1:0:0:
388,63,24199,5,14,1:1:0:0:
291,150,24199,5,14,1:1:0:0:
168,0,24200,5,14,1:1:0:0:
231,383,24200,5,14,1:1:0:0:
291,150,24236,5,14,1:1:0:0:
388,63,24236,5,14,1:1:0:0:
241,244,24236,5,14,1:1:0:0:
280,153,24236,5,14,1:1:0:0:
211,202,24236,5,14,1:1:0:0:
271,140,24237,5,14,1:1:0:0:
121,318,24237,5,14,1:1:0:0:
220,233,24237,5,14,1:1:0:0:
96,100,24237,5,14,1:1:0:0:
440,206,24237,5,14,1:1:0:0:
136,51,24237,5,14,1:1:0:0:
304,369,24237,5,14,1:1:0:0:
211,202,24273,5,14,1:1:0:0:
200,245,24273,5,14,1:1:0:0:
333,194,24273,5,14,1:1:0:0:
304,369,24274,5,14,1:1:0:0:
136,51,24274,5,14,1:1:0:0:
301,182,24274,5,14,1:1:0:0:
219,164,24274,5,14,1:1:0:0:
278,233,24274,5,14,1:1:0:0:
262,237,24274,5,14,1:1:0:0:
269,147,24274,5,14,1:1:0:0:
373,335,24275,5,14,1:1:0:0:
211,14,24275,5,14,1:1:0:0:
333,194,24310,5,14,1:1:0:0:
323,148,24310,5,14,1:1:0:0:
178,175,24310,5,14,1:1:0:0:
419,237,24311,5,14,1:1:0:0:
262,237,24311,5,14,1:1:0:0:
269,147,24311,5,14,1:1:0:0:
179,188,24311,5,14,1:1:0:0:
237,117,24311,5,14,1:1:0:0:
305,251,24311,5,14,1:1:0:0:
263,115,24311,5,14,1:1:0:0:
216,258,24311,5,14,1:1:0:0:
242,236,24312,5,14,1:1:0:0:
250,146,24312,5,14,1:1:0:0:
178,175,24347,5,14,1:1:0:0:
439,54,24347,5,14,1:1:0:0:
29,160,24347,5,14,1:1:0:0:
216,258,24348,5,14,1:1:0:0:
263,115,24348,5,14,1:1:0:0:
333,210,24348,5,14,1:1:0:0:
218,121,24348,5,14,1:1:0:0:
261,271,24348,5,14,1:1:0:0:
233,268,24348,5,14,1:1:0:0:
308,132,24348,5,14,1:1:0:0:
247,268,24349,5,14,1:1:0:0:
297,126,24349,5,14,1:1:0:0:
29,160,24384,5,14,1:1:0:0:
269,199,24384,5,14,1:1:0:0:
252,177,24384,5,14,1:1:0:0:
233,268,24385,5,14,1:1:0:0:
308,132,24385,5,14,1:1:0:0:
482,227,24385,5,14,1:1:0:0:
288,419,24385,5,14,1:1:0:0:
131,0,24385,5,14,1:1:0:0:
208,416,24385,5,14,1:1:0:0:
394,8,24385,5,14,1:1:0:0:
202,251,24386,5,14,1:1:0:0:
280,116,24386,5,14,1:1:0:0:
252,177,24421,5,14,1:1:0:0:
63,289,24421,5,14,1:1:0:0:
461,259,24421,5,14,1:1:0:0:
394,8,24422,5,14,1:1:0:0:
208,416,24422,5,14,1:1:0:0:
259,207,24422,5,14,1:1:0:0:
265,179,24422,5,14,1:1:0:0:
243,200,24422,5,14,1:1:0:0:
240,194,24422,5,14,1:1:0:0:
271,195,24422,5,14,1:1:0:0:
307,0,24423,5,14,1:1:0:0:
114,373,24423,5,14,1:1:0:0:
461,259,24458,5,14,1:1:0:0:
240,194,24459,5,14,1:1:0:0:
271,195,24459,5,14,1:1:0:0:
52,121,24459,5,14,1:1:0:0:
264,0,24459,5,14,1:1:0:0:
334,385,24459,5,14,1:1:0:0:
337,0,24459,5,14,1:1:0:0:
98,338,24459,5,14,1:1:0:0:
241,188,24460,5,14,1:1:0:0:
272,190,24460,5,14,1:1:0:0:
98,338,24496,5,14,1:1:0:0:
337,0,24496,5,14,1:1:0:0:
171,382,24497,5,14,1:1:0:0:
416,48,24497,5,14,1:1:0:0:
