osu file format v14

[General]
AudioFilename: preparing for te shakedown_200705155_soundcloud.mp3
AudioLeadIn: 0
PreviewTime: 10350
Countdown: 1
SampleSet: None
StackLeniency: 0
Mode: 0
LetterboxInBreaks: 1
WidescreenStoryboard: 1

[Editor]
DistanceSpacing: 0.9
BeatDivisor: 8
GridSize: 4
TimelineZoom: 2.700001

[Metadata]
Title:preparing for te shakedown
TitleUnicode:preparing for te shakedown
Artist:yumyumyuumyy
ArtistUnicode:yumyumyuumyy
Creator:[Toy]
Version:Millhi is the good mapper and you should rate this map 10 stars
Source:
Tags:
BeatmapID:705509
BeatmapSetID:316625

[Difficulty]
HPDrainRate:7
CircleSize:0
OverallDifficulty:8
ApproachRate:9.5
SliderMultiplier:2
SliderTickRate:1

[Events]
//Background and Video events
0,0,"patrick.jpg",0,0
//Break Periods
//Storyboard Layer 0 (Background)
//Storyboard Layer 1 (Fail)
//Storyboard Layer 2 (Pass)
//Storyboard Layer 3 (Foreground)
//Storyboard Sound Samples

[TimingPoints]
1440,297.029702970297,4,2,0,100,1,0
9459,-50,4,2,0,100,0,0
10350,-448.5,4,2,0,100,0,0
10944,-100,4,2,0,100,0,0
12430,-50,4,2,0,100,0,0
12485,-50,4,2,0,5,0,0
12522,-50,4,2,0,100,0,0
12931,-50,4,2,0,5,0,0
12968,-50,4,2,0,100,0,0
13970,-50,4,2,0,5,0,0
14008,-50,4,2,0,100,0,0
14212,-200,4,2,0,100,0,0
14267,-200,4,2,0,5,0,0
14305,-200,4,2,0,100,0,0
14416,-200,4,2,0,5,0,0
14453,-200,4,2,0,100,0,0
15697,-100,4,2,0,100,0,0
17238,-100,4,2,0,5,0,0
17275,-100,4,2,0,100,0,0
17683,-100,4,2,0,5,0,0
17720,-100,4,2,0,100,0,0
18723,-100,4,2,0,5,0,0
18760,-100,4,2,0,100,0,0
18964,-400,4,2,0,100,0,0
19020,-400,4,2,0,5,0,0
19057,-400,4,2,0,100,0,0
19168,-400,4,2,0,5,0,0
19206,-400,4,2,0,100,0,0
19261,-100,4,2,0,100,0,0
20524,-100,4,2,0,50,0,0
20895,-100,4,2,0,100,0,0
21935,-20,4,2,0,100,0,0
21990,-20,4,2,0,5,0,0
22027,-20,4,2,0,100,0,0
22436,-20,4,2,0,5,0,0
22473,-20,4,2,0,100,0,0
22826,-100,4,2,0,40,0,0
23123,-100,4,2,0,30,0,0
23420,-100,4,2,0,20,0,0
23717,-100,4,2,0,10,0,0
24014,-100,4,2,0,5,0,0

[HitObjects]
24,256,251,6,0,L|52:352,1,100,2|0,0:0|0:0,0:0:0:0:
136,240,548,2,0,L|208:309,1,100,2|0,0:0|0:0,0:0:0:0:
220,168,845,2,0,L|317:191,1,100,2|0,0:0|0:0,0:0:0:0:
256,64,1142,2,0,L|352:36,1,100,2|0,0:0|0:0,0:0:0:0:
488,256,1440,5,2,0:0:0:0:
460,352,1588,1,0,0:0:0:0:
376,240,1737,1,2,0:0:0:0:
303,309,1885,1,0,0:0:0:0:
292,168,2034,1,2,0:0:0:0:
194,191,2182,1,0,0:0:0:0:
256,64,2331,1,2,0:0:0:0:
160,36,2479,1,0,0:0:0:0:
312,88,2628,5,2,0:0:0:0:
360,248,2776,1,0,0:0:0:0:
200,296,2925,1,2,0:0:0:0:
152,136,3073,1,0,0:0:0:0:
208,32,3222,5,2,0:0:0:0:
416,144,3370,1,0,0:0:0:0:
304,352,3519,1,2,0:0:0:0:
96,240,3667,1,0,0:0:0:0:
368,8,3816,5,2,0:0:0:0:
440,304,3964,1,0,0:0:0:0:
144,376,4113,1,2,0:0:0:0:
72,80,4261,1,0,0:0:0:0:
448,56,4410,5,2,0:0:0:0:
392,384,4558,1,0,0:0:0:0:
64,328,4707,1,2,0:0:0:0:
120,0,4855,1,0,0:0:0:0:
392,112,5004,5,2,0:0:0:0:
120,272,5152,1,0,0:0:0:0:
436,296,5301,1,2,0:0:0:0:
76,88,5449,1,0,0:0:0:0:
472,56,5598,1,2,0:0:0:0:
40,328,5746,1,0,0:0:0:0:
488,376,5895,1,2,0:0:0:0:
24,8,6043,1,0,0:0:0:0:
372,224,6192,5,2,0:0:0:0:
281,302,6291,1,0,0:0:0:0:
164,276,6390,1,0,0:0:0:0:
280,244,6489,5,2,0:0:0:0:
189,322,6588,1,0,0:0:0:0:
72,296,6687,1,0,0:0:0:0:
44,180,6786,5,2,0:0:0:0:
148,120,6885,1,0,0:0:0:0:
44,60,6984,1,0,0:0:0:0:
148,0,7083,5,2,0:0:0:0:
148,120,7182,1,0,0:0:0:0:
44,60,7281,1,0,0:0:0:0:
260,60,7380,5,2,0:0:0:0:
328,160,7479,1,0,0:0:0:0:
208,168,7578,1,0,0:0:0:0:
286,49,7677,5,2,0:0:0:0:
319,178,7776,1,0,0:0:0:0:
192,141,7875,1,0,0:0:0:0:
310,60,7974,5,2,0:0:0:0:
297,193,8073,1,0,0:0:0:0:
190,115,8172,1,0,0:0:0:0:
329,79,8271,5,2,0:0:0:0:
271,199,8370,1,0,0:0:0:0:
197,89,8469,1,0,0:0:0:0:
348,96,8568,6,0,L|384:116,1,33.3333333333333,2|0,0:0|0:0,0:0:0:0:
348,124,8667,2,0,L|384:144,1,33.3333333333333
348,152,8766,2,0,L|384:172,1,33.3333333333333
348,180,8865,6,0,L|384:200,1,33.3333333333333,2|0,0:0|0:0,0:0:0:0:
348,208,8964,2,0,L|384:228,1,33.3333333333333
348,236,9063,2,0,L|384:256,1,33.3333333333333
348,264,9162,6,0,L|384:284,1,33.3333333333333,2|0,0:0|0:0,0:0:0:0:
348,292,9261,2,0,L|384:312,1,33.3333333333333
348,320,9360,2,0,L|384:340,1,33.3333333333333
348,348,9459,6,0,L|384:368,36,33.3333333333333,2|0|0|0|0|0|0|0|0|0|0|0|0|0|0|0|0|0|0|0|0|0|0|0|0|0|0|0|0|0|0|0|0|0|0|0|0,0:0|0:0|0:0|0:0|0:0|0:0|0:0|0:0|0:0|0:0|0:0|0:0|0:0|0:0|0:0|0:0|0:0|0:0|0:0|0:0|0:0|0:0|0:0|0:0|0:0|0:0|0:0|0:0|0:0|0:0|0:0|0:0|0:0|0:0|0:0|0:0|0:0,0:0:0:0:
348,348,10388,6,0,L|312:368,2,33.3333333333333
192,336,10944,6,0,P|100:288|92:192,1,200,8|0,0:0|0:0,0:0:0:0:
164,37,11390,1,0,0:0:0:0:
256,192,11539,2,0,B|323:192|323:192|256:192|256:192|323:192,2,200,2|0|8,0:0|0:0|0:0,0:0:0:0:
104,124,12430,2,0,L|48:36,1,100
50,39,12578,1,2,0:0:0:0:
408,260,12875,2,0,L|464:348,1,100
461,344,13024,1,2,0:0:0:0:
461,344,13469,5,2,0:0:0:0:
461,344,13618,1,2,0:0:0:0:
104,124,13915,2,8,L|48:36,1,100
50,39,14063,1,2,0:0:0:0:
104,124,14212,2,0,L|118:146,1,25
104,124,14360,2,0,L|118:146,1,25
196,228,14509,5,2,0:0:0:0:
256,272,14583,1,0,0:0:0:0:
316,228,14657,1,0,0:0:0:0:
124,304,14806,1,0,0:0:0:0:
388,304,14954,1,0,0:0:0:0:
28,360,15103,1,8,0:0:0:0:
256,360,15326,1,0,0:0:0:0:
484,360,15548,1,0,0:0:0:0:
28,360,15697,6,0,P|79:280|28:200,1,200,2|0,0:0|0:0,0:0:0:0:
256,192,16142,1,0,0:0:0:0:
483,200,16291,2,0,P|433:280|484:360,2,200,8|0|2,0:0|0:0|0:0,0:0:0:0:
200,60,17182,2,0,L|148:60,1,50
312,60,17331,1,2,0:0:0:0:
312,324,17628,2,0,L|364:324,1,50
200,324,17777,1,2,0:0:0:0:
200,324,18222,5,2,0:0:0:0:
200,324,18370,1,2,0:0:0:0:
200,60,18667,2,0,L|148:60,1,50,8|0,0:0|0:0,0:0:0:0:
312,60,18816,1,2,0:0:0:0:
200,60,18964,2,0,L|212:60,1,12.5
200,60,19113,2,0,L|212:60,1,12.5
196,208,19261,5,2,0:0:0:0:
256,164,19335,1,0,0:0:0:0:
316,208,19409,1,0,0:0:0:0:
124,132,19558,1,0,0:0:0:0:
268,284,19707,5,0,0:0:0:0:
328,240,19781,1,0,0:0:0:0:
388,284,19855,1,8,0:0:0:0:
196,208,20004,1,0,0:0:0:0:
328,372,20152,1,0,0:0:0:0:
460,208,20301,1,0,0:0:0:0:
328,44,20524,5,2,0:0:0:0:
328,44,20598,2,0,L|224:44,1,100
24,132,20895,1,0,0:0:0:0:
64,192,20969,1,0,0:0:0:0:
24,252,21043,1,0,0:0:0:0:
256,192,21340,2,0,L|268:192,1,12.5,8|0,0:0|0:0,0:0:0:0:
448,192,21638,1,0,0:0:0:0:
156,348,21935,2,0,P|179:275|157:348,1,250
156,348,22083,1,2,0:0:0:0:
356,348,22380,2,0,P|333:275|355:348,1,250
356,348,22529,1,2,0:0:0:0:
256,192,22826,12,0,24014,0:0:0:0:
