osu file format v14

[General]
AudioFilename: preparing for te shakedown_200705155_soundcloud.mp3
AudioLeadIn: 0
PreviewTime: 10350
Countdown: 1
SampleSet: Soft
StackLeniency: 0.2
Mode: 0
LetterboxInBreaks: 1
WidescreenStoryboard: 1

[Editor]
Bookmarks: 22232
DistanceSpacing: 1.3
BeatDivisor: 4
GridSize: 8
TimelineZoom: 2.6

[Metadata]
Title:preparing for te shakedown
TitleUnicode:preparing for te shakedown
Artist:yumyumyuumyy
ArtistUnicode:yumyumyuumyy
Creator:[Toy]
Version:Melt3DIMENSIONS
Source:
Tags:
BeatmapID:705469
BeatmapSetID:316625

[Difficulty]
HPDrainRate:3
CircleSize:3
OverallDifficulty:6.9
ApproachRate:6.9
SliderMultiplier:3.59999990463257
SliderTickRate:1

[Events]
//Background and Video events
0,0,"patrick.jpg",0,0
//Break Periods
//Storyboard Layer 0 (Background)
//Storyboard Layer 1 (Fail)
//Storyboard Layer 2 (Pass)
//Storyboard Layer 3 (Foreground)
//Storyboard Sound Samples

[TimingPoints]
1440,297.029702970297,4,2,0,100,1,0
1440,-100,4,2,0,100,0,0
10944,-133.333333333333,4,2,0,100,0,0
15103,-100,4,2,0,100,0,0

[HitObjects]
216,216,548,5,0,0:0:0:0:
136,128,697,1,0,0:0:0:0:
240,80,845,1,0,0:0:0:0:
184,208,994,1,0,0:0:0:0:
128,104,1142,1,0,0:0:0:0:
232,56,1291,1,0,0:0:0:0:
368,80,1440,1,0,0:0:0:0:
368,216,1588,1,0,0:0:0:0:
472,144,1737,1,0,0:0:0:0:
184,40,1885,1,0,0:0:0:0:
96,168,2034,1,0,0:0:0:0:
72,48,2182,1,0,0:0:0:0:
336,352,2330,1,0,0:0:0:0:
256,264,2479,1,0,0:0:0:0:
184,344,2627,1,0,0:0:0:0:
464,288,2776,1,0,0:0:0:0:
256,192,2924,1,0,0:0:0:0:
280,80,3073,5,0,0:0:0:0:
256,192,3222,1,0,0:0:0:0:
256,192,3370,1,0,0:0:0:0:
256,192,3519,1,0,0:0:0:0:
256,144,3667,5,0,0:0:0:0:
312,144,3816,1,0,0:0:0:0:
312,200,3964,1,0,0:0:0:0:
312,256,4113,1,0,0:0:0:0:
256,256,4261,5,0,0:0:0:0:
200,256,4410,1,0,0:0:0:0:
200,200,4558,1,0,0:0:0:0:
200,144,4707,1,0,0:0:0:0:
256,144,4855,5,0,0:0:0:0:
312,144,5004,1,0,0:0:0:0:
312,200,5152,1,0,0:0:0:0:
312,256,5301,1,0,0:0:0:0:
256,256,5449,5,0,0:0:0:0:
200,256,5598,1,0,0:0:0:0:
200,200,5746,1,0,0:0:0:0:
200,144,5895,1,0,0:0:0:0:
200,144,6043,5,0,0:0:0:0:
227,134,6192,1,0,0:0:0:0:
279,104,6291,1,0,0:0:0:0:
336,86,6390,1,0,0:0:0:0:
386,111,6489,1,0,0:0:0:0:
388,170,6588,1,0,0:0:0:0:
355,219,6687,1,0,0:0:0:0:
303,249,6786,1,0,0:0:0:0:
244,254,6885,1,0,0:0:0:0:
193,227,6984,1,0,0:0:0:0:
195,172,7083,1,0,0:0:0:0:
236,177,7182,1,0,0:0:0:0:
253,191,7281,1,0,0:0:0:0:
296,231,7380,5,0,0:0:0:0:
327,283,7479,1,0,0:0:0:0:
348,339,7578,1,0,0:0:0:0:
288,352,7677,1,0,0:0:0:0:
228,346,7776,1,0,0:0:0:0:
168,340,7875,1,0,0:0:0:0:
108,335,7974,1,0,0:0:0:0:
49,329,8073,1,0,0:0:0:0:
34,285,8172,1,0,0:0:0:0:
37,225,8271,1,0,0:0:0:0:
41,165,8370,1,0,0:0:0:0:
44,105,8469,1,0,0:0:0:0:
47,45,8568,1,0,0:0:0:0:
102,43,8667,1,0,0:0:0:0:
162,46,8766,1,0,0:0:0:0:
192,96,8865,6,0,L|200:112,87,11.25
176,168,9682,2,0,L|184:184,43,11.25
136,232,10128,2,0,P|152:144|504:368,1,809.999978542328
376,152,10944,2,0,P|360:240|200:48,1,539.999985694885
136,136,11836,5,0,0:0:0:0:
192,56,12133,1,0,0:0:0:0:
237,56,12182,1,0,0:0:0:0:
282,56,12232,1,0,0:0:0:0:
327,56,12281,1,0,0:0:0:0:
372,56,12331,1,0,0:0:0:0:
417,56,12380,1,0,0:0:0:0:
462,56,12430,1,0,0:0:0:0:
446,95,12479,1,0,0:0:0:0:
428,136,12529,1,0,0:0:0:0:
410,177,12578,1,0,0:0:0:0:
392,219,12628,5,0,0:0:0:0:
374,260,12677,1,0,0:0:0:0:
356,301,12727,1,0,0:0:0:0:
318,312,12776,1,0,0:0:0:0:
273,312,12826,1,0,0:0:0:0:
228,312,12875,1,0,0:0:0:0:
183,312,12925,1,0,0:0:0:0:
138,312,12974,1,0,0:0:0:0:
93,312,13024,1,0,0:0:0:0:
48,312,13073,1,0,0:0:0:0:
32,283,13123,1,0,0:0:0:0:
32,238,13172,1,0,0:0:0:0:
32,193,13222,1,0,0:0:0:0:
32,148,13271,1,0,0:0:0:0:
32,104,13321,1,0,0:0:0:0:
208,88,13469,5,0,0:0:0:0:
208,192,13618,1,0,0:0:0:0:
312,192,13766,1,0,0:0:0:0:
416,192,13915,1,0,0:0:0:0:
424,304,14212,5,0,0:0:0:0:
380,316,14261,1,0,0:0:0:0:
336,326,14311,1,0,0:0:0:0:
292,332,14360,1,0,0:0:0:0:
247,334,14410,1,0,0:0:0:0:
202,333,14459,1,0,0:0:0:0:
157,328,14509,1,0,0:0:0:0:
121,305,14558,1,0,0:0:0:0:
107,262,14608,1,0,0:0:0:0:
101,217,14657,1,0,0:0:0:0:
99,172,14707,1,0,0:0:0:0:
102,127,14756,1,0,0:0:0:0:
110,83,14806,1,0,0:0:0:0:
129,43,14855,5,0,0:0:0:0:
170,32,14905,1,0,0:0:0:0:
215,33,14954,1,0,0:0:0:0:
259,41,15004,1,0,0:0:0:0:
301,57,15053,1,0,0:0:0:0:
340,80,15103,1,0,0:0:0:0:
375,108,15152,1,0,0:0:0:0:
396,146,15202,1,0,0:0:0:0:
390,191,15251,1,0,0:0:0:0:
373,231,15301,1,0,0:0:0:0:
332,249,15350,1,0,0:0:0:0:
287,257,15400,1,0,0:0:0:0:
243,259,15449,1,0,0:0:0:0:
198,252,15499,1,0,0:0:0:0:
167,222,15548,1,0,0:0:0:0:
161,177,15598,1,0,0:0:0:0:
168,133,15647,1,0,0:0:0:0:
256,208,15697,5,0,0:0:0:0:
256,152,15845,1,0,0:0:0:0:
280,88,15994,1,0,0:0:0:0:
352,40,16142,1,0,0:0:0:0:
416,112,16291,1,0,0:0:0:0:
448,216,16440,1,0,0:0:0:0:
480,344,16588,1,0,0:0:0:0:
368,344,16885,1,0,0:0:0:0:
335,344,16934,1,0,0:0:0:0:
302,344,16984,1,0,0:0:0:0:
269,344,17033,1,0,0:0:0:0:
236,344,17083,1,0,0:0:0:0:
203,344,17132,1,0,0:0:0:0:
170,344,17182,1,0,0:0:0:0:
137,344,17231,1,0,0:0:0:0:
104,344,17281,1,0,0:0:0:0:
71,344,17330,1,0,0:0:0:0:
55,337,17380,1,0,0:0:0:0:
81,317,17429,1,0,0:0:0:0:
107,297,17479,1,0,0:0:0:0:
133,276,17528,5,0,0:0:0:0:
159,256,17578,1,0,0:0:0:0:
185,236,17627,1,0,0:0:0:0:
212,216,17677,1,0,0:0:0:0:
238,195,17726,1,0,0:0:0:0:
264,175,17776,1,0,0:0:0:0:
290,155,17825,1,0,0:0:0:0:
316,134,17875,1,0,0:0:0:0:
342,114,17924,1,0,0:0:0:0:
368,94,17974,1,0,0:0:0:0:
394,74,18023,1,0,0:0:0:0:
420,53,18073,1,0,0:0:0:0:
136,72,18352,2,0,L|128:72|152:72,9,22.4999994039536
432,320,18667,2,0,L|424:320|448:320,9,22.4999994039536
328,304,18964,2,0,L|320:304|344:304,9,22.4999994039536
232,280,19261,6,0,L|224:280|248:280,3,22.4999994039536
160,256,19336,2,0,L|152:256|176:256,3,22.4999994039536
168,192,19410,2,0,L|160:192|184:192,3,22.4999994039536
208,152,19485,2,0,L|200:152|224:152,3,22.4999994039536
264,136,19558,2,0,L|256:136|280:136,3,22.4999994039536
312,120,19633,2,0,L|304:120|328:120,3,22.4999994039536
360,104,19707,2,0,L|352:104|376:104,3,22.4999994039536
408,96,19781,2,0,L|400:96|424:96,3,22.4999994039536
424,144,19855,2,0,L|416:144|440:144,3,22.4999994039536
400,184,19930,2,0,L|392:184|416:184,3,22.4999994039536
368,224,20003,2,0,L|360:224|384:224,3,22.4999994039536
344,272,20078,2,0,L|336:272|360:272,3,22.4999994039536
296,288,20152,2,0,L|288:288|312:288,3,22.4999994039536
240,288,20208,2,0,L|232:288|256:288,3,22.4999994039536
208,240,20282,2,0,L|200:240|224:240,3,22.4999994039536
208,184,20357,2,0,L|200:184|224:184,3,22.4999994039536
256,192,20598,12,0,21340,0:0:0:0:
