osu file format v14

[General]
AudioFilename: preparing for te shakedown_200705155_soundcloud.mp3
AudioLeadIn: 0
PreviewTime: 10350
Countdown: 1
SampleSet: None
StackLeniency: 0.7
Mode: 3
LetterboxInBreaks: 1
SpecialStyle: 0
WidescreenStoryboard: 1

[Editor]
DistanceSpacing: 0.9
BeatDivisor: 4
GridSize: 4
TimelineZoom: 4.999999

[Metadata]
Title:preparing for te shakedown
TitleUnicode:preparing for te shakedown
Artist:yumyumyuumyy
ArtistUnicode:yumyumyuumyy
Creator:[Toy]
Version:LinadAiAeAiAeAiAe
Source:
Tags:
BeatmapID:754210
BeatmapSetID:316625

[Difficulty]
HPDrainRate:0
CircleSize:4
OverallDifficulty:10
ApproachRate:10
SliderMultiplier:1.4
SliderTickRate:1

[Events]
//Background and Video events
0,0,"patrick.jpg",0,0
//Break Periods
//Storyboard Layer 0 (Background)
//Storyboard Layer 1 (Fail)
//Storyboard Layer 2 (Pass)
//Storyboard Layer 3 (Foreground)
//Storyboard Sound Samples

[TimingPoints]
1440,297.029702970297,4,2,1,100,1,0

[HitObjects]
64,192,251,5,0,0:0:0:0:
64,192,400,1,0,0:0:0:0:
192,192,548,1,0,0:0:0:0:
192,192,697,1,0,0:0:0:0:
320,192,845,1,0,0:0:0:0:
320,192,994,1,0,0:0:0:0:
448,192,1142,1,0,0:0:0:0:
448,192,1291,1,0,0:0:0:0:
64,192,1440,1,0,0:0:0:0:
64,192,1588,1,0,0:0:0:0:
192,192,1588,1,0,0:0:0:0:
64,192,1737,1,0,0:0:0:0:
192,192,1737,1,0,0:0:0:0:
192,192,1885,1,0,0:0:0:0:
64,192,1885,1,0,0:0:0:0:
64,192,2034,1,0,0:0:0:0:
192,192,2034,1,0,0:0:0:0:
320,192,2034,1,0,0:0:0:0:
64,192,2182,1,0,0:0:0:0:
192,192,2182,1,0,0:0:0:0:
320,192,2182,1,0,0:0:0:0:
64,192,2331,1,0,0:0:0:0:
320,192,2331,1,0,0:0:0:0:
192,192,2331,1,0,0:0:0:0:
64,192,2479,1,0,0:0:0:0:
192,192,2479,1,0,0:0:0:0:
320,192,2479,1,0,0:0:0:0:
448,192,2628,1,0,0:0:0:0:
192,192,2628,1,0,0:0:0:0:
320,192,2628,1,0,0:0:0:0:
192,192,2776,1,0,0:0:0:0:
448,192,2776,1,0,0:0:0:0:
320,192,2776,1,0,0:0:0:0:
320,192,2925,1,0,0:0:0:0:
192,192,2925,1,0,0:0:0:0:
448,192,2925,1,0,0:0:0:0:
320,192,3073,1,0,0:0:0:0:
448,192,3073,1,0,0:0:0:0:
192,192,3073,1,0,0:0:0:0:
64,192,3222,1,0,0:0:0:0:
320,192,3222,1,0,0:0:0:0:
192,192,3222,1,0,0:0:0:0:
64,192,3370,1,0,0:0:0:0:
320,192,3370,1,0,0:0:0:0:
448,192,3370,1,0,0:0:0:0:
192,192,3519,1,0,0:0:0:0:
448,192,3519,1,0,0:0:0:0:
64,192,3519,1,0,0:0:0:0:
192,192,3667,1,0,0:0:0:0:
448,192,3667,1,0,0:0:0:0:
320,192,3667,1,0,0:0:0:0:
64,192,3816,1,0,0:0:0:0:
320,192,3816,1,0,0:0:0:0:
192,192,3816,1,0,0:0:0:0:
320,192,3964,1,0,0:0:0:0:
192,192,3964,1,0,0:0:0:0:
448,192,4039,1,0,0:0:0:0:
320,192,4113,1,0,0:0:0:0:
64,192,4113,1,0,0:0:0:0:
64,192,4261,1,0,0:0:0:0:
448,192,4261,1,0,0:0:0:0:
320,192,4261,1,0,0:0:0:0:
192,192,4410,1,0,0:0:0:0:
448,192,4410,1,0,0:0:0:0:
192,192,4558,1,0,0:0:0:0:
64,192,4558,1,0,0:0:0:0:
448,192,4558,1,0,0:0:0:0:
64,192,4707,1,0,0:0:0:0:
448,192,4707,1,0,0:0:0:0:
192,192,4707,1,0,0:0:0:0:
64,192,4855,1,0,0:0:0:0:
192,192,4855,1,0,0:0:0:0:
320,192,4855,1,0,0:0:0:0:
64,192,5004,1,0,0:0:0:0:
192,192,5004,1,0,0:0:0:0:
320,192,5004,1,0,0:0:0:0:
64,192,5152,1,0,0:0:0:0:
192,192,5152,1,0,0:0:0:0:
320,192,5152,1,0,0:0:0:0:
64,192,5301,1,0,0:0:0:0:
448,192,5301,1,0,0:0:0:0:
320,192,5301,1,0,0:0:0:0:
320,192,5449,1,0,0:0:0:0:
448,192,5449,1,0,0:0:0:0:
192,192,5449,1,0,0:0:0:0:
192,192,5598,1,0,0:0:0:0:
320,192,5598,1,0,0:0:0:0:
448,192,5598,1,0,0:0:0:0:
64,192,5746,1,0,0:0:0:0:
192,192,5746,1,0,0:0:0:0:
320,192,5746,1,0,0:0:0:0:
64,192,5895,1,0,0:0:0:0:
192,192,5895,1,0,0:0:0:0:
320,192,5895,1,0,0:0:0:0:
448,192,5895,1,0,0:0:0:0:
64,192,6043,1,0,0:0:0:0:
192,192,6043,1,0,0:0:0:0:
320,192,6043,1,0,0:0:0:0:
448,192,6043,1,0,0:0:0:0:
64,192,6192,1,0,0:0:0:0:
192,192,6192,1,0,0:0:0:0:
320,192,6266,1,0,0:0:0:0:
448,192,6340,1,0,0:0:0:0:
192,192,6340,1,0,0:0:0:0:
192,192,6489,1,0,0:0:0:0:
320,192,6489,1,0,0:0:0:0:
64,192,6563,1,0,0:0:0:0:
320,192,6638,1,0,0:0:0:0:
448,192,6638,1,0,0:0:0:0:
192,192,6638,1,0,0:0:0:0:
64,192,6712,1,0,0:0:0:0:
320,192,6786,1,0,0:0:0:0:
448,192,6786,1,0,0:0:0:0:
192,192,6860,1,0,0:0:0:0:
320,192,6935,1,0,0:0:0:0:
448,192,6935,1,0,0:0:0:0:
64,192,7009,1,0,0:0:0:0:
192,192,7083,1,0,0:0:0:0:
448,192,7083,1,0,0:0:0:0:
320,192,7157,1,0,0:0:0:0:
192,192,7157,1,0,0:0:0:0:
64,192,7232,1,0,0:0:0:0:
320,192,7306,1,0,0:0:0:0:
448,192,7380,1,0,0:0:0:0:
64,192,7454,1,0,0:0:0:0:
192,192,7529,1,0,0:0:0:0:
448,192,7603,1,0,0:0:0:0:
64,192,7603,1,0,0:0:0:0:
320,192,7677,1,0,0:0:0:0:
64,192,7751,1,0,0:0:0:0:
448,192,7751,1,0,0:0:0:0:
192,192,7826,1,0,0:0:0:0:
448,192,7900,1,0,0:0:0:0:
320,192,7974,1,0,0:0:0:0:
64,192,7974,1,0,0:0:0:0:
192,192,8048,1,0,0:0:0:0:
64,192,8048,1,0,0:0:0:0:
320,192,8123,1,0,0:0:0:0:
448,192,8197,1,0,0:0:0:0:
320,192,8271,1,0,0:0:0:0:
192,192,8271,1,0,0:0:0:0:
64,192,8345,1,0,0:0:0:0:
320,192,8420,1,0,0:0:0:0:
192,192,8494,1,0,0:0:0:0:
64,192,8568,1,0,0:0:0:0:
192,192,8605,1,0,0:0:0:0:
448,192,8642,1,0,0:0:0:0:
320,192,8680,1,0,0:0:0:0:
64,192,8717,1,0,0:0:0:0:
192,192,8754,1,0,0:0:0:0:
448,192,8791,1,0,0:0:0:0:
320,192,8828,1,0,0:0:0:0:
64,192,8865,1,0,0:0:0:0:
192,192,8902,1,0,0:0:0:0:
448,192,8902,1,0,0:0:0:0:
320,192,8921,1,0,0:0:0:0:
192,192,8958,1,0,0:0:0:0:
64,192,9014,1,0,0:0:0:0:
192,192,9051,1,0,0:0:0:0:
448,192,9088,1,0,0:0:0:0:
320,192,9125,1,0,0:0:0:0:
64,192,9162,1,0,0:0:0:0:
192,192,9199,1,0,0:0:0:0:
448,192,9237,1,0,0:0:0:0:
320,192,9274,1,0,0:0:0:0:
64,192,9311,1,0,0:0:0:0:
192,192,9348,1,0,0:0:0:0:
448,192,9348,1,0,0:0:0:0:
64,192,9366,1,0,0:0:0:0:
320,192,9422,1,0,0:0:0:0:
64,192,9441,1,0,0:0:0:0:
192,192,9459,1,0,0:0:0:0:
320,192,9478,1,0,0:0:0:0:
448,192,9496,1,0,0:0:0:0:
64,192,9515,1,0,0:0:0:0:
192,192,9534,1,0,0:0:0:0:
320,192,9552,1,0,0:0:0:0:
448,192,9571,1,0,0:0:0:0:
64,192,9571,1,0,0:0:0:0:
192,192,9589,1,0,0:0:0:0:
320,192,9608,1,0,0:0:0:0:
448,192,9626,1,0,0:0:0:0:
320,192,9645,1,0,0:0:0:0:
64,192,9664,1,0,0:0:0:0:
192,192,9682,1,0,0:0:0:0:
448,192,9701,1,0,0:0:0:0:
320,192,9719,1,0,0:0:0:0:
64,192,9738,1,0,0:0:0:0:
192,192,9756,1,0,0:0:0:0:
448,192,9756,1,0,0:0:0:0:
320,192,9775,1,0,0:0:0:0:
448,192,9793,1,0,0:0:0:0:
192,192,9793,1,0,0:0:0:0:
64,192,9812,1,0,0:0:0:0:
320,192,9831,1,0,0:0:0:0:
448,192,9849,1,0,0:0:0:0:
192,192,9868,1,0,0:0:0:0:
64,192,9886,1,0,0:0:0:0:
320,192,9905,1,0,0:0:0:0:
448,192,9923,1,0,0:0:0:0:
64,192,9942,1,0,0:0:0:0:
192,192,9961,1,0,0:0:0:0:
448,192,9961,1,0,0:0:0:0:
320,192,9979,1,0,0:0:0:0:
448,192,9998,1,0,0:0:0:0:
192,192,9998,1,0,0:0:0:0:
64,192,10016,1,0,0:0:0:0:
320,192,10035,1,0,0:0:0:0:
448,192,10053,1,0,0:0:0:0:
192,192,10072,1,0,0:0:0:0:
64,192,10090,1,0,0:0:0:0:
320,192,10109,1,0,0:0:0:0:
448,192,10128,1,0,0:0:0:0:
64,192,10146,1,0,0:0:0:0:
448,192,10165,1,0,0:0:0:0:
192,192,10165,1,0,0:0:0:0:
320,192,10183,1,0,0:0:0:0:
192,192,10202,1,0,0:0:0:0:
448,192,10202,1,0,0:0:0:0:
64,192,10220,1,0,0:0:0:0:
320,192,10239,1,0,0:0:0:0:
448,192,10258,1,0,0:0:0:0:
192,192,10276,1,0,0:0:0:0:
64,192,10295,1,0,0:0:0:0:
320,192,10313,1,0,0:0:0:0:
448,192,10332,1,0,0:0:0:0:
192,192,10350,128,0,10499:0:0:0:0:
320,192,10499,128,0,10573:0:0:0:0:
448,192,10573,128,0,10647:0:0:0:0:
64,192,10647,1,0,0:0:0:0:
192,192,10647,1,0,0:0:0:0:
64,192,10722,1,0,0:0:0:0:
192,192,10722,1,0,0:0:0:0:
64,192,10796,1,0,0:0:0:0:
192,192,10796,1,0,0:0:0:0:
64,192,10870,1,0,0:0:0:0:
192,192,10870,1,0,0:0:0:0:
64,192,10944,1,0,0:0:0:0:
192,192,10944,1,0,0:0:0:0:
320,192,10944,128,0,11241:0:0:0:0:
448,192,10944,128,0,11241:0:0:0:0:
64,192,11241,1,0,0:0:0:0:
192,192,11241,1,0,0:0:0:0:
64,192,11316,1,0,0:0:0:0:
192,192,11316,1,0,0:0:0:0:
64,192,11390,1,0,0:0:0:0:
192,192,11390,1,0,0:0:0:0:
320,192,11464,1,0,0:0:0:0:
448,192,11464,1,0,0:0:0:0:
320,192,11539,1,0,0:0:0:0:
448,192,11539,1,0,0:0:0:0:
64,192,11539,128,0,11836:0:0:0:0:
192,192,11539,128,0,11836:0:0:0:0:
320,192,11836,128,0,12133:0:0:0:0:
64,192,12133,128,0,12430:0:0:0:0:
192,192,12430,1,0,0:0:0:0:
448,192,12430,1,0,0:0:0:0:
320,192,12430,1,0,0:0:0:0:
64,192,12578,1,0,0:0:0:0:
64,192,12727,1,0,0:0:0:0:
192,192,12727,1,0,0:0:0:0:
320,192,12727,1,0,0:0:0:0:
448,192,12727,1,0,0:0:0:0:
320,192,12801,1,0,0:0:0:0:
448,192,12875,1,0,0:0:0:0:
192,192,12949,1,0,0:0:0:0:
64,192,13024,128,0,13469:0:0:0:0:
192,192,13024,128,0,13469:0:0:0:0:
320,192,13024,128,0,13469:0:0:0:0:
448,192,13024,128,0,13469:0:0:0:0:
64,192,13618,128,0,13915:0:0:0:0:
192,192,13766,128,0,13915:0:0:0:0:
320,192,13915,128,0,14063:0:0:0:0:
448,192,13915,128,0,14212:0:0:0:0:
64,192,14286,1,0,0:0:0:0:
192,192,14286,1,0,0:0:0:0:
320,192,14360,1,0,0:0:0:0:
320,192,14435,1,0,0:0:0:0:
448,192,14435,1,0,0:0:0:0:
64,192,14509,1,0,0:0:0:0:
192,192,14509,1,0,0:0:0:0:
320,192,14509,1,0,0:0:0:0:
64,192,14583,1,0,0:0:0:0:
192,192,14583,1,0,0:0:0:0:
320,192,14583,1,0,0:0:0:0:
64,192,14657,1,0,0:0:0:0:
320,192,14657,1,0,0:0:0:0:
192,192,14657,1,0,0:0:0:0:
64,192,14732,1,0,0:0:0:0:
192,192,14732,1,0,0:0:0:0:
320,192,14732,1,0,0:0:0:0:
64,192,14806,1,0,0:0:0:0:
320,192,14806,1,0,0:0:0:0:
192,192,14806,1,0,0:0:0:0:
448,192,14806,1,0,0:0:0:0:
448,192,14954,1,0,0:0:0:0:
320,192,14954,1,0,0:0:0:0:
320,192,15103,1,0,0:0:0:0:
448,192,15103,128,0,15177:0:0:0:0:
320,192,15251,128,0,15326:0:0:0:0:
64,192,15400,128,0,15697:0:0:0:0:
192,192,15400,1,0,0:0:0:0:
192,192,15474,1,0,0:0:0:0:
192,192,15548,1,0,0:0:0:0:
320,192,15548,1,0,0:0:0:0:
192,192,15623,1,0,0:0:0:0:
320,192,15623,1,0,0:0:0:0:
192,192,15697,1,0,0:0:0:0:
320,192,15697,1,0,0:0:0:0:
448,192,15697,128,0,16142:0:0:0:0:
320,192,15771,128,0,15845:0:0:0:0:
64,192,15845,128,0,15920:0:0:0:0:
320,192,15920,128,0,15994:0:0:0:0:
64,192,15994,1,0,0:0:0:0:
192,192,15994,1,0,0:0:0:0:
64,192,16068,1,0,0:0:0:0:
192,192,16068,1,0,0:0:0:0:
320,192,16068,1,0,0:0:0:0:
64,192,16142,1,0,0:0:0:0:
192,192,16142,1,0,0:0:0:0:
320,192,16142,1,0,0:0:0:0:
64,192,16217,1,0,0:0:0:0:
192,192,16217,1,0,0:0:0:0:
320,192,16217,1,0,0:0:0:0:
64,192,16291,1,0,0:0:0:0:
192,192,16291,1,0,0:0:0:0:
320,192,16291,128,0,16588:0:0:0:0:
64,192,16588,128,0,16885:0:0:0:0:
192,192,16588,128,0,16885:0:0:0:0:
320,192,16885,128,0,17479:0:0:0:0:
448,192,16885,128,0,17256:0:0:0:0:
64,192,17479,128,0,17776:0:0:0:0:
192,192,17479,128,0,17553:0:0:0:0:
192,192,17628,128,0,17776:0:0:0:0:
448,192,17702,128,0,17776:0:0:0:0:
320,192,17776,128,0,18073:0:0:0:0:
192,192,17925,128,0,18073:0:0:0:0:
64,192,18073,128,0,18370:0:0:0:0:
192,192,18370,1,0,0:0:0:0:
320,192,18370,1,0,0:0:0:0:
192,192,18444,1,0,0:0:0:0:
320,192,18444,1,0,0:0:0:0:
192,192,18519,1,0,0:0:0:0:
320,192,18519,1,0,0:0:0:0:
192,192,18593,1,0,0:0:0:0:
320,192,18593,1,0,0:0:0:0:
192,192,18667,1,0,0:0:0:0:
320,192,18667,1,0,0:0:0:0:
448,192,18667,128,0,18816:0:0:0:0:
320,192,18816,128,0,18964:0:0:0:0:
64,192,18964,128,0,19113:0:0:0:0:
192,192,19113,128,0,19261:0:0:0:0:
320,192,19261,128,0,19410:0:0:0:0:
448,192,19261,128,0,19484:0:0:0:0:
64,192,19410,1,0,0:0:0:0:
192,192,19410,1,0,0:0:0:0:
64,192,19484,1,0,0:0:0:0:
320,192,19484,1,0,0:0:0:0:
64,192,19558,1,0,0:0:0:0:
192,192,19558,1,0,0:0:0:0:
64,192,19633,1,0,0:0:0:0:
320,192,19633,1,0,0:0:0:0:
64,192,19707,1,0,0:0:0:0:
192,192,19707,128,0,19781:0:0:0:0:
320,192,19781,128,0,19855:0:0:0:0:
64,192,19855,1,0,0:0:0:0:
192,192,19855,1,0,0:0:0:0:
448,192,19855,1,0,0:0:0:0:
448,192,19930,1,0,0:0:0:0:
448,192,20004,1,0,0:0:0:0:
320,192,20078,1,0,0:0:0:0:
448,192,20078,1,0,0:0:0:0:
320,192,20152,1,0,0:0:0:0:
448,192,20152,1,0,0:0:0:0:
192,192,20227,1,0,0:0:0:0:
320,192,20227,1,0,0:0:0:0:
448,192,20227,1,0,0:0:0:0:
192,192,20301,1,0,0:0:0:0:
320,192,20301,1,0,0:0:0:0:
448,192,20301,1,0,0:0:0:0:
64,192,20301,128,0,20598:0:0:0:0:
192,192,20598,128,0,20746:0:0:0:0:
320,192,20598,128,0,20672:0:0:0:0:
448,192,20672,128,0,20746:0:0:0:0:
64,192,20746,1,0,0:0:0:0:
64,192,20821,1,0,0:0:0:0:
64,192,20895,1,0,0:0:0:0:
64,192,20969,1,0,0:0:0:0:
64,192,21043,1,0,0:0:0:0:
64,192,21118,128,0,21340:0:0:0:0:
192,192,21118,128,0,21489:0:0:0:0:
320,192,21340,128,0,21489:0:0:0:0:
448,192,21340,128,0,21712:0:0:0:0:
64,192,21786,1,0,0:0:0:0:
320,192,21786,1,0,0:0:0:0:
192,192,21860,1,0,0:0:0:0:
320,192,21935,1,0,0:0:0:0:
448,192,22009,1,0,0:0:0:0:
192,192,22009,1,0,0:0:0:0:
320,192,22009,1,0,0:0:0:0:
64,192,22009,1,0,0:0:0:0:
64,192,22083,128,0,22157:0:0:0:0:
192,192,22157,128,0,22232:0:0:0:0:
448,192,22232,128,0,22306:0:0:0:0:
320,192,22306,128,0,22380:0:0:0:0:
64,192,22380,128,0,22454:0:0:0:0:
192,192,22454,128,0,22491:0:0:0:0:
320,192,22491,128,0,22529:0:0:0:0:
448,192,22529,128,0,22566:0:0:0:0:
64,192,22566,128,0,22603:0:0:0:0:
192,192,22603,128,0,22640:0:0:0:0:
320,192,22640,128,0,22677:0:0:0:0:
448,192,22677,128,0,22714:0:0:0:0:
320,192,22714,128,0,22751:0:0:0:0:
64,192,22714,128,0,22751:0:0:0:0:
448,192,22751,128,0,22789:0:0:0:0:
192,192,22751,128,0,22789:0:0:0:0:
320,192,22789,128,0,22826:0:0:0:0:
448,192,22826,128,0,22863:0:0:0:0:
192,192,22826,128,0,22863:0:0:0:0:
64,192,22863,128,0,22900:0:0:0:0:
320,192,22863,128,0,22900:0:0:0:0:
192,192,22900,128,0,22937:0:0:0:0:
448,192,22900,128,0,22937:0:0:0:0:
320,192,22937,128,0,22974:0:0:0:0:
448,192,22974,128,0,23011:0:0:0:0:
64,192,22974,128,0,23197:0:0:0:0:
192,192,23048,128,0,23197:0:0:0:0:
320,192,23123,128,0,23197:0:0:0:0:
448,192,23197,128,0,23420:0:0:0:0:
64,192,23420,128,0,23568:0:0:0:0:
192,192,23420,128,0,23568:0:0:0:0:
320,192,23568,1,0,0:0:0:0:
448,192,23642,1,0,0:0:0:0:
192,192,23642,1,0,0:0:0:0:
64,192,23717,1,0,0:0:0:0:
320,192,23717,1,0,0:0:0:0:
448,192,23791,1,0,0:0:0:0:
64,192,23791,1,0,0:0:0:0:
192,192,23865,1,0,0:0:0:0:
64,192,23865,1,0,0:0:0:0:
320,192,23940,1,0,0:0:0:0:
448,192,23940,1,0,0:0:0:0:
192,192,23940,1,0,0:0:0:0:
192,192,24014,1,0,0:0:0:0:
64,192,24014,1,0,0:0:0:0:
320,192,24088,1,0,0:0:0:0:
448,192,24088,1,0,0:0:0:0:
192,192,24088,1,0,0:0:0:0:
64,192,24088,1,0,0:0:0:0:
320,192,24162,1,0,0:0:0:0:
64,192,24162,1,0,0:0:0:0:
192,192,24162,1,0,0:0:0:0:
448,192,24162,1,0,0:0:0:0:
320,192,24237,1,0,0:0:0:0:
448,192,24237,1,0,0:0:0:0:
192,192,24237,1,0,0:0:0:0:
64,192,24237,1,0,0:0:0:0:
64,192,24311,1,0,0:0:0:0:
320,192,24311,1,0,0:0:0:0:
448,192,24311,1,0,0:0:0:0:
192,192,24311,1,0,0:0:0:0:
64,192,24385,1,0,0:0:0:0:
448,192,24385,1,0,0:0:0:0:
320,192,24385,1,0,0:0:0:0:
192,192,24385,1,0,0:0:0:0:
64,192,24459,1,0,0:0:0:0:
192,192,24459,1,0,0:0:0:0:
320,192,24459,1,0,0:0:0:0:
448,192,24459,1,0,0:0:0:0:
