osu file format v14

[General]
AudioFilename: preparing for te shakedown_200705155_soundcloud.mp3
AudioLeadIn: 0
PreviewTime: 10350
Countdown: 1
SampleSet: None
StackLeniency: 0.7
Mode: 0
LetterboxInBreaks: 1
WidescreenStoryboard: 1

[Editor]
Bookmarks: 8766
DistanceSpacing: 1
BeatDivisor: 12
GridSize: 4
TimelineZoom: 2.799999

[Metadata]
Title:preparing for te shakedown
TitleUnicode:preparing for te shakedown
Artist:yumyumyuumyy
ArtistUnicode:yumyumyuumyy
Creator:[Toy]
Version:IS THIS THE KRUSTY KRAB!?
Source:
Tags:
BeatmapID:705775
BeatmapSetID:316625

[Difficulty]
HPDrainRate:8
CircleSize:5
OverallDifficulty:8
ApproachRate:9
SliderMultiplier:1.4
SliderTickRate:1

[Events]
//Background and Video events
0,0,"patrick.jpg",0,0
//Break Periods
//Storyboard Layer 0 (Background)
//Storyboard Layer 1 (Fail)
//Storyboard Layer 2 (Pass)
//Storyboard Layer 3 (Foreground)
//Storyboard Sound Samples

[TimingPoints]
1440,297.029702970297,4,3,0,54,1,0

[HitObjects]
180,36,1440,5,0,1:0:0:0:
332,36,1465,1,0,1:0:0:0:
162,51,1489,1,0,1:0:0:0:
349,51,1514,1,0,1:0:0:0:
148,69,1539,1,0,1:0:0:0:
363,69,1564,1,0,1:0:0:0:
136,89,1588,1,0,1:0:0:0:
375,89,1613,1,0,1:0:0:0:
126,111,1638,1,0,1:0:0:0:
385,111,1663,1,0,1:0:0:0:
119,133,1687,1,0,1:0:0:0:
392,133,1712,1,0,1:0:0:0:
114,155,1737,1,0,1:0:0:0:
397,155,1762,1,0,1:0:0:0:
110,179,1786,1,0,1:0:0:0:
401,179,1811,1,0,1:0:0:0:
109,202,1836,1,0,1:0:0:0:
402,202,1861,1,0,1:0:0:0:
110,225,1885,1,0,1:0:0:0:
401,225,1910,1,0,1:0:0:0:
114,248,1935,1,0,1:0:0:0:
397,248,1960,1,0,1:0:0:0:
120,271,1984,1,0,1:0:0:0:
391,271,2009,1,0,1:0:0:0:
129,292,2034,1,0,1:0:0:0:
382,292,2059,1,0,1:0:0:0:
142,312,2083,1,0,1:0:0:0:
369,312,2108,1,0,1:0:0:0:
158,329,2133,1,0,1:0:0:0:
353,329,2158,1,0,1:0:0:0:
176,344,2182,1,0,1:0:0:0:
335,344,2207,1,0,1:0:0:0:
100,268,2257,1,0,2:0:0:0:
100,116,2282,1,0,2:0:0:0:
115,285,2306,1,0,2:0:0:0:
115,98,2331,1,0,2:0:0:0:
133,299,2356,1,0,2:0:0:0:
133,84,2381,1,0,2:0:0:0:
153,311,2405,1,0,2:0:0:0:
153,72,2430,1,0,2:0:0:0:
175,321,2455,1,0,2:0:0:0:
175,62,2480,1,0,2:0:0:0:
197,328,2504,1,0,2:0:0:0:
197,55,2529,1,0,2:0:0:0:
219,333,2554,1,0,2:0:0:0:
219,50,2579,1,0,2:0:0:0:
243,337,2603,1,0,2:0:0:0:
243,46,2628,1,0,2:0:0:0:
266,338,2653,1,0,2:0:0:0:
266,45,2678,1,0,2:0:0:0:
289,337,2702,1,0,2:0:0:0:
289,46,2727,1,0,2:0:0:0:
312,333,2752,1,0,2:0:0:0:
312,50,2777,1,0,2:0:0:0:
335,327,2801,1,0,2:0:0:0:
335,56,2826,1,0,2:0:0:0:
356,318,2851,1,0,2:0:0:0:
356,65,2876,1,0,2:0:0:0:
376,305,2900,1,0,2:0:0:0:
376,78,2925,1,0,2:0:0:0:
393,289,2950,1,0,2:0:0:0:
393,94,2975,1,0,2:0:0:0:
408,271,2999,1,0,2:0:0:0:
408,112,3024,1,0,2:0:0:0:
136,48,3073,5,0,3:0:0:0:
159,46,3097,1,0,3:0:0:0:
376,48,3123,5,0,3:0:0:0:
182,45,3147,1,0,3:0:0:0:
352,46,3172,1,0,3:0:0:0:
205,45,3196,1,0,3:0:0:0:
329,45,3222,1,0,3:0:0:0:
229,47,3246,1,0,3:0:0:0:
306,45,3271,1,0,3:0:0:0:
252,49,3295,1,0,3:0:0:0:
282,47,3321,1,0,3:0:0:0:
275,54,3345,1,0,3:0:0:0:
259,49,3370,1,0,3:0:0:0:
297,61,3394,1,0,3:0:0:0:
236,54,3420,1,0,3:0:0:0:
318,70,3444,1,0,3:0:0:0:
214,61,3469,1,0,3:0:0:0:
338,82,3493,1,0,3:0:0:0:
193,70,3519,1,0,3:0:0:0:
356,97,3543,1,0,3:0:0:0:
173,82,3568,1,0,3:0:0:0:
371,115,3592,1,0,3:0:0:0:
155,97,3618,1,0,3:0:0:0:
383,135,3642,1,0,3:0:0:0:
140,115,3667,1,0,3:0:0:0:
390,158,3691,1,0,3:0:0:0:
128,135,3717,1,0,3:0:0:0:
393,181,3741,1,0,3:0:0:0:
121,158,3766,1,0,3:0:0:0:
391,204,3790,1,0,3:0:0:0:
118,181,3816,1,0,3:0:0:0:
385,226,3840,1,0,3:0:0:0:
120,204,3865,1,0,3:0:0:0:
375,247,3889,1,0,3:0:0:0:
126,226,3915,1,0,3:0:0:0:
361,266,3939,1,0,3:0:0:0:
136,247,3964,1,0,3:0:0:0:
345,283,3988,1,0,3:0:0:0:
150,266,4014,1,0,3:0:0:0:
326,296,4038,1,0,3:0:0:0:
166,283,4063,1,0,3:0:0:0:
305,307,4087,1,0,3:0:0:0:
185,296,4113,1,0,3:0:0:0:
284,316,4137,1,0,3:0:0:0:
206,307,4162,1,0,3:0:0:0:
261,322,4186,1,0,3:0:0:0:
227,316,4212,1,0,3:0:0:0:
238,326,4236,1,0,3:0:0:0:
250,322,4261,1,0,3:0:0:0:
215,328,4285,1,0,3:0:0:0:
273,326,4311,1,0,3:0:0:0:
191,328,4335,1,0,3:0:0:0:
296,328,4360,1,0,3:0:0:0:
168,327,4384,1,0,3:0:0:0:
320,328,4410,1,0,3:0:0:0:
145,325,4434,1,0,3:0:0:0:
343,327,4459,1,0,3:0:0:0:
366,325,4507,1,0,2:0:0:0:
248,108,4509,1,0,2:0:0:0:
264,108,4533,1,0,2:0:0:0:
227,96,4558,1,0,2:0:0:0:
284,96,4582,1,0,2:0:0:0:
206,86,4608,1,0,2:0:0:0:
305,86,4632,1,0,2:0:0:0:
183,82,4657,1,0,2:0:0:0:
328,82,4681,1,0,2:0:0:0:
160,84,4707,1,0,2:0:0:0:
351,84,4731,1,0,2:0:0:0:
140,95,4756,1,0,2:0:0:0:
371,95,4780,1,0,2:0:0:0:
127,114,4806,1,0,2:0:0:0:
384,114,4830,1,0,2:0:0:0:
121,137,4855,1,0,2:0:0:0:
390,137,4879,1,0,2:0:0:0:
122,160,4905,1,0,2:0:0:0:
389,160,4929,1,0,2:0:0:0:
126,183,4954,1,0,2:0:0:0:
385,183,4978,1,0,2:0:0:0:
134,205,5004,1,0,2:0:0:0:
377,205,5028,1,0,2:0:0:0:
144,226,5053,1,0,2:0:0:0:
367,226,5077,1,0,2:0:0:0:
156,246,5103,1,0,2:0:0:0:
355,246,5127,1,0,2:0:0:0:
170,265,5152,1,0,2:0:0:0:
341,265,5176,1,0,2:0:0:0:
185,283,5202,1,0,2:0:0:0:
326,283,5226,1,0,2:0:0:0:
201,299,5251,1,0,2:0:0:0:
310,299,5275,1,0,2:0:0:0:
219,315,5301,1,0,2:0:0:0:
292,315,5325,1,0,2:0:0:0:
237,329,5350,1,0,2:0:0:0:
274,329,5374,1,0,2:0:0:0:
257,342,5400,1,0,2:0:0:0:
254,342,5424,1,0,2:0:0:0:
256,40,5474,1,0,1:0:0:0:
246,18,5523,1,0,1:0:0:0:
234,0,5573,1,0,1:0:0:0:
219,0,5622,1,0,1:0:0:0:
203,0,5672,1,0,1:0:0:0:
184,0,5721,1,0,1:0:0:0:
165,0,5771,1,0,1:0:0:0:
143,0,5820,1,0,1:0:0:0:
121,0,5870,1,0,1:0:0:0:
98,0,5919,1,0,1:0:0:0:
75,0,5969,1,0,1:0:0:0:
52,0,6018,1,0,1:0:0:0:
29,0,6068,1,0,1:0:0:0:
6,0,6117,1,0,1:0:0:0:
0,0,6167,1,0,3:0:0:0:
0,0,6216,1,0,3:0:0:0:
0,0,6266,1,0,3:0:0:0:
0,0,6315,1,0,3:0:0:0:
0,0,6365,1,0,3:0:0:0:
0,12,6414,1,0,3:0:0:0:
0,33,6464,1,0,3:0:0:0:
0,55,6513,1,0,3:0:0:0:
0,78,6563,1,0,3:0:0:0:
0,101,6612,1,0,3:0:0:0:
0,125,6662,1,0,3:0:0:0:
0,148,6711,1,0,3:0:0:0:
0,170,6761,1,0,3:0:0:0:
0,192,6810,1,0,3:0:0:0:
0,213,6860,1,0,0:0:0:0:
0,232,6909,1,0,0:0:0:0:
0,249,6959,1,0,0:0:0:0:
0,265,7008,1,0,0:0:0:0:
0,278,7058,1,0,0:0:0:0:
0,289,7107,1,0,0:0:0:0:
11,298,7157,1,0,0:0:0:0:
33,304,7206,1,0,0:0:0:0:
56,307,7256,1,0,0:0:0:0:
80,307,7305,1,0,0:0:0:0:
103,305,7355,1,0,0:0:0:0:
126,300,7404,1,0,0:0:0:0:
148,292,7454,1,0,0:0:0:0:
169,282,7503,1,0,0:0:0:0:
84,64,7553,5,0,2:0:0:0:
80,104,7553,1,0,2:0:0:0:
124,80,7553,1,0,2:0:0:0:
132,108,7553,1,0,2:0:0:0:
120,136,7553,1,0,2:0:0:0:
96,156,7553,1,0,2:0:0:0:
60,152,7553,1,0,2:0:0:0:
36,128,7553,1,0,2:0:0:0:
32,100,7553,1,0,2:0:0:0:
48,68,7553,1,0,2:0:0:0:
272,101,7875,1,0,2:0:0:0:
295,142,7875,1,0,2:0:0:0:
207,200,7875,1,0,2:0:0:0:
202,151,7875,1,0,2:0:0:0:
252,72,7875,1,0,2:0:0:0:
239,91,7875,1,0,2:0:0:0:
227,111,7875,1,0,2:0:0:0:
214,131,7875,1,0,2:0:0:0:
190,170,7875,1,0,2:0:0:0:
177,190,7875,1,0,2:0:0:0:
184,200,7875,1,0,2:0:0:0:
231,200,7875,1,0,2:0:0:0:
254,200,7875,1,0,2:0:0:0:
277,200,7875,1,0,2:0:0:0:
301,200,7875,1,0,2:0:0:0:
324,200,7875,1,0,2:0:0:0:
318,182,7875,1,0,2:0:0:0:
306,162,7875,1,0,2:0:0:0:
284,121,7875,1,0,2:0:0:0:
261,80,7875,1,0,2:0:0:0:
94,268,8271,1,0,2:0:0:0:
75,202,8271,1,0,2:0:0:0:
160,216,8271,1,0,2:0:0:0:
146,197,8271,1,0,2:0:0:0:
128,182,8271,1,0,2:0:0:0:
106,174,8271,1,0,2:0:0:0:
85,181,8271,1,0,2:0:0:0:
76,225,8271,1,0,2:0:0:0:
83,247,8271,1,0,2:0:0:0:
107,287,8271,1,0,2:0:0:0:
123,304,8271,1,0,2:0:0:0:
140,320,8271,1,0,2:0:0:0:
158,335,8271,1,0,2:0:0:0:
179,338,8271,1,0,2:0:0:0:
196,322,8271,1,0,2:0:0:0:
211,304,8271,1,0,2:0:0:0:
226,286,8271,1,0,2:0:0:0:
239,267,8271,1,0,2:0:0:0:
250,246,8271,1,0,2:0:0:0:
256,224,8271,1,0,2:0:0:0:
255,201,8271,1,0,2:0:0:0:
244,181,8271,1,0,2:0:0:0:
223,170,8271,1,0,2:0:0:0:
200,170,8271,1,0,2:0:0:0:
180,180,8271,1,0,2:0:0:0:
167,199,8271,1,0,2:0:0:0:
164,222,8271,1,0,2:0:0:0:
374,190,8395,1,0,2:0:0:0:
331,174,8395,1,0,2:0:0:0:
320,48,8395,1,0,2:0:0:0:
436,48,8395,1,0,2:0:0:0:
296,144,8395,1,0,2:0:0:0:
312,160,8395,1,0,2:0:0:0:
351,184,8395,1,0,2:0:0:0:
397,190,8395,1,0,2:0:0:0:
420,184,8395,1,0,2:0:0:0:
440,172,8395,1,0,2:0:0:0:
456,156,8395,1,0,2:0:0:0:
184,44,8568,1,0,3:0:0:0:
328,44,8593,1,0,3:0:0:0:
161,47,8617,1,0,3:0:0:0:
350,47,8642,1,0,3:0:0:0:
150,67,8667,1,0,3:0:0:0:
361,67,8692,1,0,3:0:0:0:
150,90,8716,1,0,3:0:0:0:
361,90,8741,1,0,3:0:0:0:
152,113,8766,1,0,3:0:0:0:
359,113,8791,1,0,3:0:0:0:
155,136,8815,1,0,3:0:0:0:
356,136,8840,1,0,3:0:0:0:
156,160,8865,1,0,3:0:0:0:
355,160,8890,1,0,3:0:0:0:
156,183,8914,1,0,3:0:0:0:
355,183,8939,1,0,3:0:0:0:
153,206,8964,1,0,3:0:0:0:
358,206,8989,1,0,3:0:0:0:
149,229,9013,1,0,3:0:0:0:
362,229,9038,1,0,3:0:0:0:
145,252,9063,1,0,3:0:0:0:
366,252,9088,1,0,3:0:0:0:
144,275,9112,1,0,3:0:0:0:
367,275,9137,1,0,3:0:0:0:
150,298,9162,1,0,3:0:0:0:
361,298,9187,1,0,3:0:0:0:
167,313,9211,1,0,3:0:0:0:
344,313,9236,1,0,3:0:0:0:
404,264,9261,1,0,3:0:0:0:
404,120,9286,1,0,3:0:0:0:
400,286,9310,1,0,3:0:0:0:
400,97,9335,1,0,3:0:0:0:
380,297,9360,1,0,3:0:0:0:
380,86,9385,1,0,3:0:0:0:
357,297,9409,1,0,3:0:0:0:
357,86,9434,1,0,3:0:0:0:
334,295,9459,1,0,3:0:0:0:
334,88,9484,1,0,3:0:0:0:
311,292,9508,1,0,3:0:0:0:
311,91,9533,1,0,3:0:0:0:
287,291,9558,1,0,3:0:0:0:
287,92,9583,1,0,3:0:0:0:
264,291,9607,1,0,3:0:0:0:
264,92,9632,1,0,3:0:0:0:
241,294,9657,1,0,3:0:0:0:
241,89,9682,1,0,3:0:0:0:
218,298,9706,1,0,3:0:0:0:
218,85,9731,1,0,3:0:0:0:
195,302,9756,1,0,3:0:0:0:
195,81,9781,1,0,3:0:0:0:
172,303,9805,1,0,3:0:0:0:
172,80,9830,1,0,3:0:0:0:
149,297,9855,1,0,3:0:0:0:
149,86,9880,1,0,3:0:0:0:
134,280,9904,1,0,3:0:0:0:
134,103,9929,1,0,3:0:0:0:
180,107,10350,1,0,0:0:0:0:
105,144,10350,1,0,0:0:0:0:
70,115,10350,1,0,0:0:0:0:
76,49,10350,1,0,0:0:0:0:
116,27,10350,1,0,0:0:0:0:
176,56,10350,1,0,0:0:0:0:
160,38,10350,1,0,0:0:0:0:
139,28,10350,1,0,0:0:0:0:
94,34,10350,1,0,0:0:0:0:
66,69,10350,1,0,0:0:0:0:
63,92,10350,1,0,0:0:0:0:
85,133,10350,1,0,0:0:0:0:
128,147,10350,1,0,0:0:0:0:
150,141,10350,1,0,0:0:0:0:
169,126,10350,1,0,0:0:0:0:
184,84,10350,1,0,0:0:0:0:
312,220,10623,1,0,0:0:0:0:
312,267,10623,1,0,0:0:0:0:
312,314,10623,1,0,0:0:0:0:
394,348,10623,1,0,0:0:0:0:
464,254,10623,1,0,0:0:0:0:
456,192,10623,1,0,0:0:0:0:
432,192,10623,1,0,0:0:0:0:
339,192,10623,1,0,0:0:0:0:
316,192,10623,1,0,0:0:0:0:
386,192,10623,1,0,0:0:0:0:
362,192,10623,1,0,0:0:0:0:
409,192,10623,1,0,0:0:0:0:
464,207,10623,1,0,0:0:0:0:
464,230,10623,1,0,0:0:0:0:
464,277,10623,1,0,0:0:0:0:
464,300,10623,1,0,0:0:0:0:
464,324,10623,1,0,0:0:0:0:
464,347,10623,1,0,0:0:0:0:
441,348,10623,1,0,0:0:0:0:
418,348,10623,1,0,0:0:0:0:
371,348,10623,1,0,0:0:0:0:
348,348,10623,1,0,0:0:0:0:
324,348,10623,1,0,0:0:0:0:
312,337,10623,1,0,0:0:0:0:
312,290,10623,1,0,0:0:0:0:
312,243,10623,1,0,0:0:0:0:
312,197,10623,1,0,0:0:0:0:
260,64,10845,1,0,0:0:0:0:
260,192,10845,1,0,0:0:0:0:
260,144,10845,1,0,0:0:0:0:
176,181,10845,1,0,0:0:0:0:
176,111,10845,1,0,0:0:0:0:
64,198,10845,1,0,0:0:0:0:
64,215,10845,1,0,0:0:0:0:
64,145,10845,1,0,0:0:0:0:
64,40,10845,1,0,0:0:0:0:
64,75,10845,1,0,0:0:0:0:
64,110,10845,1,0,0:0:0:0:
64,180,10845,1,0,0:0:0:0:
64,163,10845,1,0,0:0:0:0:
64,128,10845,1,0,0:0:0:0:
99,128,10845,1,0,0:0:0:0:
134,128,10845,1,0,0:0:0:0:
169,128,10845,1,0,0:0:0:0:
176,100,10845,1,0,0:0:0:0:
176,65,10845,1,0,0:0:0:0:
176,41,10845,1,0,0:0:0:0:
176,76,10845,1,0,0:0:0:0:
176,146,10845,1,0,0:0:0:0:
176,216,10845,1,0,0:0:0:0:
260,172,10845,1,0,0:0:0:0:
260,212,10845,1,0,0:0:0:0:
320,84,10969,1,0,0:0:0:0:
176,88,10994,1,0,0:0:0:0:
300,71,11018,1,0,0:0:0:0:
195,75,11043,1,0,0:0:0:0:
281,58,11068,1,0,0:0:0:0:
214,62,11093,1,0,0:0:0:0:
261,45,11117,1,0,0:0:0:0:
234,49,11142,1,0,0:0:0:0:
242,32,11167,1,0,0:0:0:0:
253,36,11192,1,0,0:0:0:0:
223,20,11216,1,0,0:0:0:0:
272,24,11241,1,0,0:0:0:0:
207,38,11266,1,0,0:0:0:0:
288,42,11291,1,0,0:0:0:0:
192,56,11315,1,0,0:0:0:0:
303,60,11340,1,0,0:0:0:0:
176,73,11365,1,0,0:0:0:0:
319,77,11390,1,0,0:0:0:0:
161,91,11414,1,0,0:0:0:0:
334,95,11439,1,0,0:0:0:0:
146,108,11464,1,0,0:0:0:0:
349,112,11489,1,0,0:0:0:0:
130,126,11513,1,0,0:0:0:0:
365,130,11538,1,0,0:0:0:0:
115,143,11563,1,0,0:0:0:0:
380,147,11588,1,0,0:0:0:0:
99,161,11612,1,0,0:0:0:0:
396,165,11637,1,0,0:0:0:0:
84,178,11662,1,0,0:0:0:0:
411,182,11687,1,0,0:0:0:0:
69,196,11711,1,0,0:0:0:0:
426,200,11736,1,0,0:0:0:0:
53,213,11761,1,0,0:0:0:0:
442,217,11786,1,0,0:0:0:0:
38,231,11810,1,0,0:0:0:0:
457,235,11835,1,0,0:0:0:0:
22,248,11860,1,0,0:0:0:0:
473,252,11885,1,0,0:0:0:0:
34,264,11909,1,0,0:0:0:0:
461,268,11934,1,0,0:0:0:0:
52,278,11959,1,0,0:0:0:0:
443,282,11984,1,0,0:0:0:0:
70,293,12008,1,0,0:0:0:0:
425,297,12033,1,0,0:0:0:0:
89,308,12058,1,0,0:0:0:0:
406,312,12083,1,0,0:0:0:0:
107,322,12107,1,0,0:0:0:0:
388,326,12132,1,0,0:0:0:0:
125,337,12157,1,0,0:0:0:0:
370,341,12182,1,0,0:0:0:0:
252,8,12232,1,0,0:0:0:0:
260,8,12232,1,0,0:0:0:0:
266,26,12281,1,0,0:0:0:0:
245,26,12281,1,0,0:0:0:0:
280,44,12331,1,0,0:0:0:0:
231,44,12331,1,0,0:0:0:0:
295,62,12380,1,0,0:0:0:0:
216,62,12380,1,0,0:0:0:0:
309,81,12430,1,0,0:0:0:0:
202,81,12430,1,0,0:0:0:0:
324,99,12479,1,0,0:0:0:0:
187,99,12479,1,0,0:0:0:0:
184,180,12529,1,0,0:0:0:0:
338,117,12529,1,0,0:0:0:0:
173,117,12529,1,0,0:0:0:0:
205,172,12578,1,0,0:0:0:0:
353,135,12578,1,0,0:0:0:0:
158,135,12578,1,0,0:0:0:0:
228,167,12628,1,0,0:0:0:0:
367,154,12628,1,0,0:0:0:0:
144,154,12628,1,0,0:0:0:0:
251,165,12677,1,0,0:0:0:0:
382,172,12677,1,0,0:0:0:0:
129,172,12677,1,0,0:0:0:0:
275,165,12727,1,0,0:0:0:0:
396,190,12727,1,0,0:0:0:0:
115,190,12727,1,0,0:0:0:0:
298,167,12776,1,0,0:0:0:0:
411,209,12776,1,0,0:0:0:0:
100,209,12776,1,0,0:0:0:0:
321,172,12826,1,0,0:0:0:0:
425,227,12826,1,0,0:0:0:0:
86,227,12826,1,0,0:0:0:0:
331,182,12875,1,0,0:0:0:0:
440,245,12875,1,0,0:0:0:0:
71,245,12875,1,0,0:0:0:0:
317,201,12925,1,0,0:0:0:0:
454,263,12925,1,0,0:0:0:0:
57,263,12925,1,0,0:0:0:0:
300,217,12974,1,0,0:0:0:0:
469,282,12974,1,0,0:0:0:0:
42,282,12974,1,0,0:0:0:0:
280,228,13024,1,0,0:0:0:0:
483,300,13024,1,0,0:0:0:0:
28,300,13024,1,0,0:0:0:0:
257,233,13073,1,0,0:0:0:0:
498,318,13073,1,0,0:0:0:0:
13,318,13073,1,0,0:0:0:0:
234,230,13123,1,0,0:0:0:0:
510,336,13123,1,0,0:0:0:0:
1,336,13123,1,0,0:0:0:0:
213,219,13172,1,0,0:0:0:0:
487,336,13172,1,0,0:0:0:0:
24,336,13172,1,0,0:0:0:0:
195,205,13222,1,0,0:0:0:0:
463,336,13222,1,0,0:0:0:0:
48,336,13222,1,0,0:0:0:0:
179,188,13271,1,0,0:0:0:0:
440,336,13271,1,0,0:0:0:0:
71,336,13271,1,0,0:0:0:0:
417,336,13321,1,0,0:0:0:0:
94,336,13321,1,0,0:0:0:0:
393,336,13370,1,0,0:0:0:0:
118,336,13370,1,0,0:0:0:0:
370,336,13420,1,0,0:0:0:0:
141,336,13420,1,0,0:0:0:0:
347,336,13469,1,0,0:0:0:0:
164,336,13469,1,0,0:0:0:0:
323,336,13519,1,0,0:0:0:0:
188,336,13519,1,0,0:0:0:0:
300,336,13568,1,0,0:0:0:0:
211,336,13568,1,0,0:0:0:0:
277,336,13618,1,0,0:0:0:0:
234,336,13618,1,0,0:0:0:0:
216,8,13915,1,0,0:0:0:0:
296,8,13915,1,0,0:0:0:0:
199,24,13964,1,0,0:0:0:0:
312,24,13964,1,0,0:0:0:0:
183,41,14014,1,0,0:0:0:0:
328,41,14014,1,0,0:0:0:0:
168,58,14063,1,0,0:0:0:0:
343,58,14063,1,0,0:0:0:0:
154,77,14113,1,0,0:0:0:0:
357,77,14113,1,0,0:0:0:0:
141,97,14162,1,0,0:0:0:0:
370,97,14162,1,0,0:0:0:0:
131,118,14212,1,0,0:0:0:0:
380,118,14212,1,0,0:0:0:0:
124,140,14261,1,0,0:0:0:0:
387,140,14261,1,0,0:0:0:0:
119,163,14311,1,0,0:0:0:0:
392,163,14311,1,0,0:0:0:0:
118,186,14360,1,0,0:0:0:0:
393,186,14360,1,0,0:0:0:0:
120,209,14410,1,0,0:0:0:0:
391,209,14410,1,0,0:0:0:0:
126,232,14459,1,0,0:0:0:0:
385,232,14459,1,0,0:0:0:0:
134,254,14509,1,0,0:0:0:0:
377,254,14509,1,0,0:0:0:0:
145,275,14558,1,0,0:0:0:0:
366,275,14558,1,0,0:0:0:0:
157,294,14608,1,0,0:0:0:0:
354,294,14608,1,0,0:0:0:0:
171,313,14657,1,0,0:0:0:0:
340,313,14657,1,0,0:0:0:0:
185,331,14707,1,0,0:0:0:0:
326,331,14707,1,0,0:0:0:0:
201,349,14756,1,0,0:0:0:0:
310,349,14756,1,0,0:0:0:0:
216,376,14806,1,0,0:0:0:0:
296,376,14806,1,0,0:0:0:0:
199,359,14855,1,0,0:0:0:0:
312,359,14855,1,0,0:0:0:0:
328,342,14905,1,0,0:0:0:0:
183,342,14905,1,0,0:0:0:0:
168,325,14954,1,0,0:0:0:0:
343,325,14954,1,0,0:0:0:0:
357,306,15004,1,0,0:0:0:0:
154,306,15004,1,0,0:0:0:0:
370,286,15053,1,0,0:0:0:0:
141,286,15053,1,0,0:0:0:0:
131,265,15103,1,0,0:0:0:0:
380,265,15103,1,0,0:0:0:0:
387,243,15152,1,0,0:0:0:0:
124,243,15152,1,0,0:0:0:0:
392,220,15202,1,0,0:0:0:0:
119,220,15202,1,0,0:0:0:0:
118,197,15251,1,0,0:0:0:0:
393,197,15251,1,0,0:0:0:0:
120,174,15301,1,0,0:0:0:0:
391,174,15301,1,0,0:0:0:0:
126,151,15350,1,0,0:0:0:0:
385,151,15350,1,0,0:0:0:0:
134,129,15400,1,0,0:0:0:0:
377,129,15400,1,0,0:0:0:0:
145,108,15449,1,0,0:0:0:0:
366,108,15449,1,0,0:0:0:0:
157,89,15499,1,0,0:0:0:0:
354,89,15499,1,0,0:0:0:0:
340,70,15548,1,0,0:0:0:0:
171,70,15548,1,0,0:0:0:0:
326,52,15598,1,0,0:0:0:0:
185,52,15598,1,0,0:0:0:0:
201,34,15647,1,0,0:0:0:0:
310,34,15647,1,0,0:0:0:0:
126,171,16291,1,0,0:0:0:0:
153,207,16291,1,0,0:0:0:0:
81,272,16291,1,0,0:0:0:0:
42,219,16291,1,0,0:0:0:0:
104,164,16291,1,0,0:0:0:0:
80,166,16291,1,0,0:0:0:0:
61,178,16291,1,0,0:0:0:0:
47,197,16291,1,0,0:0:0:0:
47,242,16291,1,0,0:0:0:0:
61,261,16291,1,0,0:0:0:0:
104,275,16291,1,0,0:0:0:0:
126,267,16291,1,0,0:0:0:0:
143,252,16291,1,0,0:0:0:0:
153,230,16291,1,0,0:0:0:0:
143,186,16291,1,0,0:0:0:0:
382,132,16588,1,0,0:0:0:0:
299,75,16588,1,0,0:0:0:0:
356,44,16588,1,0,0:0:0:0:
332,45,16588,1,0,0:0:0:0:
312,56,16588,1,0,0:0:0:0:
295,98,16588,1,0,0:0:0:0:
302,120,16588,1,0,0:0:0:0:
318,137,16588,1,0,0:0:0:0:
339,146,16588,1,0,0:0:0:0:
362,144,16588,1,0,0:0:0:0:
395,113,16588,1,0,0:0:0:0:
398,90,16588,1,0,0:0:0:0:
375,51,16588,1,0,0:0:0:0:
391,68,16588,1,0,0:0:0:0:
304,244,16885,1,0,0:0:0:0:
281,242,16885,1,0,0:0:0:0:
259,250,16885,1,0,0:0:0:0:
336,275,16885,1,0,0:0:0:0:
332,320,16885,1,0,0:0:0:0:
317,336,16885,1,0,0:0:0:0:
340,298,16885,1,0,0:0:0:0:
297,344,16885,1,0,0:0:0:0:
240,312,16885,1,0,0:0:0:0:
324,256,16885,1,0,0:0:0:0:
274,343,16885,1,0,0:0:0:0:
243,268,16885,1,0,0:0:0:0:
237,290,16885,1,0,0:0:0:0:
254,331,16885,1,0,0:0:0:0:
244,52,17182,1,0,0:0:0:0:
252,332,17182,1,0,0:0:0:0:
222,42,17231,1,0,0:0:0:0:
273,341,17231,1,0,0:0:0:0:
200,35,17281,1,0,0:0:0:0:
295,348,17281,1,0,0:0:0:0:
177,31,17330,1,0,0:0:0:0:
318,352,17330,1,0,0:0:0:0:
154,30,17380,1,0,0:0:0:0:
341,353,17380,1,0,0:0:0:0:
131,33,17429,1,0,0:0:0:0:
364,350,17429,1,0,0:0:0:0:
108,40,17479,1,0,0:0:0:0:
387,343,17479,1,0,0:0:0:0:
89,52,17528,1,0,0:0:0:0:
406,331,17528,1,0,0:0:0:0:
73,69,17578,1,0,0:0:0:0:
422,314,17578,1,0,0:0:0:0:
62,90,17627,1,0,0:0:0:0:
433,293,17627,1,0,0:0:0:0:
57,113,17677,1,0,0:0:0:0:
438,270,17677,1,0,0:0:0:0:
57,136,17726,1,0,0:0:0:0:
438,247,17726,1,0,0:0:0:0:
62,159,17776,1,0,0:0:0:0:
433,224,17776,1,0,0:0:0:0:
70,181,17825,1,0,0:0:0:0:
425,202,17825,1,0,0:0:0:0:
81,201,17875,1,0,0:0:0:0:
414,182,17875,1,0,0:0:0:0:
94,220,17924,1,0,0:0:0:0:
401,163,17924,1,0,0:0:0:0:
264,212,18222,1,0,0:0:0:0:
256,144,18222,1,0,0:0:0:0:
261,235,18271,1,0,0:0:0:0:
258,120,18271,1,0,0:0:0:0:
266,257,18321,1,0,0:0:0:0:
253,98,18321,1,0,0:0:0:0:
278,277,18370,1,0,0:0:0:0:
241,78,18370,1,0,0:0:0:0:
295,294,18420,1,0,0:0:0:0:
224,61,18420,1,0,0:0:0:0:
314,306,18469,1,0,0:0:0:0:
205,49,18469,1,0,0:0:0:0:
336,315,18519,1,0,0:0:0:0:
183,40,18519,1,0,0:0:0:0:
359,319,18568,1,0,0:0:0:0:
160,36,18568,1,0,0:0:0:0:
382,319,18618,1,0,0:0:0:0:
137,36,18618,1,0,0:0:0:0:
405,314,18667,1,0,0:0:0:0:
114,41,18667,1,0,0:0:0:0:
426,305,18717,1,0,0:0:0:0:
93,50,18717,1,0,0:0:0:0:
444,291,18766,1,0,0:0:0:0:
75,64,18766,1,0,0:0:0:0:
458,272,18816,1,0,0:0:0:0:
61,83,18816,1,0,0:0:0:0:
467,250,18865,1,0,0:0:0:0:
52,105,18865,1,0,0:0:0:0:
471,227,18915,1,0,0:0:0:0:
48,128,18915,1,0,0:0:0:0:
471,204,18964,1,0,0:0:0:0:
48,151,18964,1,0,0:0:0:0:
465,181,19014,1,0,0:0:0:0:
54,174,19014,1,0,0:0:0:0:
455,160,19063,1,0,0:0:0:0:
64,195,19063,1,0,0:0:0:0:
441,142,19113,1,0,0:0:0:0:
78,213,19113,1,0,0:0:0:0:
422,129,19162,1,0,0:0:0:0:
97,226,19162,1,0,0:0:0:0:
400,121,19212,1,0,0:0:0:0:
119,234,19212,1,0,0:0:0:0:
377,119,19261,1,0,0:0:0:0:
142,236,19261,1,0,0:0:0:0:
136,52,19311,1,0,0:0:0:0:
376,332,19311,1,0,0:0:0:0:
114,61,19360,1,0,0:0:0:0:
397,322,19360,1,0,0:0:0:0:
95,75,19410,1,0,0:0:0:0:
416,308,19410,1,0,0:0:0:0:
78,91,19459,1,0,0:0:0:0:
433,292,19459,1,0,0:0:0:0:
64,109,19509,1,0,0:0:0:0:
447,274,19509,1,0,0:0:0:0:
52,129,19558,1,0,0:0:0:0:
459,254,19558,1,0,0:0:0:0:
44,151,19608,1,0,0:0:0:0:
467,232,19608,1,0,0:0:0:0:
40,174,19657,1,0,0:0:0:0:
471,209,19657,1,0,0:0:0:0:
39,197,19707,1,0,0:0:0:0:
472,186,19707,1,0,0:0:0:0:
42,220,19756,1,0,0:0:0:0:
469,163,19756,1,0,0:0:0:0:
48,243,19806,1,0,0:0:0:0:
463,140,19806,1,0,0:0:0:0:
57,264,19855,1,0,0:0:0:0:
454,119,19855,1,0,0:0:0:0:
70,284,19905,1,0,0:0:0:0:
441,99,19905,1,0,0:0:0:0:
86,301,19954,1,0,0:0:0:0:
425,82,19954,1,0,0:0:0:0:
104,316,20004,1,0,0:0:0:0:
407,67,20004,1,0,0:0:0:0:
124,327,20053,1,0,0:0:0:0:
387,56,20053,1,0,0:0:0:0:
146,336,20103,1,0,0:0:0:0:
365,47,20103,1,0,0:0:0:0:
169,341,20152,1,0,0:0:0:0:
342,42,20152,1,0,0:0:0:0:
192,342,20202,1,0,0:0:0:0:
319,41,20202,1,0,0:0:0:0:
215,340,20251,1,0,0:0:0:0:
296,43,20251,1,0,0:0:0:0:
238,334,20301,1,0,0:0:0:0:
273,49,20301,1,0,0:0:0:0:
259,325,20350,1,0,0:0:0:0:
252,58,20350,1,0,0:0:0:0:
279,312,20400,1,0,0:0:0:0:
232,71,20400,1,0,0:0:0:0:
132,48,21043,1,0,0:0:0:0:
111,76,21043,1,0,0:0:0:0:
90,104,21043,1,0,0:0:0:0:
69,132,21043,1,0,0:0:0:0:
57,156,21043,1,0,0:0:0:0:
92,156,21043,1,0,0:0:0:0:
127,156,21043,1,0,0:0:0:0:
162,156,21043,1,0,0:0:0:0:
197,156,21043,1,0,0:0:0:0:
187,132,21043,1,0,0:0:0:0:
168,103,21043,1,0,0:0:0:0:
148,74,21043,1,0,0:0:0:0:
128,45,21043,1,0,0:0:0:0:
464,320,21340,1,0,0:0:0:0:
473,343,21340,1,0,0:0:0:0:
438,343,21340,1,0,0:0:0:0:
405,233,21340,1,0,0:0:0:0:
424,262,21340,1,0,0:0:0:0:
444,291,21340,1,0,0:0:0:0:
403,343,21340,1,0,0:0:0:0:
366,291,21340,1,0,0:0:0:0:
387,263,21340,1,0,0:0:0:0:
408,235,21340,1,0,0:0:0:0:
368,343,21340,1,0,0:0:0:0:
333,343,21340,1,0,0:0:0:0:
345,319,21340,1,0,0:0:0:0:
384,44,21638,1,0,0:0:0:0:
363,72,21638,1,0,0:0:0:0:
342,100,21638,1,0,0:0:0:0:
321,128,21638,1,0,0:0:0:0:
309,152,21638,1,0,0:0:0:0:
344,152,21638,1,0,0:0:0:0:
379,152,21638,1,0,0:0:0:0:
414,152,21638,1,0,0:0:0:0:
449,152,21638,1,0,0:0:0:0:
439,128,21638,1,0,0:0:0:0:
420,99,21638,1,0,0:0:0:0:
400,70,21638,1,0,0:0:0:0:
380,41,21638,1,0,0:0:0:0:
112,136,21687,1,0,0:0:0:0:
220,120,21687,1,0,0:0:0:0:
129,151,21736,1,0,0:0:0:0:
237,135,21736,1,0,0:0:0:0:
146,167,21786,1,0,0:0:0:0:
254,151,21786,1,0,0:0:0:0:
163,182,21835,1,0,0:0:0:0:
271,166,21835,1,0,0:0:0:0:
181,198,21885,1,0,0:0:0:0:
289,182,21885,1,0,0:0:0:0:
199,213,21934,1,0,0:0:0:0:
307,197,21934,1,0,0:0:0:0:
216,228,21984,1,0,0:0:0:0:
324,212,21984,1,0,0:0:0:0:
234,243,22033,1,0,0:0:0:0:
342,227,22033,1,0,0:0:0:0:
252,258,22083,1,0,0:0:0:0:
360,242,22083,1,0,0:0:0:0:
270,273,22132,1,0,0:0:0:0:
378,257,22132,1,0,0:0:0:0:
288,288,22182,1,0,0:0:0:0:
396,272,22182,1,0,0:0:0:0:
188,316,22232,1,0,0:0:0:0:
197,339,22232,1,0,0:0:0:0:
162,339,22232,1,0,0:0:0:0:
129,229,22232,1,0,0:0:0:0:
148,258,22232,1,0,0:0:0:0:
168,287,22232,1,0,0:0:0:0:
127,339,22232,1,0,0:0:0:0:
90,287,22232,1,0,0:0:0:0:
111,259,22232,1,0,0:0:0:0:
132,231,22232,1,0,0:0:0:0:
92,339,22232,1,0,0:0:0:0:
57,339,22232,1,0,0:0:0:0:
69,315,22232,1,0,0:0:0:0:
262,129,22529,1,0,0:0:0:0:
241,157,22529,1,0,0:0:0:0:
220,185,22529,1,0,0:0:0:0:
199,213,22529,1,0,0:0:0:0:
187,237,22529,1,0,0:0:0:0:
222,237,22529,1,0,0:0:0:0:
257,237,22529,1,0,0:0:0:0:
292,237,22529,1,0,0:0:0:0:
327,237,22529,1,0,0:0:0:0:
318,214,22529,1,0,0:0:0:0:
298,185,22529,1,0,0:0:0:0:
278,156,22529,1,0,0:0:0:0:
259,127,22529,1,0,0:0:0:0:
436,256,22578,1,0,0:0:0:0:
76,128,22603,1,0,0:0:0:0:
453,241,22627,1,0,0:0:0:0:
58,142,22652,1,0,0:0:0:0:
42,160,22702,1,0,0:0:0:0:
481,203,22726,1,0,0:0:0:0:
30,180,22751,1,0,0:0:0:0:
489,181,22776,1,0,0:0:0:0:
22,202,22801,1,0,0:0:0:0:
19,225,22850,1,0,0:0:0:0:
490,135,22875,1,0,0:0:0:0:
21,248,22900,1,0,0:0:0:0:
484,112,22924,1,0,0:0:0:0:
27,271,22949,1,0,0:0:0:0:
38,291,22999,1,0,0:0:0:0:
458,74,23023,1,0,0:0:0:0:
53,309,23048,1,0,0:0:0:0:
440,59,23073,1,0,0:0:0:0:
71,324,23098,1,0,0:0:0:0:
91,335,23147,1,0,0:0:0:0:
398,39,23172,1,0,0:0:0:0:
113,344,23197,1,0,0:0:0:0:
375,34,23221,1,0,0:0:0:0:
136,349,23246,1,0,0:0:0:0:
159,350,23296,1,0,0:0:0:0:
328,35,23320,1,0,0:0:0:0:
183,348,23345,1,0,0:0:0:0:
306,40,23370,1,0,0:0:0:0:
205,343,23395,1,0,0:0:0:0:
227,334,23444,1,0,0:0:0:0:
264,60,23469,1,0,0:0:0:0:
247,323,23494,1,0,0:0:0:0:
246,76,23518,1,0,0:0:0:0:
265,307,23543,1,0,0:0:0:0:
152,48,23717,1,0,0:0:0:0:
356,48,23717,1,0,0:0:0:0:
159,280,23717,1,0,0:0:0:0:
290,313,23729,1,0,0:0:0:0:
143,63,23754,1,0,0:0:0:0:
347,63,23754,1,0,0:0:0:0:
173,291,23754,1,0,0:0:0:0:
307,308,23766,1,0,0:0:0:0:
120,224,23767,1,0,0:0:0:0:
380,261,23791,1,0,0:0:0:0:
146,79,23791,1,0,0:0:0:0:
350,79,23791,1,0,0:0:0:0:
188,300,23791,1,0,0:0:0:0:
323,302,23803,1,0,0:0:0:0:
127,239,23804,1,0,0:0:0:0:
392,248,23828,1,0,0:0:0:0:
160,74,23828,1,0,0:0:0:0:
364,74,23828,1,0,0:0:0:0:
204,307,23828,1,0,0:0:0:0:
339,294,23840,1,0,0:0:0:0:
136,254,23841,1,0,0:0:0:0:
402,235,23865,1,0,0:0:0:0:
161,57,23865,1,0,0:0:0:0:
365,57,23865,1,0,0:0:0:0:
221,312,23866,1,0,0:0:0:0:
147,268,23878,1,0,0:0:0:0:
353,284,23878,1,0,0:0:0:0:
273,316,23890,1,0,0:0:0:0:
238,316,23903,1,0,0:0:0:0:
367,273,23915,1,0,0:0:0:0:
256,317,23940,1,0,0:0:0:0:
