osu file format v14

[General]
AudioFilename: preparing for te shakedown_200705155_soundcloud.mp3
AudioLeadIn: 0
PreviewTime: 10350
Countdown: 1
SampleSet: None
StackLeniency: 0.6
Mode: 0
LetterboxInBreaks: 1
WidescreenStoryboard: 1

[Editor]
Bookmarks: 5598,6192,10944
DistanceSpacing: 0.6
BeatDivisor: 16
GridSize: 16
TimelineZoom: 4.499998

[Metadata]
Title:preparing for te shakedown
TitleUnicode:preparing for te shakedown
Artist:yumyumyuumyy
ArtistUnicode:yumyumyuumyy
Creator:[Toy]
Version:IRRE CS7 GOOD BUT MY CS6 BEST
Source:
Tags:
BeatmapID:735462
BeatmapSetID:316625

[Difficulty]
HPDrainRate:6
CircleSize:6
OverallDifficulty:5
ApproachRate:9
SliderMultiplier:3.59999990463257
SliderTickRate:1

[Events]
//Background and Video events
0,0,"patrick.jpg",0,0
//Break Periods
//Storyboard Layer 0 (Background)
//Storyboard Layer 1 (Fail)
//Storyboard Layer 2 (Pass)
//Storyboard Layer 3 (Foreground)
//Storyboard Sound Samples

[TimingPoints]
1440,297.029702970297,4,2,0,100,1,0
3185,-50,4,2,0,100,0,0
4967,-66.6666666666667,4,2,0,100,0,0
5115,-100,4,2,0,100,0,0
5264,-100,4,2,0,100,0,0
5412,-100,4,2,0,100,0,0
5561,-100,4,2,0,100,0,0
5709,-100,4,2,0,100,0,0
5858,-100,4,2,0,100,0,0
10350,-133.333333333333,4,2,0,100,0,0
15994,-50,4,2,0,100,0,0
16440,-133.333333333333,4,2,0,100,0,0
17553,-200,4,2,0,100,0,0
17888,-133.333333333333,4,2,0,100,0,0
20709,-133.333333333333,4,2,0,100,0,0
23420,-50,4,2,0,100,0,0

[HitObjects]
96,64,1440,5,0,0:0:0:0:
272,112,1588,1,0,0:0:0:0:
96,176,1737,1,0,0:0:0:0:
272,224,1885,1,0,0:0:0:0:
96,272,2034,1,0,0:0:0:0:
272,320,2182,1,0,0:0:0:0:
448,288,2331,5,0,0:0:0:0:
272,224,2479,1,0,0:0:0:0:
448,160,2628,1,0,0:0:0:0:
272,112,2776,1,0,0:0:0:0:
448,48,2925,1,0,0:0:0:0:
272,0,3073,1,0,0:0:0:0:
96,48,3222,5,0,0:0:0:0:
272,112,3370,1,0,0:0:0:0:
448,160,3519,1,0,0:0:0:0:
272,224,3667,1,0,0:0:0:0:
96,272,3816,1,0,0:0:0:0:
272,336,3964,1,0,0:0:0:0:
448,272,4113,5,0,0:0:0:0:
272,224,4261,1,0,0:0:0:0:
96,160,4410,1,0,0:0:0:0:
272,112,4558,1,0,0:0:0:0:
448,64,4707,1,0,0:0:0:0:
272,0,4855,1,0,0:0:0:0:
96,64,5004,5,0,0:0:0:0:
144,240,5152,1,0,0:0:0:0:
320,176,5301,1,0,0:0:0:0:
256,16,5449,1,0,0:0:0:0:
320,176,5598,5,0,0:0:0:0:
400,336,5746,1,0,0:0:0:0:
224,352,5895,1,0,0:0:0:0:
320,176,6043,1,0,0:0:0:0:
176,64,6192,5,0,0:0:0:0:
160,96,6241,1,0,0:0:0:0:
192,96,6291,1,0,0:0:0:0:
240,128,6340,5,0,0:0:0:0:
272,128,6390,1,0,0:0:0:0:
256,160,6440,1,0,0:0:0:0:
208,192,6489,5,0,0:0:0:0:
176,192,6539,1,0,0:0:0:0:
192,224,6588,1,0,0:0:0:0:
240,256,6638,5,0,0:0:0:0:
256,288,6687,1,0,0:0:0:0:
272,256,6737,1,0,0:0:0:0:
320,224,6786,5,0,0:0:0:0:
352,224,6836,1,0,0:0:0:0:
336,192,6885,1,0,0:0:0:0:
384,160,6935,5,0,0:0:0:0:
416,160,6985,1,0,0:0:0:0:
400,128,7034,1,0,0:0:0:0:
352,96,7083,5,0,0:0:0:0:
336,128,7133,1,0,0:0:0:0:
320,96,7182,1,0,0:0:0:0:
272,64,7232,5,0,0:0:0:0:
240,64,7281,1,0,0:0:0:0:
208,0,7380,5,0,0:0:0:0:
176,0,7430,1,0,0:0:0:0:
192,32,7479,1,0,0:0:0:0:
144,64,7529,5,0,0:0:0:0:
112,64,7578,1,0,0:0:0:0:
128,96,7628,1,0,0:0:0:0:
176,128,7677,5,0,0:0:0:0:
208,128,7727,1,0,0:0:0:0:
192,160,7776,1,0,0:0:0:0:
240,192,7826,5,0,0:0:0:0:
272,192,7875,1,0,0:0:0:0:
256,224,7925,1,0,0:0:0:0:
320,240,7974,5,0,0:0:0:0:
336,272,8024,1,0,0:0:0:0:
352,240,8073,1,0,0:0:0:0:
368,192,8123,5,0,0:0:0:0:
384,160,8172,1,0,0:0:0:0:
352,160,8222,1,0,0:0:0:0:
320,112,8271,5,0,0:0:0:0:
336,80,8321,1,0,0:0:0:0:
304,80,8370,1,0,0:0:0:0:
272,32,8420,5,0,0:0:0:0:
240,32,8469,1,0,0:0:0:0:
256,64,8519,1,0,0:0:0:0:
192,48,8568,6,0,L|192:112,7,44.9999988079071
208,112,8865,2,0,L|256:112,7,44.9999988079071
272,128,9162,2,0,L|272:176,7,44.9999988079071
256,192,9459,2,0,L|208:192,7,44.9999988079071
192,208,9756,2,0,L|192:256,7,44.9999988079071
208,272,10053,2,0,L|272:272,8,44.9999988079071
256,192,10388,12,0,10944,0:0:0:0:
176,112,11241,5,0,0:0:0:0:
192,112,11316,1,0,0:0:0:0:
192,128,11390,1,0,0:0:0:0:
176,128,11464,1,0,0:0:0:0:
432,64,11836,5,0,0:0:0:0:
432,320,12133,2,0,L|416:304,1,16.8750001966953
64,64,12578,2,0,L|80:80,1,16.8750001966953
64,320,13024,2,0,L|80:304,1,16.8750001966953
128,256,13469,6,0,L|144:240,1,16.8750001966953
176,208,13618,2,0,L|192:192,1,16.8750001966953
128,256,13915,1,0,0:0:0:0:
400,64,14063,1,0,0:0:0:0:
400,64,14509,5,0,0:0:0:0:
432,96,14583,1,0,0:0:0:0:
400,128,14657,1,0,0:0:0:0:
368,96,14732,1,0,0:0:0:0:
400,96,14806,1,0,0:0:0:0:
336,176,14954,1,0,0:0:0:0:
192,256,15103,5,0,0:0:0:0:
64,64,15326,1,0,0:0:0:0:
352,32,15548,1,0,0:0:0:0:
368,304,15994,6,0,B|384:304|384:288|368:288,16,44.9999988079071
352,320,16328,1,0,0:0:0:0:
112,272,16588,1,0,0:0:0:0:
80,240,16885,2,0,L|96:224,1,16.8750001966953
144,304,17331,2,0,L|128:288,1,16.8750001966953
208,256,17628,6,0,L|192:272,1,22.4999994039536
240,224,17739,1,0,0:0:0:0:
208,256,18222,6,0,L|192:272,1,16.8750001966953
240,224,18370,1,0,0:0:0:0:
208,256,18667,1,0,0:0:0:0:
336,96,18816,5,0,0:0:0:0:
336,96,19261,2,0,L|352:80,16,16.8750001966953
256,192,19707,1,0,0:0:0:0:
176,288,19855,2,0,L|160:304,16,16.8750001966953
256,192,20152,1,0,0:0:0:0:
256,192,20301,1,0,0:0:0:0:
160,96,20449,6,0,L|192:96,4,16.8750001966953
208,160,20598,2,0,L|240:160,4,16.8750001966953
256,224,20746,2,0,L|272:224,4,16.8750001966953
304,288,20895,2,0,L|320:288,4,16.8750001966953
352,352,21043,1,0,0:0:0:0:
384,48,21340,5,0,0:0:0:0:
384,48,21638,1,0,0:0:0:0:
64,112,22083,1,0,0:0:0:0:
256,288,22529,1,0,0:0:0:0:
256,288,22974,6,0,L|272:304,1,16.8750001966953
304,336,23123,1,0,0:0:0:0:
304,336,23420,2,0,B|352:288|432:192|256:160|224:128|336:48|384:32,1,359.999990463257
