osu file format v14

[General]
AudioFilename: preparing for te shakedown_200705155_soundcloud.mp3
AudioLeadIn: 0
PreviewTime: 10350
Countdown: 1
SampleSet: None
StackLeniency: 0.7
Mode: 0
LetterboxInBreaks: 1
WidescreenStoryboard: 1

[Editor]
DistanceSpacing: 1
BeatDivisor: 4
GridSize: 4
TimelineZoom: 2.799999

[Metadata]
Title:preparing for te shakedown
TitleUnicode:preparing for te shakedown
Artist:yumyumyuumyy
ArtistUnicode:yumyumyuumyy
Creator:[Toy]
Version:Dittochan is insane
Source:
Tags:
BeatmapID:705521
BeatmapSetID:316625

[Difficulty]
HPDrainRate:6
CircleSize:4
OverallDifficulty:6
ApproachRate:9
SliderMultiplier:1.4
SliderTickRate:1

[Events]
//Background and Video events
0,0,"patrick.jpg",0,0
//Break Periods
//Storyboard Layer 0 (Background)
//Storyboard Layer 1 (Fail)
//Storyboard Layer 2 (Pass)
//Storyboard Layer 3 (Foreground)
//Storyboard Sound Samples

[TimingPoints]
1440,297.029702970297,4,3,0,54,1,0

[HitObjects]
167,84,251,6,0,P|127:128|135:184,1,105
169,231,548,1,0,0:0:0:0:
347,303,845,1,0,0:0:0:0:
439,119,1142,2,0,P|371:51|347:63,1,140
268,98,1588,5,0,0:0:0:0:
269,177,1737,1,0,0:0:0:0:
197,176,1885,1,0,0:0:0:0:
124,174,2034,1,0,0:0:0:0:
123,254,2182,1,0,0:0:0:0:
199,254,2331,5,0,0:0:0:0:
274,255,2479,1,0,0:0:0:0:
345,256,2628,1,0,0:0:0:0:
418,252,2776,1,0,0:0:0:0:
413,183,2925,1,0,0:0:0:0:
409,103,3073,1,0,0:0:0:0:
410,23,3222,1,0,0:0:0:0:
329,28,3370,1,0,0:0:0:0:
332,101,3519,1,0,0:0:0:0:
334,179,3667,5,0,0:0:0:0:
263,181,3816,1,0,0:0:0:0:
265,251,3964,1,0,0:0:0:0:
188,248,4113,1,0,0:0:0:0:
114,247,4261,1,0,0:0:0:0:
43,250,4410,5,0,0:0:0:0:
45,175,4558,1,0,0:0:0:0:
41,99,4707,5,0,0:0:0:0:
120,97,4855,1,0,0:0:0:0:
124,168,5004,1,0,0:0:0:0:
200,176,5152,1,0,0:0:0:0:
197,95,5301,1,0,0:0:0:0:
265,183,5450,6,0,L|219:229,1,35
342,80,5598,2,0,L|400:67,1,35
329,203,5747,2,0,L|339:261,1,35
272,90,5895,2,0,L|269:31,1,35
351,148,6044,2,0,L|408:150,1,35
261,141,6192,2,0,L|217:133,1,35
194,57,6340,5,0,0:0:0:0:
193,80,6415,1,0,0:0:0:0:
191,103,6489,1,0,0:0:0:0:
190,126,6563,1,0,0:0:0:0:
190,146,6638,1,0,0:0:0:0:
188,168,6712,1,0,0:0:0:0:
188,185,6786,1,0,0:0:0:0:
190,207,6860,5,0,0:0:0:0:
190,223,6934,1,0,0:0:0:0:
189,240,7008,1,0,0:0:0:0:
194,256,7082,1,0,0:0:0:0:
189,272,7157,1,0,0:0:0:0:
184,296,7231,1,0,0:0:0:0:
187,310,7305,1,0,0:0:0:0:
225,324,7380,6,0,L|271:309,8,35
290,301,8048,6,0,L|334:258,7,35
327,262,8642,6,0,L|300:203,7,35
315,218,9237,6,0,L|272:193,7,35
284,200,9831,6,0,L|243:194,7,35
326,100,10499,1,0,0:0:0:0:
412,102,10647,2,0,P|437:144|445:185,1,70
430,266,10944,5,0,0:0:0:0:
332,201,11093,1,0,0:0:0:0:
341,280,11241,2,0,P|307:308|260:286,1,70
138,242,11539,1,0,0:0:0:0:
103,212,11613,1,0,0:0:0:0:
87,184,11687,1,0,0:0:0:0:
100,147,11761,1,0,0:0:0:0:
160,69,11836,2,0,P|213:72|230:99,1,70
245,189,12133,5,0,0:0:0:0:
289,262,12281,2,0,P|317:279|336:259,1,35
342,279,12430,1,0,0:0:0:0:
381,103,12727,1,0,0:0:0:0:
242,56,13024,1,0,0:0:0:0:
169,121,13172,2,0,P|169:164|191:181,1,70
211,198,13395,2,0,P|263:198|278:226,1,70
279,227,13618,2,0,P|301:268|280:300,1,70
217,347,13915,1,0,0:0:0:0:
92,199,14063,5,0,0:0:0:0:
306,133,14138,1,0,0:0:0:0:
343,154,14212,1,0,0:0:0:0:
339,188,14286,1,0,0:0:0:0:
367,199,14360,1,0,0:0:0:0:
363,224,14435,1,0,0:0:0:0:
383,229,14509,1,0,0:0:0:0:
387,316,14583,6,0,L|347:353,6,35
256,284,15103,1,0,0:0:0:0:
193,210,15177,2,0,P|184:181|210:158,1,35
244,124,15326,1,0,0:0:0:0:
433,71,15548,1,0,0:0:0:0:
426,168,15697,2,0,P|416:182|391:215,1,35
430,266,15994,5,0,0:0:0:0:
332,201,16143,1,0,0:0:0:0:
341,280,16291,2,0,P|307:308|260:286,1,70
143,252,16589,1,0,0:0:0:0:
106,224,16662,1,0,0:0:0:0:
87,184,16737,1,0,0:0:0:0:
100,147,16811,1,0,0:0:0:0:
160,69,16886,2,0,P|213:72|230:99,1,70
245,189,17182,5,0,0:0:0:0:
289,262,17330,2,0,P|317:279|336:259,1,35
342,279,17479,1,0,0:0:0:0:
381,103,17776,1,0,0:0:0:0:
242,56,18073,1,0,0:0:0:0:
150,97,18222,1,0,0:0:0:0:
116,183,18370,2,0,P|115:226|159:248,1,70
243,286,18667,5,0,0:0:0:0:
296,195,18816,2,0,P|345:149|370:146,1,70
443,155,19113,1,0,0:0:0:0:
434,268,19261,2,0,L|388:282,4,35
335,329,19707,1,0,0:0:0:0:
242,312,19855,2,0,L|210:282,3,35
189,262,20152,1,0,0:0:0:0:
318,115,20449,5,0,0:0:0:0:
238,109,20598,2,0,P|186:137|184:155,1,70
153,266,21043,2,0,P|178:307|227:316,1,70
290,295,21340,1,0,0:0:0:0:
430,266,21637,5,0,0:0:0:0:
332,201,21786,1,0,0:0:0:0:
341,280,21934,2,0,P|307:308|260:286,1,70
138,242,22232,1,0,0:0:0:0:
103,212,22306,1,0,0:0:0:0:
87,184,22380,1,0,0:0:0:0:
100,147,22454,1,0,0:0:0:0:
160,69,22529,2,0,P|213:72|230:99,1,70
245,189,22826,5,0,0:0:0:0:
289,262,22974,2,0,P|317:279|336:259,1,35
342,279,23123,1,0,0:0:0:0:
256,192,23271,12,0,24478,0:0:0:0:
