osu file format v12

[General]
AudioFilename: Natsukage.mp3
AudioLeadIn: 0
PreviewTime: 118782
Countdown: 0
SampleSet: Soft
StackLeniency: 0.7
Mode: 0
LetterboxInBreaks: 0
WidescreenStoryboard: 0

[Editor]
DistanceSpacing: 1
BeatDivisor: 4
GridSize: 4

[Metadata]
Title:Natsukage ~Ano Hikoukigumo wo Koeta, Sono Saki e~
TitleUnicode:夏影 ~あの飛行機雲を超えた、その先へ~
Artist:yukizakurasou
ArtistUnicode:雪桜草
Creator:Gloria Guard
Version:Natsukage
Source:Air
Tags:Yuki maeda jun Kyoto Animation 京都アニメーション Key
BeatmapID:256962
BeatmapSetID:95746

[Difficulty]
HPDrainRate:6
CircleSize:4
OverallDifficulty:7
ApproachRate:7
SliderMultiplier:2.6
SliderTickRate:1

[Events]
//Background and Video events
0,0,"bg.jpeg",0,0
//Break Periods
//Storyboard Layer 0 (Background)
//Storyboard Layer 1 (Fail)
//Storyboard Layer 2 (Pass)
//Storyboard Layer 3 (Foreground)
//Storyboard Sound Samples
//Background Colour Transformations
3,100,163,162,255

[TimingPoints]
3395,845.070422535211,4,2,1,50,1,0
3395,-133.333333333333,4,2,2,50,0,0
22836,854.092526690391,4,2,1,50,1,0
22836,-133.333333333333,4,2,2,50,0,0
25398,882.352941176471,4,2,2,50,1,0
27162,909.090909090909,4,2,1,50,1,0
28071,923.076923076923,4,2,1,50,1,0
28994,937.5,4,2,1,50,1,0
29462,869.565217391304,4,2,1,50,1,0
30756,789.473684210526,4,2,1,50,1,0
81282,-100,4,2,1,50,0,0
86413,-100,4,2,2,50,0,0
87203,-100,4,2,1,50,0,0
87598,-100,4,2,2,50,0,0
87795,-100,4,2,1,50,0,0
99834,-100,4,2,2,50,0,0
100427,-100,4,2,1,50,0,0
115821,-100,4,2,1,5,0,0
116019,-100,4,2,2,50,0,0
119177,-100,4,2,2,80,0,1
141282,-100,4,2,2,50,0,1
141479,-100,4,2,2,80,0,1
142861,-100,4,2,2,50,0,0
144440,-100,4,2,2,80,0,1
166545,-100,4,2,2,50,0,1
168124,-100,4,2,2,70,0,0
169703,-133.333333333333,4,2,2,50,0,0
174045,-133.333333333333,4,2,1,50,0,0
174440,-133.333333333333,4,2,2,50,0,0
175427,-133.333333333333,4,2,1,50,0,0
176808,-133.333333333333,4,2,2,50,0,0
177992,-133.333333333333,4,2,1,50,0,0
178387,-133.333333333333,4,2,2,50,0,0
178584,-133.333333333333,4,2,1,50,0,0
179966,-133.333333333333,4,2,2,50,0,0
180361,-133.333333333333,4,2,1,50,0,0
180755,-133.333333333333,4,2,2,50,0,0
181742,-133.333333333333,4,2,1,50,0,0
183124,-133.333333333333,4,2,2,50,0,0
184308,-133.333333333333,4,2,1,50,0,0
184703,-133.333333333333,4,2,2,50,0,0
184900,-133.333333333333,4,2,1,50,0,0
186282,-133.333333333333,4,2,2,50,0,0
186677,-133.333333333333,4,2,1,50,0,0
187071,-133.333333333333,4,2,2,50,0,0
188058,-133.333333333333,4,2,1,50,0,0
189440,-133.333333333333,4,2,2,50,0,0
189834,-133.333333333333,4,2,1,50,0,0
190229,-133.333333333333,4,2,2,50,0,0
191413,-133.333333333333,4,2,1,50,0,0
191808,-133.333333333333,4,2,2,50,0,0
192992,-133.333333333333,4,2,1,50,0,0
193387,-133.333333333333,4,2,2,50,0,0
194177,-133.333333333333,4,2,1,60,0,0
194966,-100,4,2,2,70,0,0
195163,-100,4,2,1,60,0,0
195755,-100,4,2,2,60,0,0
196940,-100,4,2,1,60,0,0
197334,-100,4,2,2,60,0,0
197532,-100,4,2,1,60,0,0
198913,-100,4,2,2,60,0,0
199308,-100,4,2,1,60,0,0
199703,-100,4,2,2,60,0,0
200887,-100,4,2,1,60,0,0
202071,-100,4,2,2,60,0,0
203255,-100,4,2,1,60,0,0
203650,-100,4,2,2,60,0,0
205624,-100,4,2,1,60,0,0
206019,-100,4,2,2,60,0,0
207005,-100,4,2,1,60,0,0
207598,-100,4,2,2,60,0,0
209571,-100,4,2,1,60,0,0
209966,-100,4,2,2,60,0,0
210163,-100,4,2,1,60,0,0
211545,-100,4,2,2,60,0,0
211940,-100,4,2,1,60,0,0
213913,-100,4,2,2,60,0,0
216677,-100,4,2,1,60,0,0
217071,-100,4,2,2,60,0,0
218255,-100,4,2,1,60,0,0
218650,-100,4,2,2,70,0,0
220427,-100,4,2,1,70,0,0
232466,-100,4,2,2,70,0,0
233058,-100,4,2,1,70,0,0
245492,-100,4,2,2,70,0,0
251413,-100,4,2,2,50,0,0
251808,-100,4,2,2,80,0,1
273913,-100,4,2,2,50,0,1
274111,-100,4,2,2,80,0,1
275492,-100,4,2,2,50,0,0
277071,-100,4,2,2,80,0,1
296818,810.810810810811,4,2,2,50,1,1
297628,833.333333333333,4,2,2,50,1,1
298461,857.142857142857,4,2,2,50,1,1
299318,-100,4,2,1,50,0,0
300175,895.522388059701,4,2,2,50,1,0
303757,902.255639097744,4,2,1,5,1,0
306465,845.129938728079,4,2,1,50,1,0
306465,-133.333333333333,4,2,2,25,0,0
331818,-200,4,2,2,20,0,0
333509,-133.333333333333,4,2,2,25,0,0
357172,-200,4,2,2,20,0,0
363933,-200,4,2,2,5,0,0

[Colours]
Combo1 : 208,147,147
Combo2 : 102,112,196
Combo3 : 151,196,177

[HitObjects]
464,160,3395,2,0,B|404:176|404:176|380:148|320:148|320:80,1,195.00000743866,2|2,0:0|0:0,0:0:0:0:
280,52,4451,1,0,0:0:0:0:
236,32,4662,1,2,0:0:0:0:
140,36,5085,2,0,P|80:120|104:216,1,195.00000743866,2|2,0:0|0:0,0:0:0:0:
240,176,6564,1,2,0:0:0:0:
240,176,6775,6,0,L|352:168,1,97.50000371933,2|0,0:0|0:0,0:0:0:0:
436,60,7620,2,0,P|428:132|472:200,1,146.250005578995,2|2,0:0|0:0,0:0:0:0:
492,236,8465,2,0,P|476:328|376:368,1,195.00000743866,2|2,0:0|0:0,0:0:0:0:
256,232,10155,5,2,0:0:0:0:
64,272,11000,2,0,L|64:320,2,48.750001859665,2|0|2,0:0|0:0|0:0,0:0:0:0:
32,180,11845,2,0,P|132:180|192:108,1,195.00000743866,2|2,0:0|0:0,0:0:0:0:
316,36,13324,1,2,0:0:0:0:
316,36,13535,6,0,L|368:124,1,97.50000371933,2|0,0:0|0:0,0:0:0:0:
272,144,14380,1,2,0:0:0:0:
272,144,14592,2,0,P|232:196|232:280,1,146.250005578995,2|2,0:0|0:0,0:0:0:0:
412,344,16071,2,0,L|472:332,1,48.750001859665,2|2,0:0|0:0,0:0:0:0:
488,192,16916,6,0,P|392:180|304:224,1,195.00000743866,2|2,0:0|0:0,0:0:0:0:
276,260,17972,1,0,0:0:0:0:
264,308,18183,1,2,0:0:0:0:
172,344,18606,2,0,P|72:344|16:276,1,195.00000743866,2|2,0:0|0:0,0:0:0:0:
15,275,19662,1,2,0:0:0:0:
64,48,20296,6,0,P|136:96|136:196,1,195.00000743866,2|2,0:0|0:0,0:0:0:0:
120,244,21352,1,0,0:0:0:0:
140,288,21564,1,2,0:0:0:0:
256,196,21986,2,0,P|352:172|448:196,1,195.00000743866,2|2,0:0|0:0,0:0:0:0:
443,193,23049,1,2,0:0:0:0:
244,52,23690,6,0,L|192:136,1,97.50000371933,2|0,0:0|0:0,0:0:0:0:
112,192,24544,1,2,0:0:0:0:
112,192,24757,2,0,P|100:264|140:336,1,146.250005578995,2|2,0:0|0:0,0:0:0:0:
256,100,26280,2,0,L|256:32,2,65,2|0|2,0:0|0:0|0:0,0:0:0:0:
256,192,27162,12,2,30331,0:0:0:0:
408,80,30756,6,0,L|480:80,2,65,2|0|0,0:0|0:0|0:0,0:0:0:0:
256,40,31545,1,0,0:0:0:0:
256,40,31742,2,0,P|192:40|140:76,1,130
128,128,32334,1,0,0:0:0:0:
176,220,32729,1,2,0:0:0:0:
132,316,33124,1,0,0:0:0:0:
132,316,33321,2,0,P|64:332|8:316,1,130,2|0,0:0|0:0,0:0:0:0:
176,220,33913,6,0,P|220:276|232:356,1,130,2|0,0:0|0:0,0:0:0:0:
336,344,34703,2,0,L|404:336,1,65
476,224,35098,2,0,L|412:232,1,65,2|0,0:0|0:0,0:0:0:0:
320,180,35492,2,0,P|313:115|337:56,1,130,0|2,0:0|0:0,0:0:0:0:
156,52,36282,1,0,0:0:0:0:
56,20,36479,1,2,0:0:0:0:
80,120,36677,2,0,L|80:188,1,65,2|0,0:0|0:0,0:0:0:0:
181,289,37071,6,0,P|196:228|180:164,1,130,0|0,0:0|0:0,0:0:0:0:
112,360,37861,1,0,0:0:0:0:
112,360,38058,2,0,P|176:384|248:364,1,130
373,194,38650,2,0,P|324:228|300:292,1,130,0|2,0:0|0:0,0:0:0:0:
456,332,39440,2,0,L|404:292,1,65
373,194,39834,1,0,0:0:0:0:
404,292,40032,1,0,0:0:0:0:
476,204,40229,6,0,P|464:136|416:96,1,130,2|0,0:0|0:0,0:0:0:0:
332,40,41019,1,0,0:0:0:0:
256,112,41216,1,0,0:0:0:0:
332,40,41413,2,0,L|412:40,1,65,2|0,0:0|0:0,0:0:0:0:
256,112,41808,2,0,P|244:176|192:216,1,130
212,24,42598,1,2,0:0:0:0:
164,116,42795,1,0,0:0:0:0:
68,84,42992,2,0,L|0:84,1,65
212,24,43387,6,0,P|264:76|276:136,1,130,2|0,0:0|0:0,0:0:0:0:
352,268,44177,1,0,0:0:0:0:
352,268,44374,2,0,P|416:268|472:232,1,130
348,48,44966,2,0,L|388:172,1,130,0|2,0:0|0:0,0:0:0:0:
284,184,45755,2,0,L|216:204,1,65,0|2,0:0|0:0,0:0:0:0:
348,48,46150,2,0,L|410:29,1,65
256,28,46545,6,0,P|272:96|328:132,1,130,2|0,0:0|0:0,0:0:0:0:
256,316,47334,1,0,0:0:0:0:
320,232,47532,1,0,0:0:0:0:
160,276,47729,2,0,P|124:276|96:288,1,65,2|2,0:0|0:0,0:0:0:0:
28,212,48124,2,0,L|56:84,1,130
204,32,48913,1,0,0:0:0:0:
164,128,49111,1,2,0:0:0:0:
308,68,49308,2,0,P|344:68|380:56,1,65
472,36,49703,6,0,P|456:100|480:172,1,130,2|0,0:0|0:0,0:0:0:0:
444,260,50492,1,0,0:0:0:0:
444,260,50690,2,0,L|320:304,1,130
272,320,51282,1,0,0:0:0:0:
136,244,51677,1,0,0:0:0:0:
243,31,52071,1,0,0:0:0:0:
244,32,52269,2,0,P|268:92|264:156,1,130
172,108,52861,6,0,P|108:120|36:104,1,130
348,36,53650,1,0,0:0:0:0:
348,36,53848,2,0,P|396:80|424:156,1,130
492,216,54440,2,0,P|448:272|392:296,1,130
132,320,55229,1,2,0:0:0:0:
204,228,55427,1,0,0:0:0:0:
292,300,55624,1,2,0:0:0:0:
40,120,56019,6,0,P|92:160|104:232,1,130,4|0,0:0|0:0,0:0:0:0:
240,300,56808,1,0,1:0:0:0:
300,100,57203,2,0,L|376:92,2,65,0|2|2,0:0|0:0|0:0,0:0:0:0:
440,28,57992,1,0,0:0:0:0:
440,28,58190,2,0,L|448:96,1,65,0|0,0:0|1:0,0:0:0:0:
464,248,58782,2,0,L|472:316,1,65,0|2,0:0|0:0,0:0:0:0:
368,336,59177,6,0,P|304:324|224:332,1,130,2|0,0:0|0:0,0:0:0:0:
164,256,59769,2,0,L|99:245,2,65,0|0|0,0:0|1:0|0:0,0:0:0:0:
260,220,60361,2,0,P|312:176|376:176,2,130,0|2|0,0:0|0:0|0:0,0:0:0:0:
308,36,61545,1,0,0:0:0:0:
256,24,61742,1,0,0:0:0:0:
204,24,61940,1,0,0:0:0:0:
156,40,62137,6,0,P|128:104|128:172,1,130,2|0,0:0|0:0,0:0:0:0:
144,212,62729,1,0,0:0:0:0:
300,236,63124,2,0,P|364:216|432:224,1,130,0|0,1:0|0:0,0:0:0:0:
468,252,63716,2,0,L|496:316,1,65,2|2,0:0|0:0,0:0:0:0:
472,132,64308,1,0,0:0:0:0:
472,132,64505,2,0,P|472:68|444:4,1,130
396,8,65098,2,0,L|328:24,1,65
176,16,65492,6,0,P|152:76|172:152,1,130,2|0,0:0|0:0,0:0:0:0:
264,164,66084,2,0,L|332:172,2,65,0|0|0,0:0|1:0|0:0,0:0:0:0:
304,68,66677,1,0,0:0:0:0:
164,140,66874,2,0,P|136:204|140:272,1,130,2|0,0:0|0:0,0:0:0:0:
204,340,67466,2,0,L|268:364,1,65
376,256,67861,2,0,L|360:320,1,65,0|0,0:0|0:0,0:0:0:0:
308,176,68255,2,0,L|247:153,1,65,0|2,0:0|0:0,0:0:0:0:
412,160,68650,6,0,P|452:104|452:44,1,130,2|0,0:0|0:0,0:0:0:0:
256,32,69440,1,0,1:0:0:0:
256,228,69834,1,0,0:0:0:0:
220,264,70032,1,2,0:0:0:0:
168,268,70229,2,0,P|100:260|52:220,1,130,2|0,0:0|0:0,0:0:0:0:
124,40,71019,1,0,1:0:0:0:
292,108,71413,2,0,L|304:184,1,65,0|2,0:0|0:0,0:0:0:0:
336,20,71808,6,0,P|256:20|208:52,1,130,2|0,0:0|0:0,0:0:0:0:
416,92,72400,2,0,P|432:56|436:16,2,65,0|0|0,0:0|1:0|0:0,0:0:0:0:
324,140,72992,1,0,0:0:0:0:
220,152,73190,2,0,P|220:220|260:280,1,130,2|0,0:0|0:0,0:0:0:0:
413,271,73782,2,0,L|352:292,1,65
284,364,74177,1,0,0:0:0:0:
184,336,74374,2,0,L|112:356,2,65,0|0|2,0:0|0:0|0:0,0:0:0:0:
144,240,74966,6,0,P|96:192|76:132,1,130,2|0,0:0|0:0,0:0:0:0:
180,16,75755,1,0,1:0:0:0:
296,124,76150,2,0,L|288:192,1,65,0|2,0:0|0:0,0:0:0:0:
276,292,76545,2,0,P|328:336|408:340,1,130,2|0,0:0|0:0,0:0:0:0:
387,344,77137,1,0,0:0:0:0:
387,344,77334,1,0,1:0:0:0:
372,192,77729,2,0,P|336:168|308:160,1,65,0|2,0:0|0:0,0:0:0:0:
256,76,78124,6,0,P|220:136|148:172,1,130,2|0,0:0|0:0,0:0:0:0:
44,18,78716,2,0,P|104:20|156:64,1,130
68,116,79308,1,0,0:0:0:0:
44,18,79505,1,2,0:0:0:0:
0,196,79703,2,0,L|24:268,1,65,2|0,0:0|0:0,0:0:0:0:
104,304,80098,2,0,P|172:284|236:288,1,130
328,164,80887,2,0,L|352:100,1,65,0|2,0:0|0:0,0:0:0:0:
228,200,81282,6,0,P|280:256|340:272,1,130,2|0,0:0|0:0,0:0:0:0:
464,192,82071,1,0,1:0:0:0:
408,48,82466,1,0,0:0:0:0:
372,88,82663,1,2,0:0:0:0:
320,100,82861,2,0,P|256:100|200:68,1,130,2|0,0:0|0:0,0:0:0:0:
48,32,83650,1,0,1:0:0:0:
32,188,84045,1,0,0:0:0:0:
80,168,84242,1,2,0:0:0:0:
132,168,84440,6,0,P|192:192|228:248,1,130,2|0,0:0|0:0,0:0:0:0:
348,344,85229,2,0,L|420:316,1,65,0|0,1:0|0:0,0:0:0:0:
468,171,85624,2,0,L|468:236,1,65,0|2,0:0|0:0,0:0:0:0:
264,280,86019,2,0,L|336:252,1,65,0|2,0:0|0:0,0:0:0:0:
380,112,86413,2,0,L|380:164,3,43.3333333333333,0|2|0|2,0:0|0:0|0:0|0:0,0:0:0:0:
256,60,87203,1,0,0:0:0:0:
216,92,87400,1,2,0:0:0:0:
164,92,87598,6,0,L|100:76,2,65,4|0|0,0:0|0:0|0:0,0:0:0:0:
256,216,88387,2,0,L|256:284,2,65,0|0|0,1:0|0:0|0:0,0:0:0:0:
128,304,89177,1,0,0:0:0:0:
76,304,89374,1,0,0:0:0:0:
32,280,89571,1,2,0:0:0:0:
16,232,89769,1,0,0:0:0:0:
28,180,89966,1,0,1:0:0:0:
141,37,90361,2,0,L|160:100,1,65,0|2,0:0|0:0,0:0:0:0:
252,56,90755,6,0,P|312:44|380:72,1,130,2|0,0:0|0:0,0:0:0:0:
383,251,91348,1,0,0:0:0:0:
276,176,91545,2,0,L|272:240,1,65,0|0,1:0|0:0,0:0:0:0:
428,160,91940,2,0,L|488:128,1,65
328,336,92334,2,0,P|260:344|188:320,1,130
120,192,93124,1,0,1:0:0:0:
204,60,93519,2,0,L|276:48,1,65
120,192,93913,6,0,L|52:180,2,65,2|0|0,0:0|0:0|0:0,0:0:0:0:
276,196,94703,2,0,L|292:264,2,65,0|0|0,1:0|0:0|0:0,0:0:0:0:
440,164,95492,1,2,0:0:0:0:
484,136,95690,1,0,0:0:0:0:
500,88,95887,1,2,0:0:0:0:
484,36,96084,1,0,0:0:0:0:
436,12,96282,1,0,1:0:0:0:
303,95,96677,2,0,L|368:92,1,65,0|2,0:0|0:0,0:0:0:0:
220,40,97071,6,0,P|208:108|232:168,1,130,2|0,0:0|0:0,0:0:0:0:
304,96,97663,1,0,0:0:0:0:
108,28,97861,2,0,L|48:56,1,65,0|0,1:0|0:0,0:0:0:0:
124,128,98255,1,0,0:0:0:0:
124,128,98650,2,0,P|124:196|88:244,1,130,2|0,0:0|0:0,0:0:0:0:
24,160,99242,1,0,0:0:0:0:
44,316,99440,2,0,P|100:336|172:332,1,130,0|0,1:0|0:0,0:0:0:0:
220,316,100032,1,2,0:0:0:0:
256,280,100229,6,0,L|256:216,2,65,6|0|0,0:0|0:0|0:0,0:0:0:0:
352,96,101019,2,0,L|288:76,2,65,0|0|0,1:0|0:0|0:0,0:0:0:0:
488,24,101808,1,2,0:0:0:0:
448,56,102005,1,0,0:0:0:0:
432,104,102203,1,2,0:0:0:0:
436,156,102400,1,0,0:0:0:0:
464,200,102598,1,0,1:0:0:0:
444,356,102992,1,0,0:0:0:0:
404,324,103190,1,2,0:0:0:0:
352,316,103387,6,0,P|284:316|228:344,1,130,2|0,0:0|0:0,0:0:0:0:
124,352,103979,1,0,0:0:0:0:
124,352,104177,2,0,P|92:296|80:232,1,130,0|0,1:0|0:0,0:0:0:0:
80,76,104966,2,0,L|16:64,1,65,2|0,0:0|0:0,0:0:0:0:
148,144,105361,2,0,L|176:204,1,65
176,48,105755,2,0,L|224:4,1,65,0|0,1:0|0:0,0:0:0:0:
308,64,106150,1,0,0:0:0:0:
356,84,106348,1,0,0:0:0:0:
408,76,106545,6,0,L|440:140,1,65,2|0,0:0|0:0,0:0:0:0:
444,236,106940,1,0,0:0:0:0:
328,132,107137,2,0,L|316:196,1,65,0|0,0:0|1:0,0:0:0:0:
140,36,107729,1,2,0:0:0:0:
88,36,107927,1,0,0:0:0:0:
40,52,108124,2,0,L|40:128,1,65,2|0,0:0|0:0,0:0:0:0:
40,220,108519,1,2,0:0:0:0:
116,148,108716,2,0,L|116:216,1,65,0|0,0:0|1:0,0:0:0:0:
216,332,109308,2,0,L|280:320,1,65
352,244,109703,6,0,L|288:224,1,65,2|0,0:0|0:0,0:0:0:0:
400,336,110098,2,0,P|444:288|452:224,1,130,2|0,0:0|1:0,0:0:0:0:
468,72,110887,1,0,0:0:0:0:
420,92,111084,1,2,0:0:0:0:
368,88,111282,2,0,P|304:88|232:52,1,130,2|0,0:0|0:0,0:0:0:0:
104,200,112071,2,0,P|168:200|240:236,1,130,0|0,1:0|0:0,0:0:0:0:
256,192,112861,12,0,115821,0:0:0:0:
256,192,116019,5,4,0:0:0:0:
256,192,116117,12,4,118387,0:0:0:0:
204,76,118782,6,0,L|136:60,1,65,0|0,0:0|0:0,0:0:0:0:
204,204,119177,6,0,P|264:224|344:212,1,130,4|2,0:0|0:0,0:0:0:0:
406,69,119769,2,0,L|388:132,1,65,0|0,0:0|1:0,0:0:0:0:
484,88,120163,1,0,0:0:0:0:
340,28,120361,1,2,0:0:0:0:
244,64,120558,2,0,P|184:96|120:100,1,130,2|0,0:0|0:0,0:0:0:0:
24,68,121150,2,0,L|8:4,1,65,2|0,0:0|0:0,0:0:0:0:
0,160,121545,2,0,L|16:224,1,65,0|0,1:0|0:0,0:0:0:0:
108,268,121940,1,2,0:0:0:0:
40,348,122137,1,0,0:0:0:0:
188,296,122334,6,0,P|256:280|328:292,1,130,0|2,0:0|0:0,0:0:0:0:
455,205,122927,2,0,L|428:264,2,65,0|0|0,0:0|1:0|0:0,0:0:0:0:
484,104,123519,1,2,0:0:0:0:
456,204,123716,1,2,0:0:0:0:
380,68,123913,2,0,L|308:60,1,65
216,88,124308,1,2,0:0:0:0:
108,56,124505,1,0,0:0:0:0:
132,156,124703,2,0,L|132:228,1,65,0|0,1:0|0:0,0:0:0:0:
108,56,125098,2,0,L|32:40,1,65,2|0,0:0|0:0,0:0:0:0:
200,28,125492,6,0,P|264:44|340:32,1,130,0|2,0:0|0:0,0:0:0:0:
476,160,126084,2,0,L|400:176,2,65,0|0|0,0:0|1:0|0:0,0:0:0:0:
464,264,126677,1,2,0:0:0:0:
332,184,126874,1,2,0:0:0:0:
268,328,127071,2,0,L|240:269,1,65
116,184,127466,2,0,L|104:248,1,65,2|0,0:0|0:0,0:0:0:0:
180,120,127861,2,0,L|248:120,1,65,0|0,1:0|0:0,0:0:0:0:
92,100,128255,2,0,L|48:44,1,65,2|0,0:0|0:0,0:0:0:0:
196,200,128650,6,0,P|212:264|256:308,1,130,0|2,0:0|0:0,0:0:0:0:
384,176,129242,2,0,L|312:192,2,65,0|0|0,0:0|1:0|0:0,0:0:0:0:
376,280,129834,1,2,0:0:0:0:
492,176,130032,2,0,L|492:112,1,65,2|0,0:0|0:0,0:0:0:0:
492,111,130427,1,0,0:0:0:0:
492,111,130624,1,2,0:0:0:0:
356,36,131019,1,0,1:0:0:0:
356,36,131216,2,0,P|296:52|224:36,1,130,2|2,0:0|0:0,0:0:0:0:
100,36,131808,6,0,P|68:92|64:160,1,130,6|2,0:0|0:0,0:0:0:0:
212,192,132598,1,0,1:0:0:0:
212,192,132795,2,0,P|272:152|288:92,1,130,2|2,0:0|0:0,0:0:0:0:
384,64,133387,2,0,P|412:116|476:144,1,130,0|2,0:0|0:0,0:0:0:0:
456,244,133979,2,0,L|448:312,1,65,0|0,0:0|1:0,0:0:0:0:
356,356,134374,1,0,0:0:0:0:
197,305,134571,2,0,L|260:324,1,65,2|2,0:0|0:0,0:0:0:0:
212,204,134966,6,0,P|160:164|97:162,1,130,0|2,0:0|0:0,0:0:0:0:
12,144,135558,2,0,L|40:80,1,65,0|0,0:0|1:0,0:0:0:0:
80,288,135953,2,0,L|24:324,1,65,0|2,0:0|0:0,0:0:0:0:
108,192,136348,2,0,P|160:232|176:296,1,130,2|0,0:0|0:0,0:0:0:0:
268,344,136940,1,2,0:0:0:0:
312,248,137137,1,0,0:0:0:0:
200,72,137334,1,0,1:0:0:0:
252,156,137532,2,0,L|392:136,1,130,2|2,0:0|0:0,0:0:0:0:
420,40,138124,6,0,P|420:104|456:160,1,130,0|2,0:0|0:0,0:0:0:0:
320,16,138913,1,0,1:0:0:0:
320,16,139111,2,0,P|256:28|192:16,1,130,2|2,0:0|0:0,0:0:0:0:
92,44,139703,2,0,P|92:108|56:164,1,130,0|2,0:0|0:0,0:0:0:0:
112,300,140492,1,0,1:0:0:0:
112,300,140690,2,0,P|176:280|248:284,1,130,2|2,0:0|0:0,0:0:0:0:
340,304,141282,6,0,L|352:240,1,65,6|0,0:0|0:0,0:0:0:0:
456,252,141677,2,0,L|468:188,1,65,2|0,0:0|0:0,0:0:0:0:
360,76,142071,2,0,L|316:132,1,65,0|0,1:0|0:0,0:0:0:0:
228,76,142466,2,0,L|184:132,1,65,2|2,3:0|3:0,0:0:0:0:
156,168,142861,1,2,0:0:0:0:
136,216,143058,1,2,0:0:0:0:
132,268,143255,1,2,0:0:0:0:
148,316,143453,1,2,0:0:0:0:
188,348,143650,1,2,3:0:0:0:
240,356,143848,1,2,3:0:0:0:
292,356,144045,2,0,L|360:344,1,65
472,240,144440,6,0,P|408:256|344:240,1,130,4|2,0:0|0:0,0:0:0:0:
216,241,145032,2,0,L|216:176,1,65,0|0,0:0|1:0,0:0:0:0:
408,95,145427,2,0,L|408:160,1,65,0|2,0:0|0:0,0:0:0:0:
280,100,145821,2,0,P|212:116|148:100,1,130,2|0,0:0|0:0,0:0:0:0:
52,124,146413,1,2,0:0:0:0:
84,24,146611,1,0,0:0:0:0:
52,124,146808,2,0,P|72:200|72:272,1,130,0|2,1:0|0:0,0:0:0:0:
124,344,147400,1,0,0:0:0:0:
208,284,147598,6,0,P|276:276|336:284,1,130,2|2,0:0|0:0,0:0:0:0:
432,248,148190,2,0,L|456:184,1,65,0|0,0:0|1:0,0:0:0:0:
396,100,148584,2,0,L|372:164,1,65,0|2,0:0|0:0,0:0:0:0:
484,52,148979,2,0,P|428:12|360:8,1,130,2|0,0:0|0:0,0:0:0:0:
368,6,149571,1,2,0:0:0:0:
256,116,149966,1,0,1:0:0:0:
256,168,150163,1,0,0:0:0:0:
236,216,150361,1,2,0:0:0:0:
196,248,150558,1,0,0:0:0:0:
144,256,150755,6,0,P|72:248|32:204,1,130,0|2,0:0|0:0,0:0:0:0:
146,95,151348,2,0,L|124:156,2,65,0|0|0,0:0|1:0|0:0,0:0:0:0:
52,52,151940,1,2,0:0:0:0:
208,28,152137,2,0,P|272:44|344:40,1,130,2|0,0:0|0:0,0:0:0:0:
440,60,152729,2,0,L|460:132,1,65,2|0,0:0|0:0,0:0:0:0:
457,122,153124,1,0,1:0:0:0:
364,276,153519,2,0,L|372:344,1,65,2|0,0:0|0:0,0:0:0:0:
420,192,153913,6,0,P|344:208|292:200,1,130,0|2,0:0|0:0,0:0:0:0:
344,108,154505,2,0,L|412:80,1,65,0|0,0:0|1:0,0:0:0:0:
252,44,154900,2,0,L|184:28,1,65,0|2,0:0|0:0,0:0:0:0:
248,172,155295,2,0,P|192:216|176:280,1,130,2|0,0:0|0:0,0:0:0:0:
280,264,155887,1,2,0:0:0:0:
328,116,156084,1,0,0:0:0:0:
180,60,156282,1,0,1:0:0:0:
180,60,156479,2,0,P|120:84|48:84,1,130,2|2,0:0|0:0,0:0:0:0:
32,188,157071,6,0,P|56:248|56:320,1,130,6|2,0:0|0:0,0:0:0:0:
168,204,157861,1,0,1:0:0:0:
168,204,158058,2,0,L|300:176,1,130,2|2,0:0|0:0,0:0:0:0:
456,36,158650,2,0,P|400:40|348:88,1,130,0|2,0:0|0:0,0:0:0:0:
469,194,159242,2,0,L|440:136,1,65,0|0,0:0|1:0,0:0:0:0:
320,236,159834,1,2,0:0:0:0:
272,256,160032,1,0,0:0:0:0:
220,252,160229,6,0,P|172:212|152:148,1,130,0|2,0:0|0:0,0:0:0:0:
240,92,160821,2,0,L|312:72,2,65,0|0|0,0:0|1:0|0:0,0:0:0:0:
324,152,161413,1,2,0:0:0:0:
164,32,161611,2,0,P|104:64|40:68,1,130,2|0,0:0|0:0,0:0:0:0:
16,168,162203,2,0,L|28:236,1,65,2|0,0:0|0:0,0:0:0:0:
128,248,162598,1,0,1:0:0:0:
128,248,162795,2,0,P|192:232|260:248,1,130,2|2,0:0|0:0,0:0:0:0:
336,312,163387,6,0,L|392:192,1,130,0|2,0:0|0:0,0:0:0:0:
352,44,164177,1,0,1:0:0:0:
352,44,164374,2,0,P|292:68|216:60,1,130,2|2,0:0|0:0,0:0:0:0:
152,136,164966,2,0,P|160:204|196:256,1,130,0|2,0:0|0:0,0:0:0:0:
312,152,165755,2,0,L|376:132,1,65,0|0,1:0|0:0,0:0:0:0:
184,56,166150,2,0,L|120:40,1,65,2|2,0:0|0:0,0:0:0:0:
68,40,166545,5,2,0:0:0:0:
28,72,166742,1,2,0:0:0:0:
16,124,166940,1,2,0:0:0:0:
20,176,167137,1,2,0:0:0:0:
52,216,167334,2,0,L|116:236,1,65,0|0,1:0|0:0,0:0:0:0:
244,145,167729,2,0,L|180:156,1,65,2|2,3:0|3:0,0:0:0:0:
256,228,168124,1,6,0:0:0:0:
256,192,168321,12,2,169703,0:0:0:0:
376,40,170492,5,2,0:0:0:0:
376,40,170690,2,0,P|400:80|400:180,1,146.250005578995,2|2,0:0|0:0,0:0:0:0:
208,144,172071,1,2,0:0:0:0:
208,144,172269,2,0,P|144:144|72:104,1,146.250005578995,2|2,0:0|0:0,0:0:0:0:
260,52,173650,6,0,L|300:96,1,48.750001859665,2|2,0:0|0:0,0:0:0:0:
208,144,174045,2,0,L|212:200,1,48.750001859665,2|2,0:0|0:0,0:0:0:0:
160,276,174440,2,0,P|196:312|264:328,1,97.50000371933,2|0,0:0|0:0,0:0:0:0:
292,244,175229,1,2,0:0:0:0:
292,244,175427,2,0,P|348:220|436:232,1,146.250005578995,2|2,0:0|0:0,0:0:0:0:
488,152,176216,2,0,L|504:96,1,48.750001859665,2|0,0:0|0:0,0:0:0:0:
372,36,176808,5,2,0:0:0:0:
372,36,177005,2,0,P|316:64|232:64,1,146.250005578995,2|2,0:0|0:0,0:0:0:0:
140,36,177992,1,2,0:0:0:0:
52,80,178387,1,2,0:0:0:0:
52,80,178584,2,0,L|68:232,1,146.250005578995,2|2,0:0|0:0,0:0:0:0:
144,288,179571,5,0,0:0:0:0:
84,364,179966,2,0,L|20:368,1,48.750001859665,2|2,0:0|0:0,0:0:0:0:
144,288,180361,2,0,L|208:284,1,48.750001859665,2|2,0:0|0:0,0:0:0:0:
280,332,180755,2,0,P|324:304|348:256,1,97.50000371933,2|0,0:0|0:0,0:0:0:0:
356,168,181545,2,0,L|356:112,2,48.750001859665,2|2|0,0:0|0:0|0:0,0:0:0:0:
216,208,182334,5,2,0:0:0:0:
176,236,182532,1,2,0:0:0:0:
128,244,182729,1,0,0:0:0:0:
84,156,183124,1,2,0:0:0:0:
84,156,183321,2,0,P|100:92|64:24,1,146.250005578995,2|2,0:0|0:0,0:0:0:0:
8,104,184308,1,2,0:0:0:0:
192,40,184703,1,2,0:0:0:0:
192,40,184900,2,0,P|260:68|336:64,1,146.250005578995,2|2,0:0|0:0,0:0:0:0:
428,40,185887,5,0,0:0:0:0:
476,124,186282,2,0,L|484:184,1,48.750001859665,2|2,0:0|0:0,0:0:0:0:
392,204,186677,2,0,L|400:264,1,48.750001859665,2|2,0:0|0:0,0:0:0:0:
392,348,187071,2,0,P|340:364|292:364,1,97.50000371933,2|0,0:0|0:0,0:0:0:0:
212,320,187861,2,0,L|160:320,2,48.750001859665,2|2|0,0:0|0:0|0:0,0:0:0:0:
296,200,188650,6,0,P|296:152|272:108,1,97.50000371933,2|0,0:0|0:0,0:0:0:0:
332,32,189440,1,2,0:0:0:0:
372,60,189637,1,2,0:0:0:0:
420,68,189834,2,0,L|468:56,1,48.750001859665,2|2,0:0|0:0,0:0:0:0:
332,32,190229,2,0,L|224:28,1,97.50000371933,2|0,0:0|0:0,0:0:0:0:
136,40,191019,2,0,L|116:84,1,48.750001859665,2|2,0:0|0:0,0:0:0:0:
28,128,191413,2,0,L|36:192,1,48.750001859665,2|2,0:0|0:0,0:0:0:0:
16,272,191808,6,0,P|48:316|100:336,1,97.50000371933,2|0,0:0|0:0,0:0:0:0:
176,300,192598,1,2,0:0:0:0:
224,288,192795,1,2,0:0:0:0:
272,300,192992,2,0,L|308:332,1,48.750001859665,2|2,0:0|0:0,0:0:0:0:
404,336,193387,6,0,P|436:312|460:256,1,97.50000371933,4|0,0:0|0:0,0:0:0:0:
464,212,193979,1,0,0:0:0:0:
460,164,194177,2,0,L|440:120,2,48.750001859665
288,76,194966,6,0,L|272:140,2,65,6|0|0,0:0|0:0|0:0,0:0:0:0:
196,240,195755,1,2,0:0:0:0:
196,240,195953,2,0,P|124:264|68:248,1,130,2|0,0:0|0:0,0:0:0:0:
40,72,196545,2,0,P|96:100|124:160,1,130,2|2,0:0|0:0,0:0:0:0:
123,158,197334,1,0,0:0:0:0:
20,172,197531,1,2,0:0:0:0:
168,24,197729,2,0,L|232:28,1,65
396,32,198124,6,0,P|396:104|440:160,1,130,2|0,0:0|0:0,0:0:0:0:
476,300,198913,2,0,L|452:368,1,65,2|2,0:0|0:0,0:0:0:0:
352,356,199308,1,2,0:0:0:0:
292,272,199505,1,2,0:0:0:0:
216,340,199703,2,0,P|136:328|84:344,1,130,2|0,0:0|0:0,0:0:0:0:
36,196,200492,2,0,L|20:124,1,65,2|2,0:0|0:0,0:0:0:0:
146,51,200887,2,0,L|124:112,1,65,2|0,0:0|0:0,0:0:0:0:
228,92,201282,5,2,0:0:0:0:
228,92,201479,2,0,P|288:128|340:108,1,130,2|0,0:0|0:0,0:0:0:0:
292,56,202071,1,2,0:0:0:0:
292,56,202269,2,0,L|288:200,1,130,2|0,0:0|0:0,0:0:0:0:
236,332,202861,2,0,P|300:316|368:344,1,130,2|2,0:0|0:0,0:0:0:0:
456,216,203650,1,2,0:0:0:0:
456,216,203848,2,0,L|484:84,1,130,2|0,0:0|0:0,0:0:0:0:
396,28,204440,6,0,P|336:56|268:64,1,130,2|0,0:0|0:0,0:0:0:0:
90,108,205229,1,2,0:0:0:0:
184,156,205427,1,2,0:0:0:0:
36,204,205624,2,0,L|12:140,1,65,2|2,0:0|0:0,0:0:0:0:
132,244,206019,2,0,P|132:312|96:368,1,130,2|0,0:0|0:0,0:0:0:0:
256,340,206808,1,2,0:0:0:0:
300,312,207005,1,2,0:0:0:0:
352,300,207203,1,0,0:0:0:0:
400,316,207400,1,0,0:0:0:0:
448,340,207598,6,0,P|480:284|476:212,1,130,2|0,0:0|0:0,0:0:0:0:
305,69,208387,1,2,0:0:0:0:
305,69,208584,2,0,P|340:124|396:156,1,130,2|0,0:0|0:0,0:0:0:0:
320,228,209177,2,0,P|248:216|180:228,1,130,2|2,0:0|0:0,0:0:0:0:
44,176,209966,2,0,L|0:120,1,65,2|2,0:0|0:0,0:0:0:0:
127,25,210361,2,0,L|100:84,1,65,2|0,0:0|0:0,0:0:0:0:
152,176,210755,6,0,P|216:164|284:168,1,130,2|0,0:0|0:0,0:0:0:0:
352,28,211545,2,0,L|376:88,1,65,2|2,0:0|0:0,0:0:0:0:
480,100,211940,2,0,L|472:184,1,65,2|2,0:0|0:0,0:0:0:0:
468,216,212334,1,0,0:0:0:0:
452,264,212532,1,0,0:0:0:0:
412,296,212729,1,0,0:0:0:0:
360,312,212927,1,0,0:0:0:0:
308,312,213124,1,0,0:0:0:0:
260,288,213321,1,2,0:0:0:0:
228,248,213519,1,2,0:0:0:0:
220,196,213716,1,2,0:0:0:0:
236,148,213913,6,0,P|180:112|108:116,1,130,2|0,0:0|0:0,0:0:0:0:
36,176,214703,1,2,0:0:0:0:
36,176,214900,2,0,L|56:312,1,130,2|0,0:0|0:0,0:0:0:0:
144,356,215492,2,0,P|212:336|280:344,1,130,2|0,0:0|0:0,0:0:0:0:
439,331,216282,2,0,L|376:344,1,65,2|2,0:0|0:0,0:0:0:0:
368,248,216677,1,2,0:0:0:0:
472,232,216874,1,2,0:0:0:0:
404,156,217071,6,0,P|400:88|424:28,1,130,2|0,0:0|0:0,0:0:0:0:
256,176,217861,1,2,0:0:0:0:
268,124,218058,1,2,0:0:0:0:
232,84,218255,2,0,L|168:80,1,65,2|2,0:0|0:0,0:0:0:0:
72,124,218650,6,0,L|96:184,1,65,4|2,0:0|3:0,0:0:0:0:
40,272,219045,1,0,0:0:0:0:
188,220,219242,2,0,L|260:212,1,65,0|0,0:0|0:0,0:0:0:0:
304,204,219637,1,0,1:0:0:0:
356,212,219834,1,0,1:0:0:0:
396,244,220032,1,0,0:0:0:0:
408,296,220229,6,0,L|388:360,2,65,4|0|0,0:0|0:0|0:0,0:0:0:0:
252,272,221019,1,0,1:0:0:0:
252,220,221216,1,0,0:0:0:0:
276,172,221413,1,0,0:0:0:0:
344,32,221808,1,2,0:0:0:0:
308,68,222005,1,0,0:0:0:0:
256,80,222203,1,2,0:0:0:0:
204,68,222401,1,0,0:0:0:0:
168,32,222598,1,0,1:0:0:0:
72,140,222992,2,0,L|8:120,1,65
104,244,223387,6,0,P|168:244|236:212,1,130,2|0,0:0|0:0,0:0:0:0:
152,148,223979,1,0,0:0:0:0:
308,124,224177,2,0,L|332:264,1,130,0|0,1:0|0:0,0:0:0:0:
396,112,224966,2,0,L|464:96,1,65,0|2,0:0|0:0,0:0:0:0:
316,40,225361,2,0,P|248:36|184:52,1,130,2|0,0:0|1:0,0:0:0:0:
120,192,226150,1,0,0:0:0:0:
36,132,226348,1,0,0:0:0:0:
108,272,226545,6,0,L|108:340,2,65,2|0|0,0:0|0:0|0:0,0:0:0:0:
36,132,227334,2,0,L|36:64,2,65,0|0|0,1:0|0:0|0:0,0:0:0:0:
188,168,228124,1,2,0:0:0:0:
236,184,228321,1,0,0:0:0:0:
288,180,228519,1,2,0:0:0:0:
332,152,228716,1,0,0:0:0:0:
356,108,228913,2,0,P|420:108|476:144,1,130,0|0,1:0|0:0,0:0:0:0:
392,204,229505,1,0,0:0:0:0:
272,32,229703,6,0,L|144:64,1,130,2|0,0:0|0:0,0:0:0:0:
84,148,230295,1,0,0:0:0:0:
240,140,230492,2,0,L|372:168,1,130,0|0,1:0|0:0,0:0:0:0:
455,310,231282,2,0,L|436:248,2,65,0|2|0,0:0|0:0|0:0,0:0:0:0:
292,312,232071,1,0,1:0:0:0:
164,224,232466,1,2,0:0:0:0:
112,236,232663,1,2,0:0:0:0:
84,280,232861,6,0,L|80:344,2,65,6|0|0,0:0|0:0|0:0,0:0:0:0:
144,136,233650,2,0,L|84:104,2,65,0|0|0,1:0|0:0|0:0,0:0:0:0:
260,240,234440,1,2,0:0:0:0:
312,248,234637,1,0,0:0:0:0:
364,236,234834,1,2,0:0:0:0:
400,200,235032,1,0,0:0:0:0:
420,152,235229,2,0,P|416:88|376:36,1,130,0|0,1:0|0:0,0:0:0:0:
324,124,235821,1,0,0:0:0:0:
324,124,236019,6,0,P|264:148|200:148,1,130,2|0,0:0|0:0,0:0:0:0:
236,48,236611,1,0,0:0:0:0:
88,92,236808,2,0,L|104:236,1,130,0|0,1:0|0:0,0:0:0:0:
236,48,237598,2,0,L|308:40,2,65,0|2|0,0:0|0:0|0:0,0:0:0:0:
256,204,238387,1,0,1:0:0:0:
388,120,238782,2,0,L|456:132,1,65
256,204,239177,5,2,0:0:0:0:
256,256,239374,1,0,0:0:0:0:
236,304,239571,2,0,L|180:340,2,65,0|0|0,0:0|0:0|1:0,0:0:0:0:
128,192,240361,1,0,0:0:0:0:
80,172,240558,1,2,0:0:0:0:
64,124,240755,2,0,L|80:56,1,65,2|0,0:0|0:0,0:0:0:0:
172,108,241150,1,0,0:0:0:0:
76,232,241348,1,0,0:0:0:0:
168,356,241545,1,0,1:0:0:0:
168,356,241940,6,0,L|240:352,1,65
444,340,242334,1,2,0:0:0:0:
304,276,242532,1,0,0:0:0:0:
404,240,242729,2,0,P|404:176|436:120,1,130,0|0,0:0|1:0,0:0:0:0:
300,32,243519,2,0,L|268:92,1,65
176,40,243913,2,0,P|112:68|48:68,1,130,2|0,0:0|0:0,0:0:0:0:
152,192,244703,2,0,P|216:192|280:224,1,130,0|0,1:0|0:0,0:0:0:0:
72,256,245492,6,0,P|48:184|64:132,1,130,2|2,0:0|0:0,0:0:0:0:
188,40,246282,1,0,1:0:0:0:
320,120,246677,2,0,L|308:188,1,65,0|2,0:0|0:0,0:0:0:0:
208,216,247071,2,0,L|232:284,1,65,0|2,0:0|0:0,0:0:0:0:
308,344,247466,2,0,P|372:328|440:344,2,130,0|0|0,0:0|1:0|0:0,0:0:0:0:
256,192,248650,12,2,251019,0:0:0:0:
332,112,251413,1,0,0:0:0:0:
428,76,251611,1,0,0:0:0:0:
352,212,251808,6,0,P|352:276|316:332,1,130,6|2,0:0|0:0,0:0:0:0:
260,244,252400,2,0,L|192:232,1,65,0|0,0:0|1:0,0:0:0:0:
340,132,252795,2,0,L|408:120,1,65,0|2,0:0|0:0,0:0:0:0:
230,16,253190,2,0,P|224:80|248:140,1,130,2|0,0:0|0:0,0:0:0:0:
316,60,253782,1,2,0:0:0:0:
108,36,253979,1,0,0:0:0:0:
60,128,254177,2,0,P|68:192|52:264,1,130,0|2,1:0|0:0,0:0:0:0:
128,332,254769,1,0,0:0:0:0:
212,268,254966,6,0,L|284:280,1,65,0|0,0:0|0:0,0:0:0:0:
380,292,255361,1,2,0:0:0:0:
451,121,255558,2,0,L|388:136,1,65,0|0,0:0|1:0,0:0:0:0:
284,156,255953,1,0,0:0:0:0:
404,56,256150,1,2,0:0:0:0:
476,196,256348,2,0,P|476:260|444:320,1,130,2|0,0:0|0:0,0:0:0:0:
280,329,256940,2,0,L|344:344,1,65,2|0,0:0|0:0,0:0:0:0:
241,247,257334,1,0,1:0:0:0:
111,289,257532,1,0,0:0:0:0:
192,179,257729,1,2,0:0:0:0:
192,316,257927,1,0,0:0:0:0:
111,205,258124,6,0,P|116:132|160:96,1,130,0|2,0:0|0:0,0:0:0:0:
76,32,258716,2,0,L|8:40,1,65,0|0,0:0|1:0,0:0:0:0:
192,179,259111,2,0,L|252:204,1,65,0|2,0:0|0:0,0:0:0:0:
447,109,259505,2,0,P|384:104|324:128,1,130,2|0,0:0|0:0,0:0:0:0:
124,46,260098,2,0,P|180:60|252:52,2,130,2|0|2,0:0|1:0|0:0,0:0:0:0:
52,120,261084,1,0,0:0:0:0:
124,267,261282,6,0,P|152:208|152:144,1,130,0|2,0:0|0:0,0:0:0:0:
52,120,261874,1,0,0:0:0:0:
264,64,262071,2,0,L|200:72,1,65,0|0,1:0|0:0,0:0:0:0:
344,132,262466,1,2,0:0:0:0:
468,40,262663,2,0,P|456:108|488:184,1,130,2|0,0:0|0:0,0:0:0:0:
474,164,263255,1,2,0:0:0:0:
408,304,263650,1,0,1:0:0:0:
408,304,263848,2,0,P|344:304|292:264,1,130,2|2,0:0|0:0,0:0:0:0:
220,72,264440,6,0,P|256:120|256:188,1,130,4|2,0:0|0:0,0:0:0:0:
160,152,265032,1,0,0:0:0:0:
332,36,265229,1,0,1:0:0:0:
332,36,265427,2,0,P|396:60|472:56,1,130,2|2,0:0|0:0,0:0:0:0:
220,72,266019,2,0,P|156:56|84:64,1,130,0|2,0:0|0:0,0:0:0:0:
48,156,266611,2,0,L|60:232,1,65,0|0,0:0|1:0,0:0:0:0:
192,304,267005,2,0,L|180:228,1,65,0|2,0:0|0:0,0:0:0:0:
112,316,267400,1,2,0:0:0:0:
264,348,267598,6,0,P|328:336|392:352,1,130,0|2,0:0|0:0,0:0:0:0:
476,288,268190,2,0,L|492:224,1,65,0|0,0:0|1:0,0:0:0:0:
386,116,268584,2,0,L|400:180,1,65,0|2,0:0|0:0,0:0:0:0:
452,32,268979,2,0,P|384:52|320:40,1,130,2|0,0:0|0:0,0:0:0:0:
224,44,269571,1,2,0:0:0:0:
252,144,269769,1,0,0:0:0:0:
152,120,269966,1,0,1:0:0:0:
352,184,270163,2,0,P|356:248|336:312,1,130,2|2,0:0|0:0,0:0:0:0:
240,344,270755,6,0,P|176:332|108:348,1,130,2|2,0:0|0:0,0:0:0:0:
24,216,271545,1,0,1:0:0:0:
24,216,271742,2,0,L|12:80,1,130,2|2,0:0|0:0,0:0:0:0:
96,24,272334,2,0,P|160:48|224:40,1,130,2|2,0:0|0:0,0:0:0:0:
376,36,273124,1,0,1:0:0:0:
376,36,273321,2,0,L|360:168,1,130,2|2,0:0|0:0,0:0:0:0:
428,244,273913,6,0,L|492:260,1,65,4|0,0:0|0:0,0:0:0:0:
412,328,274308,1,2,0:0:0:0:
300,216,274505,2,0,L|272:276,1,65,0|0,0:0|1:0,0:0:0:0:
220,364,274900,1,2,0:0:0:0:
116,197,275098,2,0,L|180:212,1,65,2|2,3:0|3:0,0:0:0:0:
256,76,275492,1,2,0:0:0:0:
296,44,275690,1,2,0:0:0:0:
348,36,275887,1,2,0:0:0:0:
400,40,276084,1,2,0:0:0:0:
440,72,276282,2,0,L|460:152,1,65,2|2,3:0|3:0,0:0:0:0:
337,222,276677,2,0,L|356:160,1,65,2|0,0:0|0:0,0:0:0:0:
376,316,277071,6,0,P|312:320|252:280,1,130,6|2,0:0|0:0,0:0:0:0:
124,204,277663,1,0,0:0:0:0:
184,348,277861,1,0,1:0:0:0:
60,256,278058,2,0,L|-4:272,1,65,0|2,0:0|0:0,0:0:0:0:
124,204,278453,2,0,P|124:140|92:84,1,130,2|0,0:0|0:0,0:0:0:0:
32,168,279045,1,2,0:0:0:0:
120,300,279242,1,0,0:0:0:0:
244,204,279440,2,0,P|312:192|388:204,1,130,0|2,1:0|0:0,0:0:0:0:
312,284,280032,1,2,0:0:0:0:
474,91,280229,6,0,L|456:220,1,130,0|2,0:0|0:0,0:0:0:0:
376,152,280821,2,0,L|300:140,1,65,0|0,0:0|1:0,0:0:0:0:
128,48,281216,2,0,L|190:30,1,65,0|2,0:0|0:0,0:0:0:0:
36,28,281611,2,0,P|56:104|104:140,1,130,2|0,0:0|0:0,0:0:0:0:
164,212,282203,2,0,L|140:288,1,65,2|0,0:0|0:0,0:0:0:0:
220,344,282598,1,0,1:0:0:0:
264,248,282795,1,0,0:0:0:0:
164,212,282992,2,0,L|120:164,1,65,2|2,0:0|0:0,0:0:0:0:
220,344,283387,6,0,P|288:344|348:312,1,130,0|2,0:0|0:0,0:0:0:0:
444,288,283979,2,0,L|428:224,1,65,0|0,0:0|1:0,0:0:0:0:
316,116,284374,2,0,L|332:180,1,65,0|2,0:0|0:0,0:0:0:0:
392,44,284769,2,0,P|324:52|256:40,1,130,2|0,0:0|0:0,0:0:0:0:
160,36,285361,2,0,P|160:100|192:160,1,130,2|0,0:0|1:0,0:0:0:0:
288,196,285953,1,0,0:0:0:0:
204,260,286150,2,0,L|136:244,1,65,2|0,0:0|0:0,0:0:0:0:
80,160,286545,6,0,P|92:228|72:284,1,130,0|2,0:0|0:0,0:0:0:0:
36,68,287137,2,0,L|98:49,1,65,0|0,0:0|1:0,0:0:0:0:
236,120,287532,2,0,L|173:102,1,65,0|2,0:0|0:0,0:0:0:0:
328,104,287927,2,0,P|392:104|456:76,1,130,2|0,0:0|0:0,0:0:0:0:
188,36,288519,2,0,L|184:100,1,65,2|0,0:0|0:0,0:0:0:0:
56,192,288913,1,0,1:0:0:0:
108,192,289111,1,2,0:0:0:0:
152,220,289308,1,2,0:0:0:0:
168,268,289505,1,2,0:0:0:0:
160,320,289703,6,0,P|216:352|288:344,1,130,4|0,0:0|0:0,0:0:0:0:
431,125,290492,1,0,1:0:0:0:
431,125,290690,2,0,L|404:252,1,130,2|2,0:0|0:0,0:0:0:0:
336,172,291282,2,0,P|272:184|208:172,1,130,0|2,0:0|0:0,0:0:0:0:
116,120,291874,2,0,L|108:55,1,65,0|0,0:0|1:0,0:0:0:0:
16,104,292269,1,0,0:0:0:0:
124,216,292466,2,0,L|96:280,1,65,2|0,0:0|0:0,0:0:0:0:
168,352,292861,6,0,P|236:336|300:340,1,130,0|2,0:0|0:0,0:0:0:0:
464,220,293453,2,0,L|424:272,1,65,0|0,0:0|1:0,0:0:0:0:
352,124,293848,2,0,L|364:188,1,65,0|2,0:0|0:0,0:0:0:0:
412,40,294242,2,0,P|344:64|280:44,1,130,2|0,0:0|0:0,0:0:0:0:
188,32,294834,2,0,L|168:104,1,65,2|0,0:0|0:0,0:0:0:0:
176,279,295229,1,0,1:0:0:0:
176,280,295427,2,0,P|224:240|236:176,1,130,2|2,0:0|0:0,0:0:0:0:
72,304,296019,6,0,P|112:360|172:384,1,130,0|2,0:0|0:0,0:0:0:0:
112,184,296808,1,0,1:0:0:0:
112,184,297020,2,0,L|76:56,1,130,2|2,0:0|0:0,0:0:0:0:
176,36,297628,2,0,P|240:48|308:32,1,130,0|2,0:0|0:0,0:0:0:0:
444,88,298461,1,0,1:0:0:0:
444,88,298675,2,0,L|436:228,1,130,2|2,0:0|0:0,0:0:0:0:
256,192,299318,12,4,301070,0:0:0:0:
256,192,301294,12,0,305561,0:0:0:0:
88,140,306465,6,0,P|144:140|184:120,1,97.50000371933,0|0,0:0|0:0,0:0:0:0:
288,76,307310,2,0,L|340:64,2,48.750001859665,0|0|0,0:0|0:0|0:0,0:0:0:0:
352,176,308155,2,0,P|352:228|376:264,1,97.50000371933,0|0,0:0|0:0,0:0:0:0:
312,356,309000,2,0,P|264:340|160:360,1,146.250005578995,0|0,0:0|0:0,0:0:0:0:
124,364,309845,6,0,L|84:272,1,97.50000371933,0|0,0:0|0:0,0:0:0:0:
60,160,310690,2,0,B|112:152|124:96|124:96|184:96,1,146.250005578995,0|0,0:0|0:0,0:0:0:0:
212,96,311535,2,0,P|260:96|312:128,1,97.50000371933,0|0,0:0|0:0,0:0:0:0:
292,236,312380,2,0,P|292:284|320:332,1,97.50000371933,0|0,0:0|0:0,0:0:0:0:
408,256,313226,6,0,P|452:224|472:176,1,97.50000371933,0|0,0:0|0:0,0:0:0:0:
428,76,314071,1,0,0:0:0:0:
396,52,314282,1,0,0:0:0:0:
356,48,314493,1,0,0:0:0:0:
256,108,314916,2,0,B|248:148|272:180|272:180|256:204,1,97.50000371933,0|0,0:0|0:0,0:0:0:0:
260,316,315761,2,0,P|208:300|120:336,1,146.250005578995,0|0,0:0|0:0,0:0:0:0:
88,348,316606,6,0,L|32:256,1,97.50000371933,0|0,0:0|0:0,0:0:0:0:
72,152,317451,1,0,0:0:0:0:
72,152,317662,2,0,P|144:152|208:104,1,146.250005578995,0|0,0:0|0:0,0:0:0:0:
292,32,318719,1,0,0:0:0:0:
408,32,319141,1,0,0:0:0:0:
408,32,319353,2,0,B|396:76|396:76|416:88|416:88|408:104|428:172,1,146.250005578995,0|0,0:0|0:0,0:0:0:0:
472,272,320409,5,0,0:0:0:0:
368,324,320832,2,0,L|368:376,2,48.750001859665,0|0|0,0:0|0:0|0:0,0:0:0:0:
268,264,321677,2,0,P|268:216|280:164,1,97.50000371933,0|0,0:0|0:0,0:0:0:0:
184,44,322522,1,0,0:0:0:0:
184,44,322733,2,0,P|164:112|104:152,1,146.250005578995,0|0,0:0|0:0,0:0:0:0:
36,248,323790,5,0,0:0:0:0:
112,336,324212,1,0,0:0:0:0:
144,316,324424,1,0,0:0:0:0:
184,320,324635,1,0,0:0:0:0:
296,356,325057,2,0,P|344:348|380:316,1,97.50000371933,0|0,0:0|0:0,0:0:0:0:
288,240,325902,1,0,0:0:0:0:
288,240,326114,2,0,L|212:112,1,146.250005578995,0|0,0:0|0:0,0:0:0:0:
112,56,327170,5,0,0:0:0:0:
268,32,327593,1,0,0:0:0:0:
268,32,327804,2,0,P|328:60|412:48,1,146.250005578995,0|0,0:0|0:0,0:0:0:0:
480,140,328860,1,0,0:0:0:0:
480,256,329283,1,0,0:0:0:0:
472,292,329494,1,0,0:0:0:0:
444,320,329706,1,0,0:0:0:0:
328,328,330128,5,0,0:0:0:0:
245,245,330551,1,0,0:0:0:0:
162,327,330973,1,0,0:0:0:0:
79,244,331396,1,0,0:0:0:0:
160,160,331818,2,0,P|160:96|108:48,1,130,0|0,0:0|0:0,0:0:0:0:
272,40,333509,6,0,L|376:32,1,97.50000371933,0|0,0:0|0:0,0:0:0:0:
336,144,334354,2,0,L|340:200,2,48.750001859665,0|0|0,0:0|0:0|0:0,0:0:0:0:
220,164,335199,2,0,P|172:164|120:144,1,97.50000371933,0|0,0:0|0:0,0:0:0:0:
28,212,336044,2,0,P|28:280|60:352,1,146.250005578995
96,356,336889,6,0,P|148:340|212:344,1,97.50000371933,0|0,0:0|0:0,0:0:0:0:
296,292,337734,2,0,P|328:224|320:152,1,146.250005578995
292,128,338579,2,0,L|192:104,1,97.50000371933,0|0,0:0|0:0,0:0:0:0:
288,32,339425,2,0,L|396:20,1,97.50000371933,0|0,0:0|0:0,0:0:0:0:
476,96,340270,5,0,0:0:0:0:
408,192,340692,1,0,0:0:0:0:
296,160,341115,2,0,L|248:160,2,48.750001859665
316,276,341960,2,0,P|284:316|236:328,1,97.50000371933,0|0,0:0|0:0,0:0:0:0:
124,340,342805,2,0,P|120:288|60:216,1,146.250005578995
28,200,343650,6,0,P|28:152|56:108,1,97.50000371933,0|0,0:0|0:0,0:0:0:0:
160,64,344495,1,0,0:0:0:0:
160,64,344707,2,0,P|208:80|304:56,1,146.250005578995
416,80,345763,1,0,0:0:0:0:
356,180,346186,1,0,0:0:0:0:
356,180,346397,2,0,P|356:248|416:308,1,146.250005578995,0|0,0:0|0:0,0:0:0:0:
472,208,347453,5,0,0:0:0:0:
424,100,347876,2,0,L|424:52,2,48.750001859665
308,112,348721,2,0,P|260:120|208:120,1,97.50000371933,0|0,0:0|0:0,0:0:0:0:
116,56,349566,1,0,0:0:0:0:
116,56,349777,2,0,L|132:220,1,146.250005578995,0|0,0:0|0:0,0:0:0:0:
56,292,350834,5,0,0:0:0:0:
152,356,351256,1,0,0:0:0:0:
188,336,351468,1,0,0:0:0:0:
228,344,351679,1,0,0:0:0:0:
328,280,352102,2,0,P|328:232|308:180,1,97.50000371933,0|0,0:0|0:0,0:0:0:0:
236,96,352947,1,0,0:0:0:0:
236,96,353158,2,0,P|320:88|372:44,1,146.250005578995,0|0,0:0|0:0,0:0:0:0:
472,100,354214,5,0,0:0:0:0:
468,216,354637,1,0,0:0:0:0:
468,216,354848,2,0,B|468:264|436:296|436:296|468:352,1,146.250005578995,0|0,0:0|0:0,0:0:0:0:
348,356,355905,1,0,0:0:0:0:
256,284,356327,2,0,L|256:228,2,48.750001859665
160,352,357172,5,0,0:0:0:0:
256,192,358651,5,0,0:0:0:0:
256,192,358863,1,0,0:0:0:0:
256,192,359074,12,0,363933,0:0:0:0:
