osu file format v12

[General]
AudioFilename: Nagisa ~Kimi to Mezashita Takami, Negai ga Kanau Basho~.mp3
AudioLeadIn: 0
PreviewTime: 244065
Countdown: 0
SampleSet: Soft
StackLeniency: 0.3
Mode: 0
LetterboxInBreaks: 0

[Editor]
Bookmarks: 10209,42209,84055,125884,167096,215580,244671,283459,322247
DistanceSpacing: 1.5
BeatDivisor: 4
GridSize: 8

[Metadata]
Title:Nagisa ~Kimi to Mezashita Takami, Negai ga Kanau Basho~
TitleUnicode:渚~君と目指した高み、願いが叶う場所~
Artist:yukizakura
ArtistUnicode:雪桜草
Creator:kanpakyin
Version:Collab
Source:Clannad
Tags:Andrea Nymph Pokie osuplayer111 YuKi SAKURA dango daikazoku
BeatmapID:192725
BeatmapSetID:65968

[Difficulty]
HPDrainRate:6
CircleSize:4
OverallDifficulty:6
ApproachRate:7
SliderMultiplier:1.5
SliderTickRate:1

[Events]
//Background and Video events
0,0,"BG.jpg",0,0
//Break Periods
2,186690,200135
//Storyboard Layer 0 (Background)
//Storyboard Layer 1 (Fail)
//Storyboard Layer 2 (Pass)
//Storyboard Layer 3 (Foreground)
Sprite,Foreground,Centre,"SB\effect\Mini Light.png",320,240 M,0,10209,,530,398 F,0,10209,10363,0,0.5 S,0,10209,10363,0.05,0.1 R,0,10209,128308,0,50 P,0,10209,128308,A F,2,125884,128308,0.5,0
Sprite,Foreground,Centre,"SB\effect\Mini Light.png",320,240 M,0,207096,,530,398 F,0,207096,207250,0,0.5 S,0,207096,207250,0.05,0.1 R,0,207096,324671,0,-50 P,0,207096,324671,V P,0,207096,324671,A F,2,322771,324671,0.5,0
Sprite,Foreground,Centre,"SB\effect\Mini Light.png",320,240 M,0,10209,,530,398 F,0,10209,10363,0,0.5 S,0,10209,10363,0.05,0.1 R,0,10209,128308,0,-50 P,0,10209,128308,V P,0,10209,128308,A F,2,125884,128308,0.5,0
Sprite,Foreground,Centre,"SB\effect\Mini Light.png",320,240 M,0,207096,,530,398 F,0,207096,207250,0,0.5 S,0,207096,207250,0.05,0.1 R,0,207096,324671,0,50 P,0,207096,324671,A F,2,322771,324671,0.5,0
Sprite,Foreground,Centre,"SB\kpyyy.png",320,240 M,1,10209,10824,530,441,530,397 F,0,10209,10824,0,1 M,1,42209,42824,530,398,530,358 F,0,42209,42824,1,0
Sprite,Foreground,Centre,"SB\Adrrr.png",320,240 M,1,42209,42824,530,441,530,397 F,0,42209,42824,0,1 M,1,84055,84670,530,398,530,358 F,0,84055,84670,1,0
Sprite,Foreground,Centre,"SB\Nmppp.png",320,240 M,1,84055,84670,530,441,530,397 F,0,84055,84670,0,1 M,1,125884,126499,530,398,530,358 F,0,125884,126499,1,0
Sprite,Foreground,Centre,"SB\Adrrr.png",320,240 M,1,125884,126499,530,441,530,397 F,0,125884,126499,0,1 M,1,167096,167711,530,398,530,358 F,0,167096,167711,1,0
Sprite,Foreground,Centre,"SB\kpyyy.png",320,240 M,1,167096,167711,530,441,530,397 F,0,167096,167711,0,1 M,1,215580,216195,530,398,530,358 F,0,215580,216195,1,0
Sprite,Foreground,Centre,"SB\Nmppp.png",320,240 M,1,215580,216195,530,441,530,397 F,0,215580,216195,0,1 M,1,244671,245286,530,398,530,358 F,0,244671,245286,1,0
Sprite,Foreground,Centre,"SB\Adrrr.png",320,240 M,1,244671,245286,530,441,530,397 F,0,244671,245286,0,1 M,1,283459,284074,530,398,530,358 F,0,283459,284074,1,0
Sprite,Foreground,Centre,"SB\kpyyy.png",320,240 M,1,283459,284074,530,441,530,397 F,0,283459,284074,0,1 M,1,322247,322853,530,398,530,358 F,0,322247,322853,1,0
//Storyboard Sound Samples
//Background Colour Transformations
3,100,163,162,255

[TimingPoints]
7748,615.384615384615,4,2,1,20,1,0
18824,-100,4,2,1,20,0,0
19132,-100,4,2,1,10,0,0
19594,-100,4,2,1,20,0,0
20055,-200,4,2,1,20,0,0
20671,-200,4,2,1,15,0,0
21286,-200,4,2,1,10,0,0
21902,-133.333333333333,4,2,1,5,0,0
22055,-133.333333333333,4,2,1,25,0,0
39747,-133.333333333333,4,1,1,15,0,0
39901,-133.333333333333,4,2,1,30,0,0
61901,-133.333333333333,4,1,1,30,0,0
62055,-133.333333333333,4,2,1,40,0,0
63132,-133.333333333333,4,2,2,30,0,0
63286,-133.333333333333,4,2,1,40,0,0
65286,-133.333333333333,4,1,1,20,0,0
65440,-133.333333333333,4,1,1,30,0,0
65747,-133.333333333333,4,2,1,40,0,0
66824,-133.333333333333,4,1,1,30,0,0
66978,-133.333333333333,4,2,1,40,0,0
67901,-133.333333333333,4,2,2,30,0,0
68209,-133.333333333333,4,2,1,40,0,0
69440,-133.333333333333,4,2,2,40,0,0
69747,-133.333333333333,4,2,1,40,0,0
70209,-133.333333333333,4,1,1,40,0,0
70671,-133.333333333333,4,2,1,40,0,0
71747,-133.333333333333,4,1,1,30,0,0
71901,-133.333333333333,4,2,1,40,0,0
72978,-133.333333333333,4,2,2,30,0,0
73132,-133.333333333333,4,2,1,40,0,0
74363,-133.333333333333,4,2,2,30,0,0
74671,-133.333333333333,4,2,1,40,0,0
75440,-133.333333333333,4,1,1,30,0,0
75594,-133.333333333333,4,2,1,40,0,0
77901,-133.333333333333,4,2,2,30,0,0
78055,-133.333333333333,4,2,1,40,0,0
79132,-133.333333333333,4,1,1,30,0,0
79286,-133.333333333333,4,2,1,40,0,0
79901,-133.333333333333,4,2,2,40,0,0
80363,-133.333333333333,4,1,1,30,0,0
80517,-133.333333333333,4,2,1,40,0,0
82517,-133.333333333333,4,1,1,20,0,0
82824,-133.333333333333,4,2,2,30,0,0
82978,-133.333333333333,4,2,1,30,0,0
84055,-133.333333333333,4,2,1,50,0,0
85901,-100,4,1,1,65,0,0
86517,-100,4,2,2,65,0,1
86671,-100,4,2,1,65,0,1
87747,-100,4,2,2,35,0,1
87901,-100,4,2,1,65,0,1
91440,-100,4,2,2,65,0,1
91594,-100,4,2,1,65,0,1
96363,-100,4,2,2,65,0,1
96401,-100,4,2,1,65,0,1
106209,-100,4,2,2,65,0,1
106363,-100,4,2,1,65,0,1
116055,-100,4,2,2,65,0,1
116209,-100,4,2,1,65,0,1
116978,-100,4,2,2,65,0,1
117132,-100,4,2,1,65,0,1
118824,-100,4,2,2,50,0,1
118978,-100,4,2,1,65,0,1
119594,-100,4,2,2,35,0,1
119901,-100,4,2,1,65,0,1
120209,-100,4,2,2,65,0,1
120517,-100,4,2,1,65,0,1
123747,-100,4,2,1,50,0,1
125884,606.060606060606,4,2,1,50,1,1
125884,-100,4,2,1,50,0,0
165580,-100,4,2,1,5,0,0
166035,-100,4,2,1,50,0,0
167096,-100,4,2,2,50,0,0
167247,-100,4,2,1,50,0,0
168005,-100,4,2,2,30,0,0
168156,-100,4,2,2,50,0,0
171187,-100,4,2,1,40,0,0
171793,-100,4,2,2,50,0,0
172853,-100,4,2,1,40,0,0
173005,-100,4,2,2,50,0,0
173762,-100,4,2,1,50,0,0
173914,-100,4,2,2,50,0,0
177399,-100,4,2,1,50,0,0
177550,-100,4,2,2,50,0,0
180884,-100,4,2,1,40,0,0
181035,-100,4,2,2,50,0,0
181338,-100,4,2,1,40,0,0
181490,-100,4,2,2,50,0,0
182096,-100,4,2,1,40,0,0
182702,-100,4,2,2,50,0,0
183459,-100,4,2,1,40,0,0
183611,-100,4,2,2,50,0,0
184671,-100,4,2,1,40,0,0
184823,-100,4,2,2,50,0,0
185884,-100,4,2,1,30,0,0
201035,-133.333333333333,4,2,1,30,0,0
215580,-133.333333333333,4,2,1,37,0,0
243459,-133.333333333333,4,2,1,50,0,0
245580,-133.333333333333,4,2,2,50,0,0
245732,-133.333333333333,4,2,2,30,0,0
246035,-133.333333333333,4,2,1,50,0,0
246793,-133.333333333333,4,2,2,50,0,0
246944,-133.333333333333,4,2,1,50,0,0
248005,-133.333333333333,4,2,2,50,0,0
248156,-133.333333333333,4,2,2,30,0,0
248459,-133.333333333333,4,2,1,50,0,0
249520,-133.333333333333,4,2,0,50,0,0
249671,-133.333333333333,4,2,1,50,0,0
250429,-133.333333333333,4,2,2,50,0,0
250580,-133.333333333333,4,2,2,30,0,0
250884,-133.333333333333,4,2,1,50,0,0
251641,-133.333333333333,4,2,2,50,0,0
251793,-133.333333333333,4,2,1,50,0,0
253156,-133.333333333333,4,2,2,30,0,0
253308,-133.333333333333,4,2,1,50,0,0
254065,-133.333333333333,4,2,2,50,0,0
254217,-133.333333333333,4,2,0,50,0,0
254520,-133.333333333333,4,2,1,50,0,0
255277,-133.333333333333,4,2,2,50,0,0
255429,-133.333333333333,4,2,2,30,0,0
255732,-133.333333333333,4,2,1,50,0,0
256490,-133.333333333333,4,2,2,40,0,0
256641,-133.333333333333,4,2,1,50,0,0
258005,-133.333333333333,4,2,2,30,0,0
258156,-133.333333333333,4,2,1,50,0,0
258914,-133.333333333333,4,2,2,40,0,0
259065,-133.333333333333,4,2,1,50,0,0
260126,-133.333333333333,4,2,2,40,0,0
260277,-133.333333333333,4,2,2,35,0,0
260580,-133.333333333333,4,2,1,50,0,0
262247,-133.333333333333,4,2,1,40,0,0
262399,-133.333333333333,4,2,1,50,0,0
262853,-133.333333333333,4,2,2,30,0,0
263005,-133.333333333333,4,2,1,50,0,0
263762,-133.333333333333,4,2,2,40,0,0
263914,-133.333333333333,4,2,0,50,0,0
264217,-133.333333333333,4,2,1,50,0,0
264974,-133.333333333333,4,2,2,40,0,0
265126,-133.333333333333,4,2,2,35,0,0
265429,-133.333333333333,4,2,1,50,0,0
266793,-133.333333333333,4,2,2,40,0,0
266944,-133.333333333333,4,2,1,50,0,0
267399,-133.333333333333,4,2,2,40,0,0
267550,-133.333333333333,4,2,2,30,0,0
267853,-133.333333333333,4,2,1,50,0,0
268611,-133.333333333333,4,2,2,40,0,0
268762,-133.333333333333,4,2,1,50,0,0
268914,-133.333333333333,4,1,1,35,0,0
269065,-133.333333333333,4,2,1,50,0,0
269823,-133.333333333333,4,2,2,40,0,0
269974,-133.333333333333,4,2,2,30,0,0
270277,-133.333333333333,4,2,1,50,0,0
271035,-133.333333333333,4,2,2,40,0,0
271187,-133.333333333333,4,2,1,50,0,0
272550,-133.333333333333,4,2,2,30,0,0
272702,-133.333333333333,4,2,1,40,0,0
273762,-133.333333333333,4,2,0,50,0,0
273914,-133.333333333333,4,2,1,50,0,0
274974,-133.333333333333,4,2,2,30,0,0
275126,-133.333333333333,4,2,1,50,0,0
275884,-133.333333333333,4,2,2,40,0,0
276338,-133.333333333333,4,2,1,50,0,0
277399,-133.333333333333,4,2,2,30,0,0
277550,-133.333333333333,4,2,1,50,0,0
278005,-133.333333333333,4,2,0,50,0,0
278156,-133.333333333333,4,2,2,40,0,0
278762,-133.333333333333,4,2,1,50,0,0
279520,-133.333333333333,4,2,2,50,0,0
279823,-133.333333333333,4,2,2,30,0,0
279974,-133.333333333333,4,2,1,50,0,0
280732,-133.333333333333,4,2,2,40,0,0
281490,-133.333333333333,4,2,1,50,0,0
282247,-133.333333333333,4,2,2,30,0,0
282399,-133.333333333333,4,2,1,40,0,0
283156,-133.333333333333,4,1,1,50,0,0
283459,-100,4,2,0,65,0,1
283611,-100,4,2,1,50,0,1
284065,-100,4,1,1,50,0,1
284217,-100,4,2,2,50,0,1
284974,-100,4,2,1,50,0,1
285580,-100,4,2,2,50,0,1
285732,-100,4,2,1,50,0,1
286187,-100,4,2,2,50,0,1
286490,-100,4,1,1,50,0,1
286641,-100,4,2,2,50,0,1
287702,-100,4,1,1,50,0,1
287853,-100,4,2,2,50,0,1
288914,-100,4,1,1,50,0,1
289065,-100,4,2,2,50,0,1
289520,-100,4,2,1,50,0,1
290126,-100,4,1,1,50,0,1
290277,-100,4,2,2,50,0,1
290580,-100,4,2,1,50,0,1
291035,-100,4,2,2,50,0,1
291338,-100,4,1,1,50,0,1
291490,-100,4,2,1,50,0,1
291944,-100,4,2,2,50,0,1
292399,-100,4,2,1,50,0,1
292853,-100,4,2,2,50,0,1
293459,-100,4,2,1,50,0,1
293611,-100,4,1,1,50,0,1
294217,-100,4,2,1,50,0,1
294823,-100,4,1,2,50,0,1
295126,-100,4,2,2,50,0,1
295580,-100,4,2,1,50,0,1
296187,-100,4,1,1,50,0,1
296338,-100,4,2,2,50,0,1
297247,-100,4,2,1,50,0,1
297399,-100,4,1,1,50,0,1
297550,-100,4,2,2,50,0,1
298308,-100,4,2,1,50,0,1
298611,-100,4,1,1,50,0,1
298762,-100,4,2,2,50,0,1
299520,-100,4,2,1,50,0,1
299823,-100,4,1,1,50,0,1
299974,-100,4,2,2,50,0,1
300732,-100,4,2,1,50,0,1
300884,-100,4,1,2,50,0,1
301187,-100,4,2,1,50,0,1
301944,-100,4,1,1,50,0,1
302247,-100,4,1,1,40,0,1
302853,-100,4,2,2,50,0,1
303308,-100,4,2,1,50,0,1
303459,-100,4,1,1,50,0,1
303611,-100,4,2,2,50,0,1
304368,-100,4,2,1,50,0,1
304823,-100,4,2,2,50,0,1
305884,-100,4,1,1,50,0,1
306035,-100,4,2,2,50,0,1
306944,-100,4,2,1,50,0,1
307096,-100,4,2,2,50,0,1
308005,-100,4,2,1,50,0,1
308308,-100,4,1,1,50,0,1
308459,-100,4,2,2,50,0,1
309217,-100,4,2,1,50,0,1
309520,-100,4,1,2,50,0,1
309671,-100,4,2,2,50,0,1
310277,-100,4,2,1,50,0,1
310732,-100,4,1,1,50,0,1
310884,-100,4,2,2,50,0,1
311338,-100,4,1,2,50,0,1
312399,-100,4,1,1,50,0,1
312550,-100,4,2,2,50,0,1
312702,-100,4,2,1,50,0,1
313156,-100,4,1,1,50,0,1
313308,-100,4,2,1,50,0,1
314368,-100,4,1,1,50,0,1
314520,-100,4,2,1,50,0,1
315277,-100,4,2,2,50,0,1
315580,-100,4,1,1,50,0,1
315732,-100,4,2,2,50,0,1
316490,-100,4,2,1,50,0,1
316641,-100,4,1,2,50,0,1
316944,-100,4,2,2,50,0,1
318005,-100,4,1,2,50,0,1
318156,-100,4,2,2,50,0,1
318611,-100,4,2,1,50,0,1
318914,-100,4,1,1,50,0,1
319823,-200,4,2,1,50,0,1
322247,-100,4,2,1,30,0,0

[Colours]
Combo1 : 94,107,145
Combo2 : 148,96,86

[HitObjects]
113,283,9594,1,0,0:0:0:0:
21,127,10209,2,0,P|60:129|110:128,1,75,2|0,0:0|0:0,0:0:0:0:
166,85,10824,2,0,P|238:83|321:89,3,150,2|0|2|2,0:0|0:0|0:0|0:0,0:0:0:0:
422,244,13286,1,10,0:0:0:0:
262,327,13901,2,0,P|185:330|100:321,1,150,10|10,0:0|0:0,0:0:0:0:
28,355,14824,1,8,0:0:0:0:
11,266,15132,6,0,P|7:231|15:181,2,75,10|8|8,0:0|0:0|0:0,0:0:0:0:
28,355,16055,1,8,0:0:0:0:
109,318,16363,2,0,P|184:311|261:322,1,150,10|10,0:0|0:0,0:0:0:0:
337,363,17286,2,0,L|375:201,1,150,8|10,0:0|0:0,0:0:0:0:
337,133,18209,5,0,0:0:0:0:
337,133,18824,1,2,0:0:0:0:
337,133,19440,1,10,0:0:0:0:
218,45,19747,1,0,0:0:0:0:
185,186,20055,6,0,P|146:189|104:183,3,75,2|2|2|2,0:0|0:0|0:0|0:0,0:0:0:0:
64,301,22517,5,12,0:0:0:0:
167,358,22978,1,0,0:0:0:0:
222,254,23440,1,10,0:0:0:0:
64,301,23747,2,0,L|50:186,1,112.500004291535,8|10,0:0|0:0,0:0:0:0:
10,121,24671,1,0,0:0:0:0:
137,207,24978,6,0,L|129:144,2,56.2500021457673,10|0|10,0:0|0:0|0:0,0:0:0:0:
186,83,25901,1,0,0:0:0:0:
186,83,26055,1,0,0:0:0:0:
186,82,26209,2,0,P|218:62|279:65,2,84.3750032186509,10|0|10,0:0|0:0|0:0,0:0:0:0:
305,183,27440,2,0,L|295:284,1,84.3750032186509,10|0,0:0|0:0,0:0:0:0:
303,281,28363,5,10,0:0:0:0:
418,361,28671,2,0,L|432:238,1,112.500004291535,10|10,0:0|0:0,0:0:0:0:
509,254,29594,2,0,L|502:191,1,56.2500021457673,8|10,0:0|0:0,0:0:0:0:
401,94,30209,1,8,0:0:0:0:
474,128,30517,1,10,0:0:0:0:
323,111,30824,2,0,P|263:114|215:66,1,112.500004291535,8|8,0:0|0:0,0:0:0:0:
175,206,31747,2,0,L|164:139,2,56.2500021457673,10|8|14,0:0|0:0|0:0,0:0:0:0:
95,118,32824,5,0,0:0:0:0:
175,206,33286,2,0,L|185:272,1,56.2500021457673,10|10,0:0|0:0,0:0:0:0:
250,303,33901,1,8,0:0:0:0:
323,275,34209,2,0,P|376:259|432:279,1,112.500004291535,10|10,0:0|0:0,0:0:0:0:
488,328,35132,1,8,0:0:0:0:
414,355,35440,1,10,0:0:0:0:
254,315,35747,5,8,0:0:0:0:
254,315,35901,1,0,0:0:0:0:
254,315,36055,2,0,P|245:266|263:225,2,84.3750032186509,10|0|10,0:0|0:0|0:0,0:0:0:0:
187,176,37286,2,0,P|200:137|190:84,2,84.3750032186509,10|0|10,0:0|0:0|0:0,0:0:0:0:
144,30,38517,2,0,L|22:32,1,112.500004291535,12|8,0:0|0:0,0:0:0:0:
277,68,39440,2,0,L|347:65,1,56.2500021457673,10|8,0:0|0:2,0:0:0:0:
424,194,40363,5,8,0:0:0:0:
340,291,40671,1,10,0:0:0:0:
378,359,40978,2,0,P|324:374|271:354,1,112.500004291535,8|10,0:0|0:0,0:0:0:0:
226,291,41901,1,8,0:0:0:0:
95,256,42209,6,0,P|69:215|80:152,1,112.500004291535,2|0,0:0|0:0,0:0:0:0:
152,192,43132,1,0,0:0:0:0:
152,112,43440,2,0,P|208:112|248:72,1,112.500004291535,2|0,0:0|0:0,0:0:0:0:
400,24,44671,1,2,0:0:0:0:
488,160,45286,1,0,0:0:0:0:
440,224,45594,5,0,0:0:0:0:
416,256,45748,1,0,0:0:0:0:
392,288,45901,2,0,P|353:289|318:320,2,84.3750032186509,2|0|0,0:0|0:0|0:0,0:0:0:0:
384,368,47132,1,2,0:0:0:0:
264,368,47594,2,0,P|216:368|192:344,1,84.3750032186509
144,280,48363,1,2,0:0:0:0:
88,136,48978,6,0,L|32:136,2,56.2500021457673,0|0|2,0:0|0:0|0:0,0:0:0:0:
208,40,50209,1,0,0:0:0:0:
288,40,50517,1,0,0:0:0:0:
368,40,50824,1,2,0:0:0:0:
480,152,51440,6,0,P|448:152|432:136,2,56.2500021457673,0|0|2,0:0|0:0|0:0,0:0:0:0:
464,272,52517,2,0,P|440:304|392:296,1,84.3750032186509
344,248,53286,2,0,P|288:248|248:288,2,112.500004291535,2|0|2,0:0|0:0|0:0,0:0:0:0:
208,176,55132,5,0,0:0:0:0:
256,112,55440,1,0,0:0:0:0:
304,48,55748,2,0,L|392:48,2,84.3750032186509,2|0|0,0:0|0:0|0:0,0:0:0:0:
208,48,56978,2,0,L|120:48,2,84.3750032186509,2|0|0,0:0|0:0|0:0,0:0:0:0:
256,112,58209,6,0,L|256:224,1,112.500004291535,2|0,0:0|0:0,0:0:0:0:
256,224,59132,1,0,0:0:0:0:
207,286,59440,2,0,P|256:309|307:287,3,112.500004291535,2|0|2|0,0:0|0:0|0:0|0:0,0:0:0:0:
371,232,61594,1,0,0:0:0:0:
420,163,61901,6,0,L|380:123,1,56.2500021457673,0|0,0:0|0:0,0:0:0:0:
311,79,62517,2,0,P|255:79|207:39,3,112.500004291535,2|2|0|2,0:0|0:0|0:0|0:0,0:0:0:0:
88,144,64978,5,0,0:0:0:0:
24,192,65286,1,0,0:0:0:0:
88,240,65594,2,0,P|144:240|192:280,2,112.500004291535,0|2|0,0:0|0:0|0:0,0:0:0:0:
24,192,67132,1,0,0:0:0:0:
88,144,67440,2,0,P|144:144|192:104,2,112.500004291535,2|2|2,0:0|0:0|0:0,0:0:0:0:
240,192,69286,5,2,0:0:0:0:
320,192,69594,1,8,0:0:0:0:
400,192,69901,2,0,P|400:136|448:104,2,112.500004291535,0|0|2,0:0|0:0|0:0,0:0:0:0:
320,328,71748,5,0,0:0:0:0:
256,288,72055,1,0,0:0:0:0:
192,328,72363,2,0,P|136:328|88:296,2,112.500004291535,2|2|2,0:0|0:0|0:0,0:0:0:0:
256,184,74209,5,2,0:0:0:0:
296,112,74517,1,8,0:0:0:0:
336,40,74824,2,0,P|392:40|432:80,2,112.500004291535,0|0|2,0:0|0:0|0:0,0:0:0:0:
296,112,76363,1,0,0:0:0:0:
216,112,76671,2,0,P|160:112|112:80,2,112.500004291535,2|0|2,0:0|0:0|0:0,0:0:0:0:
256,264,78517,5,2,0:0:0:0:
328,296,78824,1,0,0:0:0:0:
400,328,79132,2,0,P|456:328|480:280,1,112.500004291535,0|0,0:0|0:0,0:0:0:0:
480,208,80055,1,8,0:0:0:0:
480,128,80363,6,0,P|424:128|376:96,3,112.500004291535,2|2|6|0,0:2|0:0|0:0|0:0,0:0:0:0:
328,40,82517,1,0,0:0:0:0:
248,40,82824,2,0,P|192:40|152:80,2,112.500004291535,2|0|6,0:0|0:0|0:0,0:0:0:0:
400,192,85286,5,2,0:0:0:0:
400,192,85440,1,0,1:0:0:0:
240,44,85747,1,0,0:0:0:0:
240,44,85901,2,0,L|225:82,1,37.5,0|0,0:0|0:0,0:0:0:0:
233,154,86209,2,0,L|218:192,1,37.5,0|0,0:0|0:0,0:0:0:0:
195,260,86517,5,4,0:0:0:0:
35,195,86824,1,0,0:0:0:0:
25,219,86978,1,0,0:0:0:0:
16,243,87132,1,0,1:0:0:0:
84,322,87440,1,0,0:0:0:0:
176,271,87748,6,0,L|193:237,1,37.5,2|0,0:0|0:0,0:0:0:0:
263,315,88209,2,0,L|246:349,1,37.5,0|0,0:0|1:0,0:0:0:0:
350,361,88671,1,0,0:0:0:0:
450,331,88978,6,0,P|410:287|401:234,1,112.5,2|0,0:0|0:0,0:0:0:0:
406,183,89594,1,0,1:0:0:0:
475,14,89901,1,0,0:0:0:0:
356,70,90209,2,0,P|293:118|218:126,1,150,2|0,0:0|1:0,0:0:0:0:
38,223,91132,1,0,0:0:0:0:
35,249,91286,1,0,0:0:0:0:
33,275,91440,6,0,P|96:323|171:331,1,150,4|0,0:0|1:0,0:0:0:0:
234,199,92363,1,0,0:0:0:0:
326,249,92671,2,0,P|346:298|396:331,1,112.5,2|0,0:0|0:0,0:0:0:0:
443,348,93286,1,0,1:0:0:0:
503,210,93594,6,0,P|474:142|407:111,1,150,2|0,0:0|0:0,0:0:0:0:
324,10,94517,2,0,P|295:78|228:109,1,150,0|0,1:0|0:0,0:0:0:0:
100,31,95440,1,0,0:0:0:0:
100,31,95594,1,0,0:0:0:0:
100,31,95748,1,0,1:0:0:0:
16,137,96055,1,0,0:0:0:0:
51,267,96363,6,0,P|98:327|168:344,1,150,4|0,0:0|1:0,0:0:0:0:
256,192,97286,1,0,0:0:0:0:
345,39,97594,2,0,P|414:57|461:117,1,150,2|0,0:0|1:0,0:0:0:0:
408,207,98517,1,0,0:0:0:0:
422,310,98824,6,0,P|451:333|488:343,1,75,2|0,0:0|0:0,0:0:0:0:
325,271,99440,2,0,P|288:281|259:304,1,75,0|0,1:0|0:0,0:0:0:0:
15,348,100055,2,0,P|78:305|150:294,1,150,2|0,0:0|1:0,0:0:0:0:
215,39,100978,1,0,0:0:0:0:
212,65,101132,1,0,0:0:0:0:
209,91,101286,6,0,P|272:134|344:145,1,150,2|0,0:0|1:0,0:0:0:0:
448,147,102209,1,0,0:0:0:0:
468,251,102517,2,0,P|475:291|489:323,2,75,2|0|0,0:0|0:0|1:0,0:0:0:0:
352,52,103440,2,0,P|417:78|448:150,1,150,2|2,0:0|0:0,0:0:0:0:
342,149,104363,2,0,P|333:184|305:211,1,75,4|0,1:0|0:0,0:0:0:0:
217,290,104978,5,0,0:0:0:0:
206,305,105132,1,0,0:0:0:0:
196,321,105286,2,0,L|171:357,1,37.5,0|0,1:0|1:0,0:0:0:0:
106,305,105594,1,0,1:0:0:0:
95,320,105748,1,0,1:0:0:0:
85,336,105901,2,0,L|60:372,1,37.5,0|0,1:0|0:0,0:0:0:0:
17,244,106209,6,0,P|7:187|22:133,1,112.5,4|0,1:2|0:0,0:0:0:0:
36,84,106824,1,0,1:0:0:0:
176,30,107132,1,0,0:0:0:0:
290,127,107440,2,0,P|343:106|371:53,2,112.5,2|0|0,0:0|0:0|0:0,0:0:0:0:
73,167,108671,6,0,P|50:193|30:229,1,75,2|0,0:0|0:0,0:0:0:0:
122,355,109286,2,0,P|145:329|165:294,1,75,0|0,1:0|0:0,0:0:0:0:
312,256,109901,2,0,P|373:306|444:316,1,150,2|0,0:0|1:0,0:0:0:0:
469,133,110824,1,0,0:0:0:0:
473,107,110978,1,0,0:0:0:0:
478,82,111132,6,0,P|467:150|408:208,1,150,2|0,0:0|1:0,0:0:0:0:
335,86,112055,1,0,0:0:0:0:
244,138,112363,2,0,P|208:142|170:138,1,75,2|0,0:0|0:0,0:0:0:0:
84,76,112978,1,0,1:0:0:0:
149,230,113286,6,0,P|80:208|6:231,1,150,2|0,0:0|0:0,0:0:0:0:
218,360,114209,2,0,P|256:365|294:361,1,75,0|0,1:0|0:0,0:0:0:0:
461,261,114824,1,0,0:0:0:0:
472,276,114978,1,0,0:0:0:0:
482,292,115132,2,0,L|507:328,1,37.5,0|0,1:0|1:0,0:0:0:0:
350,246,115440,1,0,1:0:0:0:
361,261,115594,1,0,1:0:0:0:
371,277,115748,2,0,L|396:313,1,37.5,0|0,1:0|1:0,0:0:0:0:
496,160,116055,6,0,P|488:101|462:56,1,112.5,4|0,1:2|0:0,0:0:0:0:
428,14,116671,1,0,1:0:0:0:
329,127,116978,1,8,0:0:0:0:
183,91,117286,2,0,P|134:150|61:162,1,150,2|0,0:0|1:0,0:0:0:0:
264,280,118209,2,0,P|313:339|382:351,1,150,2|8,0:0|0:0,0:0:0:0:
179,235,119132,2,0,P|167:269|143:300,1,75,0|0,1:0|0:0,0:0:0:0:
382,352,119748,2,0,P|394:318|418:287,1,75,2|0,0:0|0:0,0:0:0:0:
500,221,120363,1,4,1:2:0:0:
475,118,120671,1,0,0:0:0:0:
303,33,120978,6,0,P|237:76|163:77,1,150,2|0,0:0|1:0,0:0:0:0:
104,232,122209,2,0,P|125:304|186:346,1,150,2|0,0:0|1:0,0:0:0:0:
327,345,123132,2,0,P|387:304|408:232,1,150,2|0,0:0|0:0,0:0:0:0:
347,145,124055,2,0,P|381:128|417:126,1,75,2|0,0:0|0:0,0:0:0:0:
261,92,124671,2,0,P|226:109|190:115,2,75,0|0|2,0:0|0:0|0:0,0:0:0:0:
367,55,125594,1,0,0:0:0:0:
408,154,125884,5,6,0:0:0:0:
303,195,126187,1,0,0:0:0:0:
324,305,126490,2,0,P|244:305|196:361,3,150,2|2|0|2,0:0|0:0|0:0|0:0,0:0:0:0:
16,256,128914,5,2,0:0:0:0:
88,176,129217,1,0,0:0:0:0:
160,96,129520,2,0,P|240:96|288:48,2,150,2|0|2,0:0|0:0|0:0,0:0:0:0:
88,176,131035,1,0,0:0:0:0:
160,256,131338,6,0,P|232:256|296:304,1,150,0|2,0:0|0:0,0:0:0:0:
472,192,132550,1,2,0:0:0:0:
293,83,133156,2,0,P|232:128|160:128,2,150,2|2|2,0:0|0:0|0:0,0:0:0:0:
48,192,135580,5,2,0:0:0:0:
112,280,135883,1,0,0:0:0:0:
176,360,136187,2,0,P|256:360|288:296,1,150,0|2,0:0|0:0,0:0:0:0:
280,96,137399,6,0,L|432:96,2,150,0|2|2,0:0|0:0|0:0,0:0:0:0:
72,96,139217,1,2,0:0:0:0:
176,280,139823,1,0,0:0:0:0:
384,280,140429,5,2,0:0:0:0:
280,280,140732,1,0,0:0:0:0:
176,280,141035,2,0,P|96:280|48:224,3,150,0|2|0|2,0:0|0:0|0:0|0:0,0:0:0:0:
168,56,143459,1,0,0:0:0:0:
376,56,144065,5,2,0:0:0:0:
464,112,144368,1,0,0:0:0:0:
464,216,144671,2,0,P|384:216|352:272,1,150,0|2,0:0|0:0,0:0:0:0:
448,312,145580,1,0,0:0:0:0:
352,352,145883,2,0,L|200:352,1,150,0|2,0:0|0:0,0:0:0:0:
64,192,147096,1,0,0:0:0:0:
202,32,147702,6,0,L|352:32,1,150,2|2,0:0|0:0,0:0:0:0:
456,32,148611,1,0,0:0:0:0:
408,128,148914,2,0,P|328:128|296:192,2,150,2|0|2,0:0|0:0|0:0,0:0:0:0:
472,208,150429,1,0,0:0:0:0:
400,288,150732,2,0,P|320:288|280:344,2,150,0|2|0,0:0|0:0|0:0,0:0:0:0:
216,192,152550,5,2,0:0:0:0:
112,192,152853,1,0,0:0:0:0:
8,192,153156,2,0,P|8:112|56:64,2,150,0|2|0,0:0|0:0|0:0,0:0:0:0:
160,336,154974,5,2,0:0:0:0:
256,296,155277,1,0,0:0:0:0:
352,336,155580,2,0,P|408:280|408:208,2,150,0|2|0,0:0|0:0|0:0,0:0:0:0:
256,152,157399,1,2,0:0:0:0:
176,80,157702,1,0,0:0:0:0:
72,80,158005,2,0,P|72:160|128:200,2,150,2|2|0,0:0|0:0|0:0,0:0:0:0:
184,256,159823,5,2,0:0:0:0:
256,336,160126,1,0,0:0:0:0:
328,256,160429,2,0,L|480:256,2,150,0|2|0,0:0|0:0|0:0,0:0:0:0:
256,56,162247,1,2,0:0:0:0:
96,192,162853,2,0,L|16:192,2,75,2|0|2,0:0|0:0|0:0,0:0:0:0:
256,192,163611,12,0,165883,0:0:0:0:
359,193,167096,6,0,P|375:140|350:75,2,112.5,6|0|8,0:0|0:0|0:0,0:0:0:0:
417,29,168308,2,0,L|501:42,2,75,2|0|0,0:0|0:0|0:0,0:0:0:0:
288,140,169217,1,8,0:0:0:0:
288,140,169368,1,0,0:0:0:0:
288,140,169520,2,0,B|213:138|225:103|136:102,1,150,8|0,0:0|0:0,0:0:0:0:
56,212,170429,6,0,L|39:177,2,37.5,8|0|2,0:0|0:0|0:0,0:0:0:0:
186,361,171187,2,0,P|205:312|190:242,1,112.5,2|2,0:0|0:0,0:0:0:0:
126,298,171944,2,0,L|295:278,1,150,8|0,0:0|0:0,0:0:0:0:
343,326,172853,1,2,0:0:0:0:
417,290,173156,6,0,B|430:242|405:197|405:197|414:164|449:164,1,150,2|2,0:0|0:0,0:0:0:0:
396,95,174065,1,8,0:0:0:0:
442,164,174368,2,0,B|421:210|334:210|309:152,1,150,8|0,0:0|0:0,0:0:0:0:
396,95,175277,1,8,0:0:0:0:
480,305,175580,6,0,P|494:271|492:225,1,75,2|0,0:0|0:0,0:0:0:0:
336,333,176187,2,0,P|373:323|402:283,1,75
262,376,176793,6,0,B|215:375|188:356|188:356|158:375|105:376,1,150,12|2,0:0|0:0,0:0:0:0:
48,333,177702,1,8,0:0:0:0:
99,268,178005,2,0,B|114:218|114:218|89:193|87:154|111:113,1,150,2|0,0:0|0:0,0:0:0:0:
176,166,178914,1,8,0:0:0:0:
23,239,179217,5,8,0:0:0:0:
202,251,179520,1,0,0:0:0:0:
202,251,179671,1,8,0:0:0:0:
202,251,179823,2,0,B|248:247|284:185|258:125,1,150,0|2,0:0|0:0,0:0:0:0:
193,85,180732,1,0,0:0:0:0:
193,85,180883,1,2,0:0:0:0:
344,161,181187,1,0,0:0:0:0:
344,161,181338,2,0,P|383:167|428:152,1,75,2|8,0:0|0:0,0:0:0:0:
442,236,181944,5,0,0:0:0:0:
442,236,182096,1,2,0:0:0:0:
466,88,182399,1,0,0:0:0:0:
466,88,182550,2,0,L|522:164,1,75,2|2,1:2|0:0,0:0:0:0:
384,320,183459,5,2,0:0:0:0:
256,342,183762,1,8,0:0:0:0:
310,284,184065,2,0,B|309:235|309:235|305:226|305:226|302:161,1,112.5,8|0,0:0|0:0,0:0:0:0:
230,161,184671,2,0,L|235:81,1,75,2|8,0:0|0:0,0:0:0:0:
151,219,185277,6,0,L|74:216,1,75,2|0,0:0|0:0,0:0:0:0:
304,173,185883,2,0,L|391:175,1,75,2|2,0:0|0:0,0:0:0:0:
242,253,186490,1,4,0:0:0:0:
119,306,201035,6,0,L|49:299,2,56.2500021457673,2|0|0,0:0|0:0|0:0,0:0:0:0:
200,282,201944,1,0,0:0:0:0:
255,218,202247,2,0,P|270:165|254:103,2,112.500004291535,2|0|2,0:0|0:0|0:0,0:0:0:0:
119,306,204065,1,2,0:0:0:0:
257,110,204671,1,0,0:0:0:0:
440,320,205883,5,2,0:0:0:0:
430,316,207096,1,2,0:0:0:0:
420,313,208308,5,2,0:0:0:0:
338,334,208611,1,0,0:0:0:0:
260,300,208914,2,0,B|218:325|162:290|164:252,1,112.500004291535,2|2,0:0|0:0,0:0:0:0:
242,222,209823,1,0,0:0:0:0:
322,245,210126,2,0,B|354:277|356:332|312:365,1,112.500004291535,2|2,0:0|0:0,0:0:0:0:
178,167,211035,2,0,P|198:147|231:140,1,56.2500021457673,0|2,0:0|0:0,0:0:0:0:
260,300,211641,1,0,0:0:0:0:
242,222,211944,1,2,0:0:0:0:
256,192,212096,12,2,215580,0:0:0:0:
290,185,216793,6,0,P|264:239|220:268,1,112.500004291535,2|0,0:0|0:0,0:0:0:0:
160,218,217702,1,0,0:0:0:0:
144,295,218005,2,0,P|95:312|54:361,2,112.500004291535,2|0|0,0:0|0:0|0:0,0:0:0:0:
371,77,220429,6,0,P|396:93|421:102,1,56.2500021457673,2|0,0:0|0:0,0:0:0:0:
499,111,221035,1,0,0:0:0:0:
429,252,221641,2,0,P|400:302|353:327,2,112.500004291535,2|0|0,0:0|0:0|0:0,0:0:0:0:
186,340,223459,2,0,P|215:290|262:265,2,112.500004291535
87,217,225277,6,0,L|71:160,1,56.2500021457673,2|0,0:0|0:0,0:0:0:0:
49,87,225883,1,0,0:0:0:0:
184,6,226490,1,2,0:0:0:0:
328,69,227096,1,0,0:0:0:0:
328,69,227702,2,0,P|375:101|430:108,2,112.500004291535,2|0|0,0:0|0:0|0:0,0:0:0:0:
253,207,229520,6,0,L|232:266,2,56.2500021457673,0|0|2,0:0|0:0|0:0,0:0:0:0:
97,185,230732,2,0,P|57:226|39:277,1,112.500004291535
187,330,231944,2,0,L|166:389,2,56.2500021457673,0|0|2,0:0|0:0|0:0,0:0:0:0:
343,343,233156,2,0,L|400:357,1,56.2500021457673
472,330,233762,2,0,P|495:290|495:222,1,112.500004291535,2|0,0:0|0:0,0:0:0:0:
256,192,234974,12,10,237399,0:0:0:0:
256,136,238611,6,0,L|256:248,1,112.500004291535
256,192,239823,12,6,242247,0:0:0:0:
256,40,243459,6,0,L|256:80,1,28.1250010728836,2|0,3:2|1:0,0:0:0:0:
256,144,243914,1,0,0:0:0:0:
256,184,244065,1,0,1:0:0:0:
256,224,244217,1,0,1:0:0:0:
256,264,244368,1,0,1:0:0:0:
256,304,244520,1,0,1:0:0:0:
256,344,244671,6,0,P|312:344|352:304,1,112.500004291535,4|0,0:1|1:0,0:0:0:0:
384,232,245580,1,8,0:0:0:0:
384,152,245883,2,0,P|336:152|312:128,1,84.3750032186509,2|0,0:0|0:0,0:0:0:0:
288,96,246490,1,0,1:0:0:0:
232,40,246793,1,8,0:0:0:0:
152,40,247096,6,0,P|96:40|56:88,1,112.500004291535,2|0,0:0|1:0,0:0:0:0:
56,160,248005,1,8,0:0:0:0:
136,160,248308,1,2,0:0:0:0:
96,232,248611,1,0,0:0:0:0:
176,232,248914,1,0,1:0:0:0:
136,304,249217,5,2,0:0:0:0:
160,336,249368,1,0,0:0:0:0:
184,368,249520,2,0,P|240:368|280:328,1,112.500004291535,4|0,0:0|1:0,0:0:0:0:
296,256,250429,1,8,0:0:0:0:
368,280,250732,2,0,P|408:240|408:200,1,84.3750032186509,2|0,0:0|0:0,0:0:0:0:
408,176,251338,1,0,1:0:0:0:
360,112,251641,1,8,0:0:0:0:
280,112,251944,6,0,P|224:112|176:72,2,112.500004291535,2|0|2,0:0|1:0|0:0,0:0:0:0:
360,112,253459,1,0,0:0:0:0:
408,176,253762,1,0,1:0:0:0:
360,240,254065,1,8,0:0:0:0:
328,264,254217,1,0,0:0:0:0:
296,288,254368,6,0,L|240:288,1,56.2500021457673,4|2,0:0|0:0,0:0:0:0:
160,288,254974,1,0,1:0:0:0:
80,288,255277,1,8,0:0:0:0:
32,224,255580,2,0,P|32:168|72:128,1,112.500004291535,2|0,0:0|1:0,0:0:0:0:
136,88,256490,1,8,0:0:0:0:
216,88,256793,6,0,P|288:88|320:48,1,112.500004291535,2|0,0:0|1:0,0:0:0:0:
248,16,257702,1,2,0:0:0:0:
168,16,258005,1,2,0:0:0:0:
136,88,258308,1,0,0:0:0:0:
56,88,258611,1,0,1:0:0:0:
96,152,258914,1,8,0:0:0:0:
96,192,259065,1,0,0:0:0:0:
96,232,259217,6,0,P|96:296|144:336,1,112.500004291535,2|0,0:0|1:0,0:0:0:0:
208,328,260126,2,0,L|256:288,1,56.2500021457673,8|2,0:0|0:0,0:0:0:0:
312,240,260732,1,2,0:0:0:0:
368,296,261035,2,0,L|416:248,1,56.2500021457673,0|0,1:0|0:0,0:0:0:0:
464,200,261641,2,0,P|464:136|432:96,2,112.500004291535,2|4|2,0:0|1:0|0:0,0:0:0:0:
408,256,263156,1,0,1:0:0:0:
376,280,263308,1,0,1:0:0:0:
344,304,263459,2,0,P|312:304|296:320,1,56.2500021457673,0|8,1:0|1:2,0:0:0:0:
224,360,264065,6,0,P|160:360|128:320,1,112.500004291535,4|0,0:0|1:0,0:0:0:0:
88,264,264974,1,8,0:0:0:0:
88,184,265277,2,0,P|144:184|176:128,2,112.500004291535,2|2|2,0:0|1:2|0:0,0:0:0:0:
104,104,266793,1,8,0:0:0:0:
176,64,267096,1,0,1:0:0:0:
256,64,267399,6,0,L|312:96,1,56.2500021457673,8|2,0:0|0:0,0:0:0:0:
432,184,268156,1,0,0:0:0:0:
432,184,268308,1,0,1:0:0:0:
384,248,268611,1,8,0:0:0:0:
360,280,268762,1,0,0:0:0:0:
336,312,268914,6,0,P|280:312|248:264,1,112.500004291535,0|0,0:0|1:0,0:0:0:0:
216,200,269823,1,8,0:0:0:0:
168,264,270126,1,2,0:0:0:0:
88,264,270429,2,0,L|48:224,1,56.2500021457673,2|0,0:0|1:0,0:0:0:0:
48,144,271035,1,8,0:0:0:0:
104,88,271338,2,0,P|176:88|208:48,1,112.500004291535,2|0,0:0|1:0,0:0:0:0:
360,64,272550,6,0,L|392:96,1,28.1250010728836,2|0,0:0|0:0,0:0:0:0:
408,112,272853,1,0,1:0:0:0:
432,144,273005,1,0,1:0:0:0:
456,176,273156,1,0,1:0:0:0:
480,208,273308,1,0,1:0:0:0:
504,240,273459,1,0,1:0:0:0:
472,264,273611,1,0,1:0:0:0:
440,288,273762,6,0,P|387:292|355:339,2,112.500004291535,4|0|2,0:0|1:0|0:0,0:0:0:0:
432,368,275277,1,0,0:0:0:0:
504,336,275580,1,2,1:2:0:0:
440,288,275883,1,8,0:0:0:0:
472,216,276187,2,0,P|472:152|424:104,2,112.500004291535,8|2|2,0:0|1:2|0:0,0:0:0:0:
400,184,277702,5,0,0:0:0:0:
328,144,278005,2,0,P|272:144|224:88,2,112.500004291535,4|8|2,0:0|0:0|1:2,0:0:0:0:
304,71,279520,1,8,0:0:0:0:
280,39,279671,1,0,0:0:0:0:
240,32,279823,2,0,P|184:32|136:80,1,112.500004291535,2|0,0:0|1:0,0:0:0:0:
136,144,280732,1,8,0:0:0:0:
280,183,281338,5,8,0:0:0:0:
312,256,281641,2,0,P|312:312|264:360,1,112.500004291535,4|2,1:0|0:0,0:0:0:0:
195,295,282550,1,0,1:0:0:0:
195,295,282702,1,0,1:0:0:0:
195,295,282853,1,0,1:0:0:0:
93,330,283156,5,0,0:0:0:0:
93,330,283459,2,0,B|121:289|93:236|93:236|111:199|143:230,1,150,4|0,0:1|0:0,0:0:0:0:
202,177,284368,1,8,0:0:0:0:
275,213,284671,2,0,P|332:223|391:212,2,112.5,8|2|8,0:0|0:0|0:0,0:0:0:0:
204,256,285883,2,0,L|229:346,1,75,2|8,0:0|0:0,0:0:0:0:
273,136,286490,2,0,L|302:57,1,75,2|8,0:2|0:0,0:0:0:0:
174,166,287096,6,0,B|100:213|29:164|29:164,1,150,8|0,0:0|0:0,0:0:0:0:
85,103,288005,1,8,0:0:0:0:
85,103,288156,1,0,0:0:0:0:
85,103,288308,2,0,L|101:277,1,150,12|2,0:0|0:2,0:0:0:0:
178,232,289217,1,8,0:0:0:0:
156,311,289520,6,0,B|86:375|4:316|4:316,1,150,2|2,0:0|0:2,0:0:0:0:
233,346,290429,2,0,B|266:322|315:335,1,75,8|2,0:0|0:0,0:0:0:0:
322,337,290883,1,2,0:0:0:0:
340,341,291035,1,8,0:0:0:0:
358,345,291187,1,0,0:0:0:0:
376,349,291338,6,0,L|344:219,1,112.5,0|0,0:0|0:0,0:0:0:0:
358,223,291944,2,0,B|403:171|474:201|474:201,2,112.5,8|2|8,0:0|0:0|0:0,0:0:0:0:
267,137,293156,6,0,B|232:168|182:139,1,75,12|2,0:0|0:0,0:0:0:0:
109,81,293762,1,0,0:0:0:0:
109,81,294368,1,2,0:0:0:0:
245,249,294671,2,0,P|211:236|160:242,1,75,0|0,0:0|0:0,0:0:0:0:
106,178,295277,1,8,0:0:0:0:
45,234,295580,2,0,B|23:292|56:335|56:335|32:353|4:340,1,150,2|2,0:0|0:2,0:0:0:0:
119,272,296490,5,8,0:0:0:0:
192,233,296793,2,0,L|319:225,1,112.5,8|2,0:0|0:2,0:0:0:0:
322,234,297399,2,0,P|356:176|324:98,1,150,0|8,0:0|0:0,0:0:0:0:
267,166,298308,1,2,0:0:0:0:
239,88,298611,2,0,B|165:97,1,75,0|8,0:0|0:0,0:0:0:0:
129,22,299217,2,0,B|42:32,2,75,8|2|0,0:0|0:0|0:0,0:0:0:0:
7,105,300126,2,0,B|-32:182|21:247,1,150,8|2,0:0|0:0,0:0:0:0:
117,332,301035,1,4,0:2:0:0:
250,286,301338,5,2,0:0:0:0:
264,269,301490,1,0,0:0:0:0:
278,252,301641,2,0,L|312:209,1,37.5,2|0,0:0|0:0,0:0:0:0:
250,286,301944,5,0,0:0:0:0:
259,306,302096,1,0,0:0:0:0:
268,326,302247,2,0,L|287:360,1,37.5,8|8,0:3|0:3,0:3:0:0:
250,286,302550,5,4,0:3:0:0:
227,286,302702,1,4,0:3:0:0:
204,286,302853,2,0,B|152:273|136:304|78:281,1,112.5,4|2,0:0|0:0,0:0:0:0:
78,298,303459,2,0,L|57:215,1,75,0|8,0:0|0:0,0:0:0:0:
141,96,304065,6,0,B|197:122|250:97|250:97,2,112.5,8|2|8,0:0|0:0|0:0,0:0:0:0:
99,167,305277,2,0,L|120:246,1,75,8|8,0:0|0:0,0:0:0:0:
57,95,305884,2,0,L|-12:65,1,75,2|8,0:2|0:0,0:0:0:0:
217,79,306490,6,0,B|273:56|327:82|327:82,2,112.5,8|2|8,0:0|0:0|0:0,0:0:0:0:
213,85,307550,1,0,0:0:0:0:
209,91,307702,2,0,L|188:171,1,75,8|2,0:0|0:0,0:0:0:0:
235,313,308308,2,0,L|265:198,1,112.5,2|0,0:2|0:0,0:0:0:0:
272,191,308914,2,0,P|311:174|358:187,1,75,8|2,0:0|0:0,0:0:0:0:
155,298,309520,2,0,P|117:311|75:303,1,75,0|8,0:0|0:0,0:0:0:0:
26,207,310126,6,0,L|31:252,2,37.5,8|0|2,0:0|0:0|0:0,0:0:0:0:
108,160,310580,2,0,L|101:198,2,37.5,0|2|0,0:0|0:2|0:0,0:0:0:0:
208,152,311035,2,0,L|184:181,2,37.5,8|0|8,0:0|0:0|0:2,0:0:0:0:
300,194,311490,2,0,L|265:206,2,37.5,0|8|4,0:0|0:3|0:3,0:0:0:0:
335,271,311944,2,0,P|343:326|308:383,1,112.5,4|2,0:3|0:2,0:0:0:0:
415,282,312550,5,4,0:0:0:0:
300,194,312853,1,2,0:0:0:0:
435,129,313156,2,0,B|433:91|461:61|461:61|419:60|390:23,1,150,2|2,0:2|0:0,0:0:0:0:
253,109,314368,5,2,0:2:0:0:
203,174,314671,2,0,B|143:164|73:174|73:174,1,112.5,2|0,0:0|0:0,0:0:0:0:
90,172,315277,1,8,0:0:0:0:
253,109,315580,2,0,P|256:64|250:15,1,75,0|8,0:0|0:0,0:0:0:0:
35,239,316187,2,0,P|32:284|38:333,1,75,8|2,0:0|0:0,0:0:0:0:
188,366,316793,6,0,P|191:323|184:270,1,75,4|8,0:2|0:0,0:0:0:0:
193,209,317399,2,0,P|156:165|178:221,1,150,12|0,0:0|0:0,0:0:0:0:
299,195,318308,1,8,0:0:0:0:
343,346,318611,1,2,0:0:0:0:
347,331,318762,1,0,0:0:0:0:
352,316,318914,1,2,0:2:0:0:
357,301,319065,1,0,0:0:0:0:
362,286,319217,1,2,0:2:0:0:
367,271,319368,1,0,0:0:0:0:
372,256,319520,1,2,0:2:0:0:
377,241,319671,1,0,0:0:0:0:
383,226,319823,6,0,B|412:181|394:143|394:143|343:127|348:51|348:51|291:77|249:48,1,300,6|6,0:0|0:0,0:0:0:0:
