osu file format v14

[General]
AudioFilename: yuki. - Spring Signal.mp3
AudioLeadIn: 0
PreviewTime: 63560
Countdown: 0
SampleSet: Normal
StackLeniency: 1
Mode: 1
LetterboxInBreaks: 0
EpilepsyWarning: 1
WidescreenStoryboard: 1

[Editor]
Bookmarks: 1280,6469,11658,16847,22036,27225,32415,37604,42793,53171,58361,63550,73928,84307,94685,105063,110252,115442,120631,125496
DistanceSpacing: 1
BeatDivisor: 4
GridSize: 32
TimelineZoom: 1.8

[Metadata]
Title:Spring Signal
TitleUnicode:Spring Signal
Artist:yuki.
ArtistUnicode:yuki.
Creator:xfraczynho
Version:Kantan
Source:osu!
Tags:featured artist gaston_2199 Nardoxyribonucleic
BeatmapID:1343329
BeatmapSetID:632888

[Difficulty]
HPDrainRate:7
CircleSize:2
OverallDifficulty:3
ApproachRate:10
SliderMultiplier:1.4
SliderTickRate:1

[Events]
//Background and Video events
0,0,"bg.jpg",0,0
//Break Periods
//Storyboard Layer 0 (Background)
//Storyboard Layer 1 (Fail)
//Storyboard Layer 2 (Pass)
//Storyboard Layer 3 (Foreground)
//Storyboard Sound Samples

[TimingPoints]
1280,324.324324324324,4,1,0,70,1,0
22036,-100,4,1,0,60,0,0
42793,-100,4,1,0,70,0,0
53171,-100,4,1,0,80,0,0
63550,-100,4,1,0,100,0,1
105063,-100,4,1,0,70,0,0

[HitObjects]
224,288,1280,5,4,0:0:0:0:
224,288,2577,1,0,0:0:0:0:
256,192,3550,1,8,0:0:0:0:
224,288,3875,1,0,0:0:0:0:
224,288,5172,1,0,0:0:0:0:
224,288,6144,1,8,0:0:0:0:
224,288,6469,1,0,0:0:0:0:
224,288,7767,1,0,0:0:0:0:
256,192,8739,1,8,0:0:0:0:
224,288,9064,1,0,0:0:0:0:
224,288,10361,1,0,0:0:0:0:
224,288,11334,1,8,0:0:0:0:
256,128,11658,1,12,0:0:0:0:
256,192,12955,1,8,0:0:0:0:
256,192,13279,1,8,0:0:0:0:
256,192,13604,1,0,0:0:0:0:
256,192,14252,1,8,0:0:0:0:
256,192,15550,1,8,0:0:0:0:
256,192,15874,1,8,0:0:0:0:
256,192,16198,1,0,0:0:0:0:
256,192,16847,1,12,0:0:0:0:
256,192,18144,1,4,0:0:0:0:
256,192,19442,1,12,0:0:0:0:
256,192,20090,1,0,0:0:0:0:
256,192,20739,1,8,0:0:0:0:
256,192,21063,1,8,0:0:0:0:
256,192,21388,1,0,0:0:0:0:
256,192,21712,1,8,0:0:0:0:
256,192,22036,1,4,0:0:0:0:
256,192,23334,1,0,0:0:0:0:
256,192,24631,1,8,0:0:0:0:
256,192,25928,1,0,0:0:0:0:
256,192,27225,1,0,0:0:0:0:
256,192,28523,1,0,0:0:0:0:
256,192,29171,1,0,0:0:0:0:
256,192,29820,1,8,0:0:0:0:
256,192,31117,1,0,0:0:0:0:
256,192,32415,1,0,0:0:0:0:
256,192,33712,1,0,0:0:0:0:
256,192,35009,1,8,0:0:0:0:
256,192,36307,1,0,0:0:0:0:
256,192,37604,1,0,0:0:0:0:
256,192,38901,1,0,0:0:0:0:
256,192,40198,1,8,0:0:0:0:
256,192,41496,12,0,42469,0:0:0:0:
256,192,42793,5,4,0:0:0:0:
256,192,44090,1,0,0:0:0:0:
256,192,45388,1,8,0:0:0:0:
256,192,46685,1,8,0:0:0:0:
256,192,47334,1,8,0:0:0:0:
256,192,47982,1,0,0:0:0:0:
256,192,49279,1,0,0:0:0:0:
256,192,49928,1,0,0:0:0:0:
256,192,50577,1,8,0:0:0:0:
256,192,51874,1,0,0:0:0:0:
256,192,52523,1,8,0:0:0:0:
256,192,52847,1,8,0:0:0:0:
256,192,53171,1,4,0:0:0:0:
256,192,54469,1,0,0:0:0:0:
256,192,54793,1,0,0:0:0:0:
256,192,55766,1,8,0:0:0:0:
256,192,57063,1,8,0:0:0:0:
256,192,57712,1,8,0:0:0:0:
256,192,58036,1,8,0:0:0:0:
256,192,58361,1,4,0:0:0:0:
256,192,59009,1,0,0:0:0:0:
256,192,59658,1,4,0:0:0:0:
256,192,60956,1,0,0:0:0:0:
256,192,61604,1,0,0:0:0:0:
256,192,62252,1,12,0:0:0:0:
256,192,62901,1,8,0:0:0:0:
256,192,63226,1,8,0:0:0:0:
256,192,63550,1,4,0:0:0:0:
256,192,64847,1,8,0:0:0:0:
256,192,65171,1,8,0:0:0:0:
256,192,65496,1,8,0:0:0:0:
256,192,66144,1,8,0:0:0:0:
256,192,67442,1,0,0:0:0:0:
256,192,67766,1,0,0:0:0:0:
256,192,68090,1,0,0:0:0:0:
256,192,68739,1,0,0:0:0:0:
256,192,70036,1,0,0:0:0:0:
256,192,70361,1,8,0:0:0:0:
256,192,70685,1,0,0:0:0:0:
256,192,71334,1,8,0:0:0:0:
256,192,72631,1,8,0:0:0:0:
256,192,72955,1,0,0:0:0:0:
256,192,73279,1,8,0:0:0:0:
256,192,73928,1,4,0:0:0:0:
256,192,75225,1,8,0:0:0:0:
256,192,75549,1,8,0:0:0:0:
256,192,75874,1,8,0:0:0:0:
256,192,76522,1,8,0:0:0:0:
256,192,77820,1,0,0:0:0:0:
256,192,78144,1,0,0:0:0:0:
256,192,78468,1,0,0:0:0:0:
256,192,79117,1,0,0:0:0:0:
256,192,80414,1,0,0:0:0:0:
256,192,80739,1,8,0:0:0:0:
256,192,81063,1,0,0:0:0:0:
256,192,81712,1,8,0:0:0:0:
256,192,83009,1,8,0:0:0:0:
256,192,83333,1,0,0:0:0:0:
256,192,83657,1,8,0:0:0:0:
256,192,84307,1,4,0:0:0:0:
256,192,85604,1,8,0:0:0:0:
256,192,85928,1,8,0:0:0:0:
256,192,86253,1,8,0:0:0:0:
256,192,86901,1,8,0:0:0:0:
256,192,88199,1,0,0:0:0:0:
256,192,88523,1,8,0:0:0:0:
256,192,88847,1,0,0:0:0:0:
256,192,89496,1,0,0:0:0:0:
256,192,90793,1,0,0:0:0:0:
256,192,91118,1,0,0:0:0:0:
256,192,91442,1,8,0:0:0:0:
256,192,92091,1,8,0:0:0:0:
256,192,93388,1,8,0:0:0:0:
256,192,93712,1,8,0:0:0:0:
256,192,94036,1,0,0:0:0:0:
256,192,94685,1,4,0:0:0:0:
256,192,95982,1,0,0:0:0:0:
256,192,96306,1,8,0:0:0:0:
256,192,96631,1,0,0:0:0:0:
256,192,97279,1,8,0:0:0:0:
256,192,98577,1,8,0:0:0:0:
256,192,98901,1,0,0:0:0:0:
256,192,99225,1,8,0:0:0:0:
256,192,99874,1,0,0:0:0:0:
256,192,101171,1,0,0:0:0:0:
256,192,101496,1,0,0:0:0:0:
256,192,101820,1,8,0:0:0:0:
256,192,102469,1,8,0:0:0:0:
256,192,103766,1,8,0:0:0:0:
256,192,104090,1,8,0:0:0:0:
256,192,104415,1,8,0:0:0:0:
256,192,104739,1,8,0:0:0:0:
224,288,105063,1,4,0:0:0:0:
224,288,106360,1,0,0:0:0:0:
256,160,107334,1,8,0:0:0:0:
224,288,107658,1,0,0:0:0:0:
224,288,108955,1,0,0:0:0:0:
224,288,109927,1,8,0:0:0:0:
224,288,110252,1,0,0:0:0:0:
224,288,111550,1,0,0:0:0:0:
256,160,112523,1,8,0:0:0:0:
224,288,112847,1,0,0:0:0:0:
224,288,114144,1,0,0:0:0:0:
224,288,115117,1,8,0:0:0:0:
256,128,115441,1,12,0:0:0:0:
256,192,116738,1,8,0:0:0:0:
256,192,117062,1,8,0:0:0:0:
256,192,117387,1,0,0:0:0:0:
256,192,118035,1,8,0:0:0:0:
256,192,119333,1,8,0:0:0:0:
256,192,119657,1,8,0:0:0:0:
256,192,119982,1,0,0:0:0:0:
256,192,120630,1,12,0:0:0:0:
256,192,121927,1,4,0:0:0:0:
256,192,123225,1,12,0:0:0:0:
256,192,123873,1,0,0:0:0:0:
256,192,124522,1,8,0:0:0:0:
256,192,124846,1,8,0:0:0:0:
256,192,125171,1,0,0:0:0:0:
256,192,125495,1,8,0:0:0:0:
