osu file format v14

[General]
AudioFilename: yuki. - Spring Signal.mp3
AudioLeadIn: 0
PreviewTime: 63560
Countdown: 0
SampleSet: Normal
StackLeniency: 1
Mode: 1
LetterboxInBreaks: 0
EpilepsyWarning: 1
WidescreenStoryboard: 1

[Editor]
Bookmarks: 1280,6469,11658,16847,22036,27225,32415,37604,42793,53171,63550,73928,84307,94685,105063,115442,120631,125496
DistanceSpacing: 1
BeatDivisor: 4
GridSize: 32
TimelineZoom: 2.3

[Metadata]
Title:Spring Signal
TitleUnicode:Spring Signal
Artist:yuki.
ArtistUnicode:yuki.
Creator:xfraczynho
Version:2199's Muzukashii
Source:osu!
Tags:featured artist gaston_2199 Nardoxyribonucleic
BeatmapID:1343326
BeatmapSetID:632888

[Difficulty]
HPDrainRate:5
CircleSize:2
OverallDifficulty:5
ApproachRate:10
SliderMultiplier:1.4
SliderTickRate:1

[Events]
//Background and Video events
0,0,"bg.jpg",0,0
//Break Periods
//Storyboard Layer 0 (Background)
//Storyboard Layer 1 (Fail)
//Storyboard Layer 2 (Pass)
//Storyboard Layer 3 (Foreground)
//Storyboard Sound Samples

[TimingPoints]
1280,324.324324324324,4,1,0,70,1,0
22036,-100,4,1,0,50,0,0
42793,-100,4,1,0,60,0,0
53171,-100,4,1,0,80,0,0
63550,-100,4,1,0,100,0,1
105063,-100,4,1,0,70,0,0

[HitObjects]
256,192,1280,5,4,0:0:0:0:
256,192,1604,1,8,0:0:0:0:
256,192,1766,1,0,0:0:0:0:
256,192,2090,1,0,0:0:0:0:
256,192,2252,1,8,0:0:0:0:
256,192,2415,1,0,0:0:0:0:
256,192,2577,1,0,0:0:0:0:
256,192,2901,1,8,0:0:0:0:
256,192,3388,1,0,0:0:0:0:
256,192,3550,1,8,0:0:0:0:
256,192,3874,1,0,0:0:0:0:
256,192,4198,1,8,0:0:0:0:
256,192,4847,1,8,0:0:0:0:
256,192,5171,1,0,0:0:0:0:
256,192,5496,1,8,0:0:0:0:
256,192,5658,1,0,0:0:0:0:
256,192,5982,1,0,0:0:0:0:
256,192,6144,1,8,0:0:0:0:
256,192,6469,1,0,0:0:0:0:
256,192,6793,1,8,0:0:0:0:
256,192,6955,1,0,0:0:0:0:
256,192,7279,1,0,0:0:0:0:
256,192,7442,1,8,0:0:0:0:
256,192,7604,1,0,0:0:0:0:
256,192,7766,1,0,0:0:0:0:
256,192,8090,1,8,0:0:0:0:
256,192,8577,1,0,0:0:0:0:
256,192,8739,1,8,0:0:0:0:
256,192,9063,1,0,0:0:0:0:
256,192,9388,1,8,0:0:0:0:
256,192,10036,1,8,0:0:0:0:
256,192,10361,1,0,0:0:0:0:
256,192,10685,1,8,0:0:0:0:
256,192,10847,1,0,0:0:0:0:
256,192,11171,1,0,0:0:0:0:
256,192,11334,1,8,0:0:0:0:
256,192,11658,5,4,0:0:0:0:
256,192,11982,1,8,0:0:0:0:
256,192,12307,1,8,0:0:0:0:
256,192,12469,1,0,0:0:0:0:
256,192,12631,1,8,0:0:0:0:
256,192,12955,1,0,0:0:0:0:
256,192,13279,1,8,0:0:0:0:
256,192,13604,1,0,0:0:0:0:
256,192,13766,1,0,0:0:0:0:
256,192,13928,1,8,0:0:0:0:
256,192,14252,1,0,0:0:0:0:
256,192,14577,1,8,0:0:0:0:
256,192,14901,1,8,0:0:0:0:
256,192,15063,1,0,0:0:0:0:
256,192,15225,1,8,0:0:0:0:
256,192,15550,1,0,0:0:0:0:
256,192,15874,1,8,0:0:0:0:
256,192,16198,1,0,0:0:0:0:
256,192,16361,1,0,0:0:0:0:
256,192,16523,1,8,0:0:0:0:
256,192,16847,1,12,0:0:0:0:
256,192,17171,1,8,0:0:0:0:
256,192,17334,1,0,0:0:0:0:
256,192,17658,1,0,0:0:0:0:
256,192,17820,1,8,0:0:0:0:
256,192,17982,1,8,0:0:0:0:
256,192,18144,1,4,0:0:0:0:
256,192,18469,1,8,0:0:0:0:
256,192,18955,1,0,0:0:0:0:
256,192,19117,1,8,0:0:0:0:
256,192,19279,1,0,0:0:0:0:
256,192,19442,1,0,0:0:0:0:
256,192,19523,1,0,0:0:0:0:
256,192,19604,1,0,0:0:0:0:
256,192,19766,1,0,0:0:0:0:
256,192,19928,1,8,0:0:0:0:
256,192,20090,1,0,0:0:0:0:
256,192,20415,1,0,0:0:0:0:
256,192,20577,1,8,0:0:0:0:
64,192,20739,2,0,L|512:192,1,420
256,192,22036,1,4,0:0:0:0:
256,192,22361,1,8,0:0:0:0:
256,192,22847,1,0,0:0:0:0:
256,192,23009,1,8,0:0:0:0:
256,192,23334,1,0,0:0:0:0:
256,192,23982,1,0,0:0:0:0:
256,192,24307,1,8,0:0:0:0:
256,192,24631,1,0,0:0:0:0:
256,192,25279,1,0,0:0:0:0:
256,192,25604,1,8,0:0:0:0:
256,192,25766,1,0,0:0:0:0:
256,192,26090,1,8,0:0:0:0:
256,192,26415,1,0,0:0:0:0:
256,192,26739,1,8,0:0:0:0:
256,192,26901,1,0,0:0:0:0:
256,192,27225,1,0,0:0:0:0:
256,192,27550,1,8,0:0:0:0:
256,192,28036,1,8,0:0:0:0:
256,192,28198,1,8,0:0:0:0:
256,192,28523,1,0,0:0:0:0:
256,192,29171,1,8,0:0:0:0:
256,192,29496,1,8,0:0:0:0:
256,192,29820,1,0,0:0:0:0:
256,192,30469,1,0,0:0:0:0:
256,192,30793,1,8,0:0:0:0:
256,192,30955,1,0,0:0:0:0:
256,192,31279,1,8,0:0:0:0:
256,192,31604,1,0,0:0:0:0:
256,192,31928,1,8,0:0:0:0:
256,192,32090,1,0,0:0:0:0:
256,192,32415,1,0,0:0:0:0:
256,192,32740,1,8,0:0:0:0:
256,192,33226,1,0,0:0:0:0:
256,192,33388,1,8,0:0:0:0:
256,192,33712,1,0,0:0:0:0:
256,192,34361,1,0,0:0:0:0:
256,192,34686,1,8,0:0:0:0:
256,192,35009,1,0,0:0:0:0:
256,192,35658,1,0,0:0:0:0:
256,192,35983,1,8,0:0:0:0:
256,192,36145,1,0,0:0:0:0:
256,192,36469,1,8,0:0:0:0:
256,192,36794,1,0,0:0:0:0:
256,192,37118,1,8,0:0:0:0:
256,192,37280,1,0,0:0:0:0:
256,192,37604,1,0,0:0:0:0:
256,192,37929,1,8,0:0:0:0:
256,192,38415,1,8,0:0:0:0:
256,192,38577,1,8,0:0:0:0:
256,192,38901,1,0,0:0:0:0:
256,192,39550,1,8,0:0:0:0:
256,192,39875,1,8,0:0:0:0:
256,192,40198,1,0,0:0:0:0:
256,192,40848,1,0,0:0:0:0:
256,192,41172,5,8,0:0:0:0:
256,192,41334,1,0,0:0:0:0:
256,192,41496,12,0,42469,0:0:0:0:
256,192,42793,5,4,0:0:0:0:
256,192,43279,1,8,0:0:0:0:
256,192,43766,1,0,0:0:0:0:
256,192,44090,1,0,0:0:0:0:
256,192,44577,1,8,0:0:0:0:
256,192,45063,1,8,0:0:0:0:
256,192,45388,1,0,0:0:0:0:
256,192,45874,1,8,0:0:0:0:
256,192,46361,1,8,0:0:0:0:
256,192,46685,1,8,0:0:0:0:
256,192,47009,1,0,0:0:0:0:
256,192,47334,1,8,0:0:0:0:
256,192,47658,1,0,0:0:0:0:
256,192,47982,5,0,0:0:0:0:
256,192,48469,1,8,0:0:0:0:
256,192,48955,1,0,0:0:0:0:
256,192,49279,1,0,0:0:0:0:
256,192,49766,1,8,0:0:0:0:
256,192,50252,1,8,0:0:0:0:
256,192,50577,1,0,0:0:0:0:
256,192,51063,1,0,0:0:0:0:
256,192,51550,1,8,0:0:0:0:
256,192,52198,1,8,0:0:0:0:
256,192,52523,1,8,0:0:0:0:
256,192,52847,1,0,0:0:0:0:
256,192,53171,1,4,0:0:0:0:
256,192,53496,1,8,0:0:0:0:
256,192,53820,1,8,0:0:0:0:
256,192,53982,1,0,0:0:0:0:
256,192,54144,1,8,0:0:0:0:
256,192,54469,1,0,0:0:0:0:
256,192,54793,1,8,0:0:0:0:
256,192,55117,1,0,0:0:0:0:
256,192,55279,1,0,0:0:0:0:
256,192,55442,1,8,0:0:0:0:
256,192,55604,1,8,0:0:0:0:
256,192,55766,1,0,0:0:0:0:
256,192,56090,1,8,0:0:0:0:
256,192,56415,1,8,0:0:0:0:
256,192,56577,1,0,0:0:0:0:
256,192,56739,1,8,0:0:0:0:
256,192,57063,1,0,0:0:0:0:
256,192,57388,1,8,0:0:0:0:
256,192,57712,1,0,0:0:0:0:
256,192,57874,1,0,0:0:0:0:
256,192,58036,1,8,0:0:0:0:
256,192,58198,1,0,0:0:0:0:
256,192,58361,1,4,0:0:0:0:
256,192,58685,1,8,0:0:0:0:
256,192,58848,1,0,0:0:0:0:
256,192,59009,1,8,0:0:0:0:
256,192,59334,1,0,0:0:0:0:
256,192,59496,1,0,0:0:0:0:
256,192,59658,1,12,0:0:0:0:
256,192,59982,1,8,0:0:0:0:
256,192,60144,1,0,0:0:0:0:
256,192,60307,1,8,0:0:0:0:
256,192,60631,1,8,0:0:0:0:
256,192,60793,1,8,0:0:0:0:
256,192,60956,1,0,0:0:0:0:
256,192,61037,1,0,0:0:0:0:
256,192,61118,1,0,0:0:0:0:
256,192,61280,1,0,0:0:0:0:
256,192,61442,1,8,0:0:0:0:
256,192,61604,1,0,0:0:0:0:
256,192,61929,1,0,0:0:0:0:
256,192,62091,1,8,0:0:0:0:
64,192,62253,2,0,L|512:192,1,420
256,192,63550,5,4,0:0:0:0:
256,192,63874,1,8,0:0:0:0:
256,192,64036,1,0,0:0:0:0:
256,192,64361,1,0,0:0:0:0:
256,192,64523,1,8,0:0:0:0:
256,192,64685,1,0,0:0:0:0:
256,192,65009,1,0,0:0:0:0:
256,192,65171,1,8,0:0:0:0:
256,192,65496,1,0,0:0:0:0:
256,192,65658,1,0,0:0:0:0:
256,192,65820,1,8,0:0:0:0:
256,192,65982,1,0,0:0:0:0:
256,192,66307,1,8,0:0:0:0:
256,192,66469,1,8,0:0:0:0:
256,192,66631,1,0,0:0:0:0:
256,192,66955,1,0,0:0:0:0:
256,192,67117,1,8,0:0:0:0:
256,192,67279,1,8,0:0:0:0:
256,192,67604,1,0,0:0:0:0:
256,192,67766,1,0,0:0:0:0:
256,192,68090,1,8,0:0:0:0:
256,192,68252,1,0,0:0:0:0:
256,192,68415,1,8,0:0:0:0:
256,192,68577,1,8,0:0:0:0:
256,192,68739,1,0,0:0:0:0:
256,192,68901,1,0,0:0:0:0:
256,192,69063,1,8,0:0:0:0:
256,192,69225,1,0,0:0:0:0:
256,192,69550,1,0,0:0:0:0:
256,192,69712,1,8,0:0:0:0:
256,192,69874,1,0,0:0:0:0:
256,192,70198,1,8,0:0:0:0:
256,192,70361,1,0,0:0:0:0:
256,192,70685,1,8,0:0:0:0:
256,192,70847,1,0,0:0:0:0:
256,192,71009,1,8,0:0:0:0:
256,192,71171,1,0,0:0:0:0:
256,192,71496,1,0,0:0:0:0:
256,192,71658,1,8,0:0:0:0:
256,192,71820,1,0,0:0:0:0:
256,192,72144,1,0,0:0:0:0:
256,192,72307,1,8,0:0:0:0:
256,192,72469,1,8,0:0:0:0:
256,192,72550,1,8,0:0:0:0:
256,192,72631,1,8,0:0:0:0:
256,192,72793,1,0,0:0:0:0:
256,192,72955,1,8,0:0:0:0:
256,192,73117,1,0,0:0:0:0:
256,192,73442,1,0,0:0:0:0:
256,192,73604,1,8,0:0:0:0:
256,192,73766,1,8,0:0:0:0:
256,192,73928,1,4,0:0:0:0:
256,192,74252,1,8,0:0:0:0:
256,192,74415,1,0,0:0:0:0:
256,192,74739,1,0,0:0:0:0:
256,192,74901,1,8,0:0:0:0:
256,192,75063,1,8,0:0:0:0:
256,192,75388,1,0,0:0:0:0:
256,192,75550,1,8,0:0:0:0:
256,192,75874,1,0,0:0:0:0:
256,192,76036,1,0,0:0:0:0:
256,192,76198,1,8,0:0:0:0:
256,192,76361,1,8,0:0:0:0:
256,192,76685,1,8,0:0:0:0:
256,192,76847,1,8,0:0:0:0:
256,192,77009,1,0,0:0:0:0:
256,192,77334,1,0,0:0:0:0:
256,192,77496,1,8,0:0:0:0:
256,192,77658,1,8,0:0:0:0:
256,192,77982,1,0,0:0:0:0:
256,192,78144,1,0,0:0:0:0:
256,192,78469,1,8,0:0:0:0:
256,192,78631,1,0,0:0:0:0:
256,192,78793,1,8,0:0:0:0:
256,192,78955,1,0,0:0:0:0:
256,192,79117,1,0,0:0:0:0:
256,192,79279,1,8,0:0:0:0:
256,192,79442,1,8,0:0:0:0:
256,192,79604,1,0,0:0:0:0:
256,192,79928,1,0,0:0:0:0:
256,192,80090,1,8,0:0:0:0:
256,192,80252,1,0,0:0:0:0:
256,192,80577,1,0,0:0:0:0:
256,192,80739,1,8,0:0:0:0:
256,192,81063,1,8,0:0:0:0:
256,192,81225,1,0,0:0:0:0:
256,192,81388,1,8,0:0:0:0:
256,192,81550,1,8,0:0:0:0:
256,192,81874,1,0,0:0:0:0:
256,192,82036,1,8,0:0:0:0:
256,192,82198,1,0,0:0:0:0:
256,192,82523,1,0,0:0:0:0:
256,192,82685,1,8,0:0:0:0:
256,192,82847,1,8,0:0:0:0:
256,192,82928,1,8,0:0:0:0:
256,192,83009,1,8,0:0:0:0:
256,192,83171,1,0,0:0:0:0:
256,192,83334,1,8,0:0:0:0:
256,192,83496,1,0,0:0:0:0:
256,192,83820,1,0,0:0:0:0:
256,192,83982,5,8,0:0:0:0:
256,192,84144,1,8,0:0:0:0:
256,192,84307,1,4,0:0:0:0:
256,192,84469,1,0,0:0:0:0:
256,192,84631,1,8,0:0:0:0:
256,192,84793,1,0,0:0:0:0:
256,192,85117,1,0,0:0:0:0:
256,192,85279,1,8,0:0:0:0:
256,192,85442,1,0,0:0:0:0:
256,192,85766,1,0,0:0:0:0:
256,192,85928,1,8,0:0:0:0:
256,192,86090,1,8,0:0:0:0:
256,192,86171,1,8,0:0:0:0:
256,192,86252,1,8,0:0:0:0:
256,192,86415,1,0,0:0:0:0:
256,192,86577,1,8,0:0:0:0:
256,192,86739,1,0,0:0:0:0:
256,192,87063,1,8,0:0:0:0:
256,192,87225,1,8,0:0:0:0:
256,192,87388,1,0,0:0:0:0:
256,192,87712,1,0,0:0:0:0:
256,192,87874,1,8,0:0:0:0:
256,192,88036,1,8,0:0:0:0:
256,192,88361,1,0,0:0:0:0:
256,192,88523,1,8,0:0:0:0:
256,192,88685,1,0,0:0:0:0:
256,192,88766,1,0,0:0:0:0:
256,192,88847,1,0,0:0:0:0:
256,192,89009,1,0,0:0:0:0:
256,192,89171,1,8,0:0:0:0:
256,192,89334,1,8,0:0:0:0:
256,192,89496,1,0,0:0:0:0:
256,192,89658,1,0,0:0:0:0:
256,192,89820,1,8,0:0:0:0:
256,192,89982,1,0,0:0:0:0:
256,192,90307,1,0,0:0:0:0:
256,192,90469,1,8,0:0:0:0:
256,192,90631,1,0,0:0:0:0:
256,192,90955,1,0,0:0:0:0:
256,192,91117,1,8,0:0:0:0:
256,192,91279,1,8,0:0:0:0:
256,192,91361,1,8,0:0:0:0:
256,192,91442,1,8,0:0:0:0:
256,192,91604,1,0,0:0:0:0:
256,192,91766,1,8,0:0:0:0:
256,192,91928,1,0,0:0:0:0:
256,192,92252,1,0,0:0:0:0:
256,192,92415,1,8,0:0:0:0:
256,192,92577,1,0,0:0:0:0:
256,192,92901,1,0,0:0:0:0:
256,192,93063,1,8,0:0:0:0:
256,192,93225,1,8,0:0:0:0:
256,192,93307,1,8,0:0:0:0:
256,192,93388,1,8,0:0:0:0:
256,192,93550,1,0,0:0:0:0:
256,192,93712,1,8,0:0:0:0:
256,192,93874,1,0,0:0:0:0:
256,192,94198,1,0,0:0:0:0:
256,192,94361,1,8,0:0:0:0:
256,192,94523,1,8,0:0:0:0:
256,192,94685,1,4,0:0:0:0:
256,192,94847,1,8,0:0:0:0:
256,192,95009,1,8,0:0:0:0:
256,192,95171,1,0,0:0:0:0:
256,192,95496,1,0,0:0:0:0:
256,192,95658,1,8,0:0:0:0:
256,192,95820,1,8,0:0:0:0:
256,192,96144,1,0,0:0:0:0:
256,192,96307,1,8,0:0:0:0:
256,192,96469,1,8,0:0:0:0:
256,192,96550,1,8,0:0:0:0:
256,192,96631,1,8,0:0:0:0:
256,192,96793,1,0,0:0:0:0:
256,192,96955,1,8,0:0:0:0:
256,192,97117,1,8,0:0:0:0:
256,192,97442,1,8,0:0:0:0:
256,192,97604,1,8,0:0:0:0:
256,192,97766,1,0,0:0:0:0:
256,192,98090,1,0,0:0:0:0:
256,192,98252,1,8,0:0:0:0:
256,192,98415,1,8,0:0:0:0:
256,192,98739,1,0,0:0:0:0:
256,192,98901,1,8,0:0:0:0:
256,192,99063,1,0,0:0:0:0:
256,192,99144,1,0,0:0:0:0:
256,192,99225,1,0,0:0:0:0:
256,192,99388,1,0,0:0:0:0:
256,192,99550,1,8,0:0:0:0:
256,192,99712,1,0,0:0:0:0:
256,192,99874,1,0,0:0:0:0:
256,192,100036,1,8,0:0:0:0:
256,192,100198,1,8,0:0:0:0:
256,192,100361,1,0,0:0:0:0:
256,192,100685,1,0,0:0:0:0:
256,192,100847,1,8,0:0:0:0:
256,192,101009,1,0,0:0:0:0:
256,192,101334,1,0,0:0:0:0:
256,192,101496,1,8,0:0:0:0:
256,192,101658,1,8,0:0:0:0:
256,192,101739,1,8,0:0:0:0:
256,192,101820,1,8,0:0:0:0:
256,192,101982,1,0,0:0:0:0:
256,192,102144,1,8,0:0:0:0:
256,192,102307,1,8,0:0:0:0:
256,192,102631,1,0,0:0:0:0:
256,192,102793,1,8,0:0:0:0:
256,192,102955,1,0,0:0:0:0:
256,192,103279,1,0,0:0:0:0:
256,192,103442,1,8,0:0:0:0:
256,192,103604,1,8,0:0:0:0:
256,192,103685,1,8,0:0:0:0:
256,192,103766,1,8,0:0:0:0:
256,192,103928,1,0,0:0:0:0:
256,192,104090,1,8,0:0:0:0:
256,192,104252,1,0,0:0:0:0:
256,192,104334,1,0,0:0:0:0:
256,192,104415,1,0,0:0:0:0:
256,192,104577,1,0,0:0:0:0:
256,192,104739,5,8,0:0:0:0:
256,192,104901,1,8,0:0:0:0:
256,192,105063,5,4,0:0:0:0:
256,192,105388,1,8,0:0:0:0:
256,192,105550,1,0,0:0:0:0:
256,192,105874,1,0,0:0:0:0:
256,192,106036,1,8,0:0:0:0:
256,192,106198,1,0,0:0:0:0:
256,192,106361,1,0,0:0:0:0:
256,192,106685,1,8,0:0:0:0:
256,192,107171,1,0,0:0:0:0:
256,192,107334,1,8,0:0:0:0:
256,192,107658,1,0,0:0:0:0:
256,192,107982,1,8,0:0:0:0:
256,192,108631,1,8,0:0:0:0:
256,192,108955,1,0,0:0:0:0:
256,192,109279,1,8,0:0:0:0:
256,192,109442,1,0,0:0:0:0:
256,192,109766,1,0,0:0:0:0:
256,192,109928,1,8,0:0:0:0:
256,192,110252,1,0,0:0:0:0:
256,192,110577,1,8,0:0:0:0:
256,192,110739,1,0,0:0:0:0:
256,192,111063,1,0,0:0:0:0:
256,192,111225,1,8,0:0:0:0:
256,192,111388,1,0,0:0:0:0:
256,192,111550,1,0,0:0:0:0:
256,192,111874,1,8,0:0:0:0:
256,192,112361,1,0,0:0:0:0:
256,192,112523,1,8,0:0:0:0:
256,192,112847,1,0,0:0:0:0:
256,192,113171,1,8,0:0:0:0:
256,192,113820,1,8,0:0:0:0:
256,192,114144,1,0,0:0:0:0:
256,192,114469,1,8,0:0:0:0:
256,192,114631,1,0,0:0:0:0:
256,192,114955,1,0,0:0:0:0:
256,192,115117,1,8,0:0:0:0:
256,192,115442,5,4,0:0:0:0:
256,192,115766,1,8,0:0:0:0:
256,192,116090,1,8,0:0:0:0:
256,192,116252,1,0,0:0:0:0:
256,192,116415,1,8,0:0:0:0:
256,192,116739,1,0,0:0:0:0:
256,192,117063,1,8,0:0:0:0:
256,192,117388,1,0,0:0:0:0:
256,192,117550,1,0,0:0:0:0:
256,192,117712,1,8,0:0:0:0:
256,192,118036,1,0,0:0:0:0:
256,192,118361,1,8,0:0:0:0:
256,192,118685,1,8,0:0:0:0:
256,192,118847,1,0,0:0:0:0:
256,192,119009,1,8,0:0:0:0:
256,192,119334,1,0,0:0:0:0:
256,192,119658,1,8,0:0:0:0:
256,192,119982,1,0,0:0:0:0:
256,192,120144,1,0,0:0:0:0:
256,192,120307,1,8,0:0:0:0:
256,192,120631,1,12,0:0:0:0:
256,192,120955,1,8,0:0:0:0:
256,192,121118,1,0,0:0:0:0:
256,192,121442,1,0,0:0:0:0:
256,192,121604,1,8,0:0:0:0:
256,192,121766,1,8,0:0:0:0:
256,192,121928,1,4,0:0:0:0:
256,192,122253,1,8,0:0:0:0:
256,192,122739,1,0,0:0:0:0:
256,192,122901,1,8,0:0:0:0:
256,192,123063,1,0,0:0:0:0:
256,192,123226,1,0,0:0:0:0:
256,192,123307,1,0,0:0:0:0:
256,192,123388,1,0,0:0:0:0:
256,192,123550,1,0,0:0:0:0:
256,192,123712,1,8,0:0:0:0:
256,192,123874,1,0,0:0:0:0:
256,192,124199,1,0,0:0:0:0:
256,192,124361,1,8,0:0:0:0:
64,192,124523,2,0,L|512:192,1,420
