osu file format v14

[General]
AudioFilename: yuki. - Spring Signal.mp3
AudioLeadIn: 0
PreviewTime: 63560
Countdown: 0
SampleSet: Normal
StackLeniency: 1
Mode: 1
LetterboxInBreaks: 0
EpilepsyWarning: 1
WidescreenStoryboard: 1

[Editor]
Bookmarks: 1280,6469,11658,16847,22036,27225,32415,37604,42793,53171,63550,73928,84307,94685,105063,115442,120631,125496
DistanceSpacing: 1
BeatDivisor: 4
GridSize: 32
TimelineZoom: 2.3

[Metadata]
Title:Spring Signal
TitleUnicode:Spring Signal
Artist:yuki.
ArtistUnicode:yuki.
Creator:xfraczynho
Version:Inner Oni
Source:osu!
Tags:featured artist gaston_2199 Nardoxyribonucleic
BeatmapID:1343328
BeatmapSetID:632888

[Difficulty]
HPDrainRate:5.5
CircleSize:2
OverallDifficulty:6
ApproachRate:10
SliderMultiplier:1.4
SliderTickRate:1

[Events]
//Background and Video events
0,0,"bg.jpg",0,0
//Break Periods
//Storyboard Layer 0 (Background)
//Storyboard Layer 1 (Fail)
//Storyboard Layer 2 (Pass)
//Storyboard Layer 3 (Foreground)
//Storyboard Sound Samples

[TimingPoints]
1280,324.324324324324,4,1,0,70,1,0
22036,-133.333333333333,4,1,0,60,0,0
42307,-125,4,1,0,60,0,0
42469,-120.481927710843,4,1,0,60,0,0
42631,-114.942528735632,4,1,0,60,0,0
42793,-111.111111111111,4,1,0,70,0,0
52523,-107.52688172043,4,1,0,70,0,0
52847,-103.092783505155,4,1,0,70,0,0
53171,-100,4,1,0,80,0,0
63550,-100,4,1,0,100,0,1
105063,-100,4,1,0,70,0,0

[HitObjects]
256,192,1280,5,4,0:0:0:0:
256,192,1442,1,0,0:0:0:0:
256,192,1523,1,0,0:0:0:0:
256,192,1604,1,8,0:0:0:0:
256,192,1766,1,0,0:0:0:0:
256,192,2090,1,0,0:0:0:0:
256,192,2171,1,0,0:0:0:0:
256,192,2252,1,8,0:0:0:0:
256,192,2415,1,8,0:0:0:0:
256,192,2577,1,0,0:0:0:0:
256,192,2739,1,0,0:0:0:0:
256,192,2820,1,0,0:0:0:0:
256,192,2901,1,8,0:0:0:0:
256,192,3063,1,0,0:0:0:0:
256,192,3225,1,0,0:0:0:0:
256,192,3307,1,0,0:0:0:0:
256,192,3388,1,8,0:0:0:0:
256,192,3469,1,0,0:0:0:0:
256,192,3550,1,8,0:0:0:0:
256,192,3712,1,0,0:0:0:0:
256,192,3874,1,0,0:0:0:0:
256,192,4036,1,0,0:0:0:0:
256,192,4117,1,0,0:0:0:0:
256,192,4198,1,8,0:0:0:0:
256,192,4361,1,0,0:0:0:0:
256,192,4685,1,0,0:0:0:0:
256,192,4766,1,0,0:0:0:0:
256,192,4847,1,8,0:0:0:0:
256,192,5009,1,8,0:0:0:0:
256,192,5171,1,0,0:0:0:0:
256,192,5334,1,0,0:0:0:0:
256,192,5415,1,0,0:0:0:0:
256,192,5496,1,8,0:0:0:0:
256,192,5658,1,0,0:0:0:0:
256,192,5820,1,0,0:0:0:0:
256,192,5901,1,8,0:0:0:0:
256,192,5982,1,8,0:0:0:0:
256,192,6063,1,0,0:0:0:0:
256,192,6144,1,8,0:0:0:0:
256,192,6307,1,0,0:0:0:0:
256,192,6469,1,0,0:0:0:0:
256,192,6631,1,0,0:0:0:0:
256,192,6712,1,0,0:0:0:0:
256,192,6793,1,8,0:0:0:0:
256,192,6955,1,0,0:0:0:0:
256,192,7279,1,0,0:0:0:0:
256,192,7361,1,0,0:0:0:0:
256,192,7442,1,8,0:0:0:0:
256,192,7604,1,8,0:0:0:0:
256,192,7766,1,0,0:0:0:0:
256,192,7928,1,0,0:0:0:0:
256,192,8009,1,0,0:0:0:0:
256,192,8090,1,8,0:0:0:0:
256,192,8252,1,0,0:0:0:0:
256,192,8415,1,0,0:0:0:0:
256,192,8496,1,0,0:0:0:0:
256,192,8577,1,8,0:0:0:0:
256,192,8658,1,0,0:0:0:0:
256,192,8739,1,8,0:0:0:0:
256,192,8901,1,0,0:0:0:0:
256,192,9063,1,0,0:0:0:0:
256,192,9225,1,0,0:0:0:0:
256,192,9307,1,0,0:0:0:0:
256,192,9388,1,8,0:0:0:0:
256,192,9550,1,0,0:0:0:0:
256,192,9874,1,0,0:0:0:0:
256,192,9955,1,0,0:0:0:0:
256,192,10036,1,8,0:0:0:0:
256,192,10198,1,8,0:0:0:0:
256,192,10361,1,0,0:0:0:0:
256,192,10523,1,0,0:0:0:0:
256,192,10604,1,0,0:0:0:0:
256,192,10685,1,8,0:0:0:0:
256,192,10847,1,0,0:0:0:0:
256,192,11009,1,0,0:0:0:0:
256,192,11090,1,8,0:0:0:0:
256,192,11171,1,8,0:0:0:0:
256,192,11252,1,0,0:0:0:0:
256,192,11334,1,8,0:0:0:0:
256,192,11496,1,0,0:0:0:0:
256,192,11658,1,12,0:0:0:0:
256,192,11820,1,0,0:0:0:0:
256,192,11982,1,8,0:0:0:0:
256,192,12144,1,0,0:0:0:0:
256,192,12307,1,8,0:0:0:0:
256,192,12388,1,0,0:0:0:0:
256,192,12469,1,8,0:0:0:0:
256,192,12550,1,0,0:0:0:0:
256,192,12631,1,8,0:0:0:0:
256,192,12793,1,0,0:0:0:0:
256,192,12955,1,8,0:0:0:0:
256,192,13117,1,0,0:0:0:0:
256,192,13279,1,8,0:0:0:0:
256,192,13442,1,0,0:0:0:0:
256,192,13604,1,8,0:0:0:0:
256,192,13685,1,8,0:0:0:0:
256,192,13766,1,0,0:0:0:0:
256,192,13847,1,0,0:0:0:0:
256,192,13928,1,8,0:0:0:0:
256,192,14090,1,0,0:0:0:0:
256,192,14252,1,8,0:0:0:0:
256,192,14415,1,0,0:0:0:0:
256,192,14577,1,8,0:0:0:0:
256,192,14739,1,0,0:0:0:0:
256,192,14901,1,8,0:0:0:0:
256,192,14982,1,0,0:0:0:0:
256,192,15063,1,8,0:0:0:0:
256,192,15144,1,0,0:0:0:0:
256,192,15225,1,8,0:0:0:0:
256,192,15388,1,0,0:0:0:0:
256,192,15550,1,8,0:0:0:0:
256,192,15712,1,0,0:0:0:0:
256,192,15874,1,8,0:0:0:0:
256,192,16036,1,0,0:0:0:0:
256,192,16198,1,8,0:0:0:0:
256,192,16279,1,8,0:0:0:0:
256,192,16361,1,0,0:0:0:0:
256,192,16442,1,0,0:0:0:0:
256,192,16523,1,8,0:0:0:0:
256,192,16685,1,0,0:0:0:0:
256,192,16847,1,12,0:0:0:0:
256,192,17009,1,0,0:0:0:0:
256,192,17171,1,0,0:0:0:0:
256,192,17334,1,0,0:0:0:0:
256,192,17496,1,8,0:0:0:0:
256,192,17658,1,0,0:0:0:0:
256,192,17820,1,0,0:0:0:0:
256,192,17982,1,0,0:0:0:0:
256,192,18144,1,12,0:0:0:0:
256,192,18307,1,0,0:0:0:0:
256,192,18469,1,0,0:0:0:0:
256,192,18631,1,0,0:0:0:0:
256,192,18793,1,8,0:0:0:0:
256,192,18955,1,0,0:0:0:0:
256,192,19117,1,0,0:0:0:0:
256,192,19279,1,0,0:0:0:0:
256,192,19442,1,8,0:0:0:0:
256,192,19523,1,8,0:0:0:0:
256,192,19604,1,8,0:0:0:0:
256,192,19685,1,8,0:0:0:0:
256,192,19766,1,0,0:0:0:0:
256,192,19847,1,0,0:0:0:0:
256,192,19928,1,0,0:0:0:0:
256,192,20009,1,0,0:0:0:0:
256,192,20090,1,8,0:0:0:0:
256,192,20171,1,8,0:0:0:0:
256,192,20252,1,0,0:0:0:0:
256,192,20334,1,0,0:0:0:0:
256,192,20415,1,8,0:0:0:0:
256,192,20496,1,8,0:0:0:0:
256,192,20577,1,0,0:0:0:0:
256,192,20658,1,0,0:0:0:0:
256,192,20739,1,8,0:0:0:0:
256,192,20820,1,0,0:0:0:0:
256,192,20901,1,0,0:0:0:0:
256,192,20982,1,0,0:0:0:0:
256,192,21063,1,8,0:0:0:0:
256,192,21144,1,0,0:0:0:0:
256,192,21225,1,0,0:0:0:0:
256,192,21307,1,0,0:0:0:0:
256,192,21388,1,8,0:0:0:0:
256,192,21469,1,8,0:0:0:0:
256,192,21550,1,8,0:0:0:0:
256,192,21631,1,8,0:0:0:0:
256,192,21712,1,0,0:0:0:0:
256,192,22036,1,4,0:0:0:0:
256,192,22198,1,8,0:0:0:0:
256,192,22361,1,8,0:0:0:0:
256,192,22523,1,0,0:0:0:0:
256,192,22847,1,0,0:0:0:0:
256,192,23009,1,8,0:0:0:0:
256,192,23171,1,8,0:0:0:0:
256,192,23334,1,0,0:0:0:0:
256,192,23496,1,0,0:0:0:0:
256,192,23658,1,8,0:0:0:0:
256,192,23820,1,0,0:0:0:0:
256,192,24144,1,0,0:0:0:0:
256,192,24307,1,8,0:0:0:0:
256,192,24469,1,0,0:0:0:0:
256,192,24631,1,8,0:0:0:0:
256,192,24793,1,8,0:0:0:0:
256,192,24955,1,0,0:0:0:0:
256,192,25117,1,0,0:0:0:0:
256,192,25442,1,8,0:0:0:0:
256,192,25604,1,0,0:0:0:0:
256,192,25766,1,8,0:0:0:0:
256,192,26090,1,8,0:0:0:0:
256,192,26415,1,0,0:0:0:0:
256,192,26739,1,8,0:0:0:0:
256,192,26901,1,0,0:0:0:0:
256,192,27063,1,8,0:0:0:0:
256,192,27225,1,0,0:0:0:0:
256,192,27388,1,8,0:0:0:0:
256,192,27550,1,8,0:0:0:0:
256,192,27712,1,0,0:0:0:0:
256,192,28036,1,0,0:0:0:0:
256,192,28198,1,0,0:0:0:0:
256,192,28361,1,8,0:0:0:0:
256,192,28523,1,8,0:0:0:0:
256,192,28685,1,0,0:0:0:0:
256,192,28847,1,8,0:0:0:0:
256,192,29009,1,0,0:0:0:0:
256,192,29334,1,8,0:0:0:0:
256,192,29496,1,0,0:0:0:0:
256,192,29658,1,8,0:0:0:0:
256,192,29820,1,8,0:0:0:0:
256,192,29982,1,0,0:0:0:0:
256,192,30144,1,8,0:0:0:0:
256,192,30307,1,0,0:0:0:0:
256,192,30631,1,8,0:0:0:0:
256,192,30793,1,0,0:0:0:0:
256,192,30955,1,8,0:0:0:0:
256,192,31279,1,8,0:0:0:0:
256,192,31604,1,0,0:0:0:0:
256,192,31928,1,8,0:0:0:0:
256,192,32090,1,8,0:0:0:0:
256,192,32252,1,0,0:0:0:0:
256,192,32415,1,0,0:0:0:0:
256,192,32577,1,8,0:0:0:0:
256,192,32739,1,8,0:0:0:0:
256,192,32901,1,0,0:0:0:0:
256,192,33225,1,0,0:0:0:0:
256,192,33388,1,0,0:0:0:0:
256,192,33550,1,8,0:0:0:0:
256,192,33712,1,8,0:0:0:0:
256,192,33874,1,8,0:0:0:0:
256,192,34036,1,0,0:0:0:0:
256,192,34198,1,0,0:0:0:0:
256,192,34523,1,0,0:0:0:0:
256,192,34685,1,8,0:0:0:0:
256,192,34847,1,0,0:0:0:0:
256,192,35009,1,8,0:0:0:0:
256,192,35171,1,8,0:0:0:0:
256,192,35334,1,0,0:0:0:0:
256,192,35496,1,0,0:0:0:0:
256,192,35820,1,8,0:0:0:0:
256,192,35982,1,0,0:0:0:0:
256,192,36144,1,8,0:0:0:0:
256,192,36469,1,8,0:0:0:0:
256,192,36793,1,0,0:0:0:0:
256,192,37117,1,8,0:0:0:0:
256,192,37279,1,0,0:0:0:0:
256,192,37442,1,8,0:0:0:0:
256,192,37604,1,0,0:0:0:0:
256,192,37766,1,8,0:0:0:0:
256,192,37928,1,8,0:0:0:0:
256,192,38090,1,0,0:0:0:0:
256,192,38415,1,0,0:0:0:0:
256,192,38577,1,0,0:0:0:0:
256,192,38739,1,8,0:0:0:0:
256,192,38901,1,8,0:0:0:0:
256,192,39063,1,0,0:0:0:0:
256,192,39225,1,8,0:0:0:0:
256,192,39388,1,0,0:0:0:0:
256,192,39712,1,0,0:0:0:0:
256,192,39874,1,0,0:0:0:0:
256,192,40036,1,0,0:0:0:0:
256,192,40198,1,8,0:0:0:0:
256,192,40361,1,0,0:0:0:0:
256,192,40523,1,8,0:0:0:0:
256,192,40685,1,0,0:0:0:0:
256,192,41009,1,8,0:0:0:0:
256,192,41171,1,0,0:0:0:0:
256,192,41334,1,8,0:0:0:0:
256,192,41658,1,8,0:0:0:0:
256,192,41982,1,0,0:0:0:0:
256,192,42307,1,8,0:0:0:0:
256,192,42469,1,8,0:0:0:0:
256,192,42631,1,8,0:0:0:0:
256,192,42793,1,4,0:0:0:0:
256,192,43279,1,8,0:0:0:0:
256,192,43604,1,0,0:0:0:0:
256,192,43766,1,0,0:0:0:0:
256,192,43928,1,8,0:0:0:0:
256,192,44090,1,8,0:0:0:0:
256,192,44577,1,8,0:0:0:0:
256,192,44901,1,8,0:0:0:0:
256,192,45063,1,0,0:0:0:0:
256,192,45225,1,0,0:0:0:0:
256,192,45388,1,8,0:0:0:0:
256,192,45874,1,8,0:0:0:0:
256,192,46198,1,0,0:0:0:0:
256,192,46361,1,8,0:0:0:0:
256,192,46523,1,0,0:0:0:0:
256,192,46685,1,8,0:0:0:0:
256,192,47009,1,0,0:0:0:0:
256,192,47334,1,8,0:0:0:0:
256,192,47658,1,8,0:0:0:0:
256,192,47982,1,0,0:0:0:0:
256,192,48469,1,8,0:0:0:0:
256,192,48793,1,0,0:0:0:0:
256,192,48955,1,0,0:0:0:0:
256,192,49117,1,8,0:0:0:0:
256,192,49279,1,8,0:0:0:0:
256,192,49766,1,0,0:0:0:0:
256,192,49928,1,8,0:0:0:0:
256,192,50090,1,8,0:0:0:0:
256,192,50252,1,0,0:0:0:0:
256,192,50415,1,8,0:0:0:0:
256,192,50577,1,0,0:0:0:0:
256,192,51063,1,8,0:0:0:0:
256,192,51388,1,0,0:0:0:0:
256,192,51550,1,8,0:0:0:0:
256,192,51712,1,0,0:0:0:0:
256,192,51874,1,8,0:0:0:0:
256,192,52198,1,0,0:0:0:0:
256,192,52523,1,8,0:0:0:0:
256,192,52847,1,8,0:0:0:0:
256,192,53171,1,4,0:0:0:0:
256,192,53334,1,0,0:0:0:0:
256,192,53496,1,8,0:0:0:0:
256,192,53577,1,0,0:0:0:0:
256,192,53739,1,0,0:0:0:0:
256,192,53820,1,8,0:0:0:0:
256,192,53982,1,0,0:0:0:0:
256,192,54063,1,0,0:0:0:0:
256,192,54144,1,8,0:0:0:0:
256,192,54307,1,0,0:0:0:0:
256,192,54469,1,0,0:0:0:0:
256,192,54631,1,8,0:0:0:0:
256,192,54793,1,0,0:0:0:0:
256,192,54874,1,8,0:0:0:0:
256,192,55036,1,8,0:0:0:0:
256,192,55117,1,8,0:0:0:0:
256,192,55279,1,8,0:0:0:0:
256,192,55361,1,0,0:0:0:0:
256,192,55442,1,8,0:0:0:0:
256,192,55523,1,8,0:0:0:0:
256,192,55604,1,0,0:0:0:0:
256,192,55766,1,8,0:0:0:0:
256,192,55928,1,0,0:0:0:0:
256,192,56090,1,0,0:0:0:0:
256,192,56171,1,0,0:0:0:0:
256,192,56334,1,8,0:0:0:0:
256,192,56415,1,0,0:0:0:0:
256,192,56577,1,0,0:0:0:0:
256,192,56658,1,0,0:0:0:0:
256,192,56739,1,8,0:0:0:0:
256,192,56901,1,0,0:0:0:0:
256,192,57063,1,8,0:0:0:0:
256,192,57225,1,8,0:0:0:0:
256,192,57388,1,0,0:0:0:0:
256,192,57469,1,8,0:0:0:0:
256,192,57631,1,8,0:0:0:0:
256,192,57712,1,0,0:0:0:0:
256,192,57874,1,8,0:0:0:0:
256,192,57955,1,0,0:0:0:0:
256,192,58036,1,8,0:0:0:0:
256,192,58117,1,8,0:0:0:0:
256,192,58198,1,0,0:0:0:0:
256,192,58361,1,12,0:0:0:0:
256,192,58523,1,0,0:0:0:0:
256,192,58685,1,0,0:0:0:0:
256,192,58847,1,0,0:0:0:0:
256,192,59009,1,8,0:0:0:0:
256,192,59171,1,0,0:0:0:0:
256,192,59334,1,0,0:0:0:0:
256,192,59496,1,0,0:0:0:0:
256,192,59658,1,12,0:0:0:0:
256,192,59820,1,0,0:0:0:0:
256,192,59982,1,0,0:0:0:0:
256,192,60144,1,0,0:0:0:0:
256,192,60307,1,8,0:0:0:0:
256,192,60469,1,0,0:0:0:0:
256,192,60631,1,0,0:0:0:0:
256,192,60793,1,0,0:0:0:0:
256,192,60955,1,8,0:0:0:0:
256,192,61036,1,8,0:0:0:0:
256,192,61117,1,8,0:0:0:0:
256,192,61198,1,8,0:0:0:0:
256,192,61279,1,0,0:0:0:0:
256,192,61361,1,0,0:0:0:0:
256,192,61442,1,0,0:0:0:0:
256,192,61523,1,0,0:0:0:0:
256,192,61604,1,8,0:0:0:0:
256,192,61685,1,0,0:0:0:0:
256,192,61766,1,0,0:0:0:0:
256,192,61847,1,0,0:0:0:0:
256,192,61928,1,8,0:0:0:0:
256,192,62009,1,0,0:0:0:0:
256,192,62090,1,0,0:0:0:0:
256,192,62171,1,0,0:0:0:0:
256,192,62252,1,8,0:0:0:0:
256,192,62334,1,0,0:0:0:0:
256,192,62415,1,0,0:0:0:0:
256,192,62496,1,8,0:0:0:0:
256,192,62577,1,0,0:0:0:0:
256,192,62658,1,0,0:0:0:0:
256,192,62739,1,8,0:0:0:0:
256,192,62820,1,0,0:0:0:0:
256,192,62901,1,8,0:0:0:0:
256,192,62982,1,8,0:0:0:0:
256,192,63063,1,0,0:0:0:0:
256,192,63144,1,0,0:0:0:0:
256,192,63225,1,8,0:0:0:0:
256,192,63550,1,4,0:0:0:0:
256,192,63712,1,0,0:0:0:0:
256,192,63793,1,0,0:0:0:0:
256,192,63874,1,8,0:0:0:0:
256,192,64036,1,0,0:0:0:0:
256,192,64117,1,0,0:0:0:0:
256,192,64279,1,8,0:0:0:0:
256,192,64361,1,0,0:0:0:0:
256,192,64523,1,0,0:0:0:0:
256,192,64604,1,0,0:0:0:0:
256,192,64685,1,8,0:0:0:0:
256,192,64847,1,8,0:0:0:0:
256,192,65009,1,0,0:0:0:0:
256,192,65090,1,0,0:0:0:0:
256,192,65171,1,8,0:0:0:0:
256,192,65334,1,0,0:0:0:0:
256,192,65415,1,8,0:0:0:0:
256,192,65577,1,8,0:0:0:0:
256,192,65658,1,8,0:0:0:0:
256,192,65820,1,8,0:0:0:0:
256,192,65901,1,8,0:0:0:0:
256,192,65982,1,0,0:0:0:0:
256,192,66144,1,8,0:0:0:0:
256,192,66307,1,0,0:0:0:0:
256,192,66388,1,0,0:0:0:0:
256,192,66469,1,8,0:0:0:0:
256,192,66631,1,0,0:0:0:0:
256,192,66712,1,0,0:0:0:0:
256,192,66874,1,8,0:0:0:0:
256,192,66955,1,0,0:0:0:0:
256,192,67117,1,0,0:0:0:0:
256,192,67198,1,0,0:0:0:0:
256,192,67279,1,8,0:0:0:0:
256,192,67442,1,0,0:0:0:0:
256,192,67604,1,0,0:0:0:0:
256,192,67685,1,0,0:0:0:0:
256,192,67766,1,8,0:0:0:0:
256,192,67928,1,0,0:0:0:0:
256,192,68009,1,0,0:0:0:0:
256,192,68090,1,8,0:0:0:0:
256,192,68252,1,8,0:0:0:0:
256,192,68334,1,0,0:0:0:0:
256,192,68415,1,8,0:0:0:0:
256,192,68496,1,8,0:0:0:0:
256,192,68577,1,0,0:0:0:0:
256,192,68739,1,0,0:0:0:0:
256,192,68901,1,0,0:0:0:0:
256,192,68982,1,0,0:0:0:0:
256,192,69063,1,8,0:0:0:0:
256,192,69225,1,0,0:0:0:0:
256,192,69307,1,0,0:0:0:0:
256,192,69469,1,8,0:0:0:0:
256,192,69550,1,0,0:0:0:0:
256,192,69712,1,0,0:0:0:0:
256,192,69793,1,0,0:0:0:0:
256,192,69874,1,8,0:0:0:0:
256,192,70036,1,8,0:0:0:0:
256,192,70198,1,0,0:0:0:0:
256,192,70279,1,0,0:0:0:0:
256,192,70361,1,8,0:0:0:0:
256,192,70523,1,0,0:0:0:0:
256,192,70604,1,8,0:0:0:0:
256,192,70766,1,8,0:0:0:0:
256,192,70847,1,8,0:0:0:0:
256,192,71009,1,8,0:0:0:0:
256,192,71090,1,8,0:0:0:0:
256,192,71171,1,0,0:0:0:0:
256,192,71334,1,8,0:0:0:0:
256,192,71496,1,0,0:0:0:0:
256,192,71577,1,0,0:0:0:0:
256,192,71658,1,8,0:0:0:0:
256,192,71820,1,0,0:0:0:0:
256,192,71901,1,0,0:0:0:0:
256,192,72063,1,8,0:0:0:0:
256,192,72144,1,0,0:0:0:0:
256,192,72307,1,8,0:0:0:0:
256,192,72388,1,8,0:0:0:0:
256,192,72469,1,8,0:0:0:0:
256,192,72631,1,0,0:0:0:0:
256,192,72793,1,0,0:0:0:0:
256,192,72874,1,0,0:0:0:0:
256,192,72955,1,8,0:0:0:0:
256,192,73117,1,0,0:0:0:0:
256,192,73279,1,8,0:0:0:0:
256,192,73361,1,0,0:0:0:0:
256,192,73442,1,0,0:0:0:0:
256,192,73523,1,0,0:0:0:0:
256,192,73604,1,8,0:0:0:0:
256,192,73685,1,8,0:0:0:0:
256,192,73766,1,0,0:0:0:0:
256,192,73928,1,4,0:0:0:0:
256,192,74090,1,0,0:0:0:0:
256,192,74171,1,0,0:0:0:0:
256,192,74252,1,8,0:0:0:0:
256,192,74415,1,0,0:0:0:0:
256,192,74496,1,0,0:0:0:0:
256,192,74658,1,8,0:0:0:0:
256,192,74739,1,0,0:0:0:0:
256,192,74901,1,0,0:0:0:0:
256,192,74982,1,0,0:0:0:0:
256,192,75063,1,8,0:0:0:0:
256,192,75225,1,8,0:0:0:0:
256,192,75388,1,0,0:0:0:0:
256,192,75469,1,0,0:0:0:0:
256,192,75550,1,8,0:0:0:0:
256,192,75712,1,0,0:0:0:0:
256,192,75793,1,8,0:0:0:0:
256,192,75955,1,8,0:0:0:0:
256,192,76036,1,8,0:0:0:0:
256,192,76198,1,8,0:0:0:0:
256,192,76279,1,8,0:0:0:0:
256,192,76361,1,0,0:0:0:0:
256,192,76523,1,8,0:0:0:0:
256,192,76685,1,0,0:0:0:0:
256,192,76766,1,0,0:0:0:0:
256,192,76847,1,8,0:0:0:0:
256,192,77009,1,0,0:0:0:0:
256,192,77090,1,0,0:0:0:0:
256,192,77252,1,8,0:0:0:0:
256,192,77334,1,0,0:0:0:0:
256,192,77496,1,0,0:0:0:0:
256,192,77577,1,0,0:0:0:0:
256,192,77658,1,8,0:0:0:0:
256,192,77820,1,0,0:0:0:0:
256,192,77982,1,0,0:0:0:0:
256,192,78063,1,0,0:0:0:0:
256,192,78144,1,8,0:0:0:0:
256,192,78307,1,8,0:0:0:0:
256,192,78388,1,0,0:0:0:0:
256,192,78469,1,8,0:0:0:0:
256,192,78631,1,8,0:0:0:0:
256,192,78712,1,0,0:0:0:0:
256,192,78793,1,8,0:0:0:0:
256,192,78874,1,8,0:0:0:0:
256,192,78955,1,0,0:0:0:0:
256,192,79117,1,0,0:0:0:0:
256,192,79279,1,0,0:0:0:0:
256,192,79361,1,0,0:0:0:0:
256,192,79442,1,8,0:0:0:0:
256,192,79604,1,0,0:0:0:0:
256,192,79685,1,0,0:0:0:0:
256,192,79847,1,8,0:0:0:0:
256,192,79928,1,0,0:0:0:0:
256,192,80090,1,0,0:0:0:0:
256,192,80171,1,0,0:0:0:0:
256,192,80252,1,8,0:0:0:0:
256,192,80415,1,8,0:0:0:0:
256,192,80577,1,0,0:0:0:0:
256,192,80658,1,0,0:0:0:0:
256,192,80739,1,8,0:0:0:0:
256,192,80901,1,0,0:0:0:0:
256,192,80982,1,8,0:0:0:0:
256,192,81144,1,8,0:0:0:0:
256,192,81225,1,8,0:0:0:0:
256,192,81388,1,8,0:0:0:0:
256,192,81469,1,8,0:0:0:0:
256,192,81550,1,0,0:0:0:0:
256,192,81712,1,8,0:0:0:0:
256,192,81874,1,0,0:0:0:0:
256,192,81955,1,0,0:0:0:0:
256,192,82036,1,8,0:0:0:0:
256,192,82198,1,0,0:0:0:0:
256,192,82279,1,8,0:0:0:0:
256,192,82442,1,8,0:0:0:0:
256,192,82523,1,8,0:0:0:0:
256,192,82685,1,8,0:0:0:0:
256,192,82847,1,0,0:0:0:0:
256,192,83009,1,8,0:0:0:0:
256,192,83090,1,0,0:0:0:0:
256,192,83171,1,8,0:0:0:0:
256,192,83334,1,8,0:0:0:0:
256,192,83415,1,0,0:0:0:0:
256,192,83496,1,8,0:0:0:0:
256,192,83658,1,8,0:0:0:0:
256,192,83820,1,0,0:0:0:0:
256,192,83901,1,0,0:0:0:0:
256,192,83982,1,8,0:0:0:0:
256,192,84144,1,8,0:0:0:0:
256,192,84307,1,4,0:0:0:0:
256,192,84469,1,0,0:0:0:0:
256,192,84550,1,0,0:0:0:0:
256,192,84631,1,8,0:0:0:0:
256,192,84793,1,0,0:0:0:0:
256,192,84874,1,0,0:0:0:0:
256,192,85036,1,8,0:0:0:0:
256,192,85118,1,0,0:0:0:0:
256,192,85198,1,8,0:0:0:0:
256,192,85280,1,0,0:0:0:0:
256,192,85361,1,0,0:0:0:0:
256,192,85442,1,8,0:0:0:0:
256,192,85604,1,8,0:0:0:0:
256,192,85766,1,0,0:0:0:0:
256,192,85847,1,0,0:0:0:0:
256,192,85928,1,8,0:0:0:0:
256,192,86091,1,0,0:0:0:0:
256,192,86172,1,8,0:0:0:0:
256,192,86334,1,8,0:0:0:0:
256,192,86415,1,0,0:0:0:0:
256,192,86496,1,0,0:0:0:0:
256,192,86577,1,8,0:0:0:0:
256,192,86658,1,0,0:0:0:0:
256,192,86739,1,8,0:0:0:0:
256,192,86901,1,8,0:0:0:0:
256,192,87064,1,0,0:0:0:0:
256,192,87145,1,0,0:0:0:0:
256,192,87226,1,8,0:0:0:0:
256,192,87388,1,0,0:0:0:0:
256,192,87469,1,0,0:0:0:0:
256,192,87631,1,8,0:0:0:0:
256,192,87712,1,0,0:0:0:0:
256,192,87793,1,0,0:0:0:0:
256,192,87874,1,8,0:0:0:0:
256,192,87955,1,8,0:0:0:0:
256,192,88036,1,0,0:0:0:0:
256,192,88199,1,8,0:0:0:0:
256,192,88361,1,8,0:0:0:0:
256,192,88442,1,8,0:0:0:0:
256,192,88523,1,0,0:0:0:0:
256,192,88685,1,0,0:0:0:0:
256,192,88766,1,0,0:0:0:0:
256,192,88847,1,8,0:0:0:0:
256,192,88928,1,0,0:0:0:0:
256,192,89009,1,0,0:0:0:0:
256,192,89091,1,0,0:0:0:0:
256,192,89172,1,8,0:0:0:0:
256,192,89253,1,8,0:0:0:0:
256,192,89334,1,0,0:0:0:0:
256,192,89496,1,0,0:0:0:0:
256,192,89658,1,0,0:0:0:0:
256,192,89739,1,0,0:0:0:0:
256,192,89820,1,8,0:0:0:0:
256,192,89982,1,0,0:0:0:0:
256,192,90063,1,0,0:0:0:0:
256,192,90225,1,8,0:0:0:0:
256,192,90307,1,0,0:0:0:0:
256,192,90387,1,8,0:0:0:0:
256,192,90469,1,0,0:0:0:0:
256,192,90550,1,0,0:0:0:0:
256,192,90631,1,8,0:0:0:0:
256,192,90793,1,8,0:0:0:0:
256,192,90955,1,0,0:0:0:0:
256,192,91036,1,0,0:0:0:0:
256,192,91117,1,8,0:0:0:0:
256,192,91280,1,0,0:0:0:0:
256,192,91361,1,8,0:0:0:0:
256,192,91523,1,8,0:0:0:0:
256,192,91604,1,0,0:0:0:0:
256,192,91685,1,8,0:0:0:0:
256,192,91766,1,8,0:0:0:0:
256,192,91847,1,0,0:0:0:0:
256,192,91928,1,8,0:0:0:0:
256,192,92090,1,8,0:0:0:0:
256,192,92253,1,0,0:0:0:0:
256,192,92334,1,0,0:0:0:0:
256,192,92415,1,8,0:0:0:0:
256,192,92577,1,0,0:0:0:0:
256,192,92658,1,0,0:0:0:0:
256,192,92820,1,8,0:0:0:0:
256,192,92901,1,0,0:0:0:0:
256,192,92982,1,0,0:0:0:0:
256,192,93063,1,8,0:0:0:0:
256,192,93144,1,0,0:0:0:0:
256,192,93225,1,8,0:0:0:0:
256,192,93388,1,0,0:0:0:0:
256,192,93550,1,8,0:0:0:0:
256,192,93631,1,0,0:0:0:0:
256,192,93712,1,8,0:0:0:0:
256,192,93874,1,0,0:0:0:0:
256,192,93955,1,8,0:0:0:0:
256,192,94036,1,0,0:0:0:0:
256,192,94117,1,0,0:0:0:0:
256,192,94199,1,8,0:0:0:0:
256,192,94280,1,0,0:0:0:0:
256,192,94361,1,8,0:0:0:0:
256,192,94442,1,8,0:0:0:0:
256,192,94523,1,0,0:0:0:0:
256,192,94685,1,4,0:0:0:0:
256,192,94847,1,0,0:0:0:0:
256,192,94928,1,0,0:0:0:0:
256,192,95009,1,8,0:0:0:0:
256,192,95171,1,0,0:0:0:0:
256,192,95252,1,0,0:0:0:0:
256,192,95414,1,8,0:0:0:0:
256,192,95496,1,0,0:0:0:0:
256,192,95576,1,8,0:0:0:0:
256,192,95658,1,8,0:0:0:0:
256,192,95739,1,0,0:0:0:0:
256,192,95820,1,8,0:0:0:0:
256,192,95982,1,8,0:0:0:0:
256,192,96144,1,0,0:0:0:0:
256,192,96225,1,0,0:0:0:0:
256,192,96306,1,8,0:0:0:0:
256,192,96469,1,0,0:0:0:0:
256,192,96550,1,8,0:0:0:0:
256,192,96712,1,8,0:0:0:0:
256,192,96793,1,0,0:0:0:0:
256,192,96874,1,0,0:0:0:0:
256,192,96955,1,8,0:0:0:0:
256,192,97036,1,0,0:0:0:0:
256,192,97117,1,8,0:0:0:0:
256,192,97279,1,8,0:0:0:0:
256,192,97442,1,0,0:0:0:0:
256,192,97523,1,0,0:0:0:0:
256,192,97604,1,8,0:0:0:0:
256,192,97766,1,0,0:0:0:0:
256,192,97847,1,0,0:0:0:0:
256,192,98009,1,8,0:0:0:0:
256,192,98090,1,0,0:0:0:0:
256,192,98171,1,0,0:0:0:0:
256,192,98252,1,8,0:0:0:0:
256,192,98333,1,8,0:0:0:0:
256,192,98414,1,0,0:0:0:0:
256,192,98577,1,8,0:0:0:0:
256,192,98739,1,0,0:0:0:0:
256,192,98820,1,0,0:0:0:0:
256,192,98901,1,8,0:0:0:0:
256,192,99063,1,0,0:0:0:0:
256,192,99144,1,0,0:0:0:0:
256,192,99225,1,8,0:0:0:0:
256,192,99306,1,0,0:0:0:0:
256,192,99387,1,0,0:0:0:0:
256,192,99469,1,0,0:0:0:0:
256,192,99550,1,8,0:0:0:0:
256,192,99631,1,8,0:0:0:0:
256,192,99712,1,0,0:0:0:0:
256,192,99874,1,0,0:0:0:0:
256,192,100036,1,0,0:0:0:0:
256,192,100117,1,0,0:0:0:0:
256,192,100198,1,8,0:0:0:0:
256,192,100360,1,0,0:0:0:0:
256,192,100441,1,0,0:0:0:0:
256,192,100603,1,8,0:0:0:0:
256,192,100685,1,0,0:0:0:0:
256,192,100765,1,8,0:0:0:0:
256,192,100847,1,0,0:0:0:0:
256,192,100928,1,0,0:0:0:0:
256,192,101009,1,8,0:0:0:0:
256,192,101171,1,8,0:0:0:0:
256,192,101333,1,0,0:0:0:0:
256,192,101414,1,0,0:0:0:0:
256,192,101495,1,8,0:0:0:0:
256,192,101658,1,0,0:0:0:0:
256,192,101739,1,8,0:0:0:0:
256,192,101901,1,8,0:0:0:0:
256,192,101982,1,0,0:0:0:0:
256,192,102063,1,8,0:0:0:0:
256,192,102144,1,8,0:0:0:0:
256,192,102225,1,0,0:0:0:0:
256,192,102306,1,8,0:0:0:0:
256,192,102468,1,8,0:0:0:0:
256,192,102631,1,0,0:0:0:0:
256,192,102712,1,0,0:0:0:0:
256,192,102793,1,8,0:0:0:0:
256,192,102955,1,0,0:0:0:0:
256,192,103036,1,0,0:0:0:0:
256,192,103198,1,8,0:0:0:0:
256,192,103279,1,0,0:0:0:0:
256,192,103360,1,0,0:0:0:0:
256,192,103441,1,8,0:0:0:0:
256,192,103522,1,8,0:0:0:0:
256,192,103603,1,0,0:0:0:0:
256,192,103766,1,8,0:0:0:0:
256,192,103847,1,0,0:0:0:0:
256,192,103928,1,8,0:0:0:0:
256,192,104090,1,8,0:0:0:0:
256,192,104171,1,0,0:0:0:0:
256,192,104252,1,8,0:0:0:0:
256,192,104415,1,8,0:0:0:0:
256,192,104496,1,0,0:0:0:0:
256,192,104577,1,8,0:0:0:0:
256,192,104658,1,8,0:0:0:0:
256,192,104739,1,0,0:0:0:0:
256,192,104820,1,0,0:0:0:0:
256,192,104901,1,8,0:0:0:0:
256,192,105063,1,4,0:0:0:0:
256,192,105225,1,0,0:0:0:0:
256,192,105307,1,0,0:0:0:0:
256,192,105388,1,8,0:0:0:0:
256,192,105550,1,0,0:0:0:0:
256,192,105874,1,0,0:0:0:0:
256,192,105955,1,0,0:0:0:0:
256,192,106036,1,8,0:0:0:0:
256,192,106198,1,8,0:0:0:0:
256,192,106361,1,0,0:0:0:0:
256,192,106523,1,0,0:0:0:0:
256,192,106604,1,0,0:0:0:0:
256,192,106685,1,8,0:0:0:0:
256,192,106847,1,0,0:0:0:0:
256,192,107009,1,0,0:0:0:0:
256,192,107090,1,0,0:0:0:0:
256,192,107171,1,8,0:0:0:0:
256,192,107252,1,0,0:0:0:0:
256,192,107334,1,8,0:0:0:0:
256,192,107496,1,0,0:0:0:0:
256,192,107658,1,0,0:0:0:0:
256,192,107820,1,0,0:0:0:0:
256,192,107901,1,0,0:0:0:0:
256,192,107982,1,8,0:0:0:0:
256,192,108144,1,0,0:0:0:0:
256,192,108469,1,0,0:0:0:0:
256,192,108550,1,0,0:0:0:0:
256,192,108631,1,8,0:0:0:0:
256,192,108793,1,8,0:0:0:0:
256,192,108955,1,0,0:0:0:0:
256,192,109117,1,0,0:0:0:0:
256,192,109198,1,0,0:0:0:0:
256,192,109279,1,8,0:0:0:0:
256,192,109442,1,0,0:0:0:0:
256,192,109604,1,0,0:0:0:0:
256,192,109685,1,8,0:0:0:0:
256,192,109766,1,8,0:0:0:0:
256,192,109847,1,0,0:0:0:0:
256,192,109928,1,8,0:0:0:0:
256,192,110090,1,0,0:0:0:0:
256,192,110252,1,0,0:0:0:0:
256,192,110415,1,0,0:0:0:0:
256,192,110496,1,0,0:0:0:0:
256,192,110577,1,8,0:0:0:0:
256,192,110739,1,0,0:0:0:0:
256,192,111063,1,0,0:0:0:0:
256,192,111144,1,0,0:0:0:0:
256,192,111225,1,8,0:0:0:0:
256,192,111388,1,8,0:0:0:0:
256,192,111550,1,0,0:0:0:0:
256,192,111712,1,0,0:0:0:0:
256,192,111793,1,0,0:0:0:0:
256,192,111874,1,8,0:0:0:0:
256,192,112036,1,0,0:0:0:0:
256,192,112198,1,0,0:0:0:0:
256,192,112279,1,0,0:0:0:0:
256,192,112361,1,8,0:0:0:0:
256,192,112442,1,0,0:0:0:0:
256,192,112523,1,8,0:0:0:0:
256,192,112685,1,0,0:0:0:0:
256,192,112847,1,0,0:0:0:0:
256,192,113009,1,0,0:0:0:0:
256,192,113090,1,0,0:0:0:0:
256,192,113171,1,8,0:0:0:0:
256,192,113334,1,0,0:0:0:0:
256,192,113658,1,0,0:0:0:0:
256,192,113739,1,0,0:0:0:0:
256,192,113820,1,8,0:0:0:0:
256,192,113982,1,8,0:0:0:0:
256,192,114144,1,0,0:0:0:0:
256,192,114307,1,0,0:0:0:0:
256,192,114388,1,0,0:0:0:0:
256,192,114469,1,8,0:0:0:0:
256,192,114631,1,0,0:0:0:0:
256,192,114793,1,0,0:0:0:0:
256,192,114874,1,8,0:0:0:0:
256,192,114955,1,8,0:0:0:0:
256,192,115036,1,0,0:0:0:0:
256,192,115117,1,8,0:0:0:0:
256,192,115279,1,0,0:0:0:0:
256,192,115442,1,12,0:0:0:0:
256,192,115604,1,0,0:0:0:0:
256,192,115766,1,8,0:0:0:0:
256,192,115928,1,0,0:0:0:0:
256,192,116090,1,8,0:0:0:0:
256,192,116171,1,0,0:0:0:0:
256,192,116252,1,8,0:0:0:0:
256,192,116334,1,0,0:0:0:0:
256,192,116415,1,8,0:0:0:0:
256,192,116577,1,0,0:0:0:0:
256,192,116739,1,8,0:0:0:0:
256,192,116901,1,0,0:0:0:0:
256,192,117063,1,8,0:0:0:0:
256,192,117225,1,0,0:0:0:0:
256,192,117388,1,8,0:0:0:0:
256,192,117469,1,8,0:0:0:0:
256,192,117550,1,0,0:0:0:0:
256,192,117631,1,0,0:0:0:0:
256,192,117712,1,8,0:0:0:0:
256,192,117874,1,0,0:0:0:0:
256,192,118036,1,8,0:0:0:0:
256,192,118198,1,0,0:0:0:0:
256,192,118361,1,8,0:0:0:0:
256,192,118523,1,0,0:0:0:0:
256,192,118685,1,8,0:0:0:0:
256,192,118766,1,0,0:0:0:0:
256,192,118847,1,8,0:0:0:0:
256,192,118928,1,0,0:0:0:0:
256,192,119009,1,8,0:0:0:0:
256,192,119171,1,0,0:0:0:0:
256,192,119334,1,8,0:0:0:0:
256,192,119496,1,0,0:0:0:0:
256,192,119658,1,8,0:0:0:0:
256,192,119820,1,0,0:0:0:0:
256,192,119982,1,8,0:0:0:0:
256,192,120063,1,8,0:0:0:0:
256,192,120144,1,0,0:0:0:0:
256,192,120225,1,0,0:0:0:0:
256,192,120307,1,8,0:0:0:0:
256,192,120469,1,0,0:0:0:0:
256,192,120631,1,12,0:0:0:0:
256,192,120793,1,0,0:0:0:0:
256,192,120955,1,0,0:0:0:0:
256,192,121117,1,0,0:0:0:0:
256,192,121279,1,8,0:0:0:0:
256,192,121442,1,0,0:0:0:0:
256,192,121604,1,0,0:0:0:0:
256,192,121766,1,0,0:0:0:0:
256,192,121928,1,12,0:0:0:0:
256,192,122090,1,0,0:0:0:0:
256,192,122252,1,0,0:0:0:0:
256,192,122415,1,0,0:0:0:0:
256,192,122577,1,8,0:0:0:0:
256,192,122739,1,0,0:0:0:0:
256,192,122901,1,0,0:0:0:0:
256,192,123063,1,0,0:0:0:0:
256,192,123225,1,8,0:0:0:0:
256,192,123307,1,8,0:0:0:0:
256,192,123388,1,8,0:0:0:0:
256,192,123469,1,8,0:0:0:0:
256,192,123550,1,0,0:0:0:0:
256,192,123631,1,0,0:0:0:0:
256,192,123712,1,0,0:0:0:0:
256,192,123793,1,0,0:0:0:0:
256,192,123874,1,8,0:0:0:0:
256,192,123955,1,0,0:0:0:0:
256,192,124036,1,0,0:0:0:0:
256,192,124117,1,0,0:0:0:0:
256,192,124198,1,8,0:0:0:0:
256,192,124279,1,8,0:0:0:0:
256,192,124361,1,0,0:0:0:0:
256,192,124442,1,0,0:0:0:0:
256,192,124523,1,8,0:0:0:0:
256,192,124604,1,0,0:0:0:0:
256,192,124685,1,0,0:0:0:0:
256,192,124766,1,8,0:0:0:0:
256,192,124847,1,0,0:0:0:0:
256,192,124928,1,0,0:0:0:0:
256,192,125009,1,8,0:0:0:0:
256,192,125090,1,0,0:0:0:0:
256,192,125171,1,8,0:0:0:0:
256,192,125252,1,8,0:0:0:0:
256,192,125334,1,0,0:0:0:0:
256,192,125415,1,0,0:0:0:0:
256,192,125496,1,8,0:0:0:0:
