osu file format v14

[General]
AudioFilename: yuki. - Spring Signal.mp3
AudioLeadIn: 0
PreviewTime: 63560
Countdown: 0
SampleSet: Normal
StackLeniency: 1
Mode: 1
LetterboxInBreaks: 0
EpilepsyWarning: 1
WidescreenStoryboard: 1

[Editor]
Bookmarks: 1280,6469,11658,16847,22036,27225,32415,37604,42793,53171,58361,63550,73928,84307,94685,105063,115442,120631,125496
DistanceSpacing: 1
BeatDivisor: 2
GridSize: 32
TimelineZoom: 2.3

[Metadata]
Title:Spring Signal
TitleUnicode:Spring Signal
Artist:yuki.
ArtistUnicode:yuki.
Creator:xfraczynho
Version:Futsuu
Source:osu!
Tags:featured artist gaston_2199 Nardoxyribonucleic
BeatmapID:1343327
BeatmapSetID:632888

[Difficulty]
HPDrainRate:6
CircleSize:2
OverallDifficulty:4
ApproachRate:10
SliderMultiplier:1.4
SliderTickRate:1

[Events]
//Background and Video events
0,0,"bg.jpg",0,0
//Break Periods
//Storyboard Layer 0 (Background)
//Storyboard Layer 1 (Fail)
//Storyboard Layer 2 (Pass)
//Storyboard Layer 3 (Foreground)
//Storyboard Sound Samples

[TimingPoints]
1280,324.324324324324,4,1,0,70,1,0
22036,-100,4,1,0,60,0,0
42793,-100,4,1,0,70,0,0
53171,-100,4,1,0,80,0,0
63550,-100,4,1,0,100,0,1
105063,-100,4,1,0,70,0,0

[HitObjects]
256,192,1280,5,4,0:0:0:0:
256,192,1604,1,8,0:0:0:0:
256,192,2252,1,8,0:0:0:0:
256,192,2577,1,0,0:0:0:0:
256,192,2901,1,8,0:0:0:0:
256,192,3550,1,0,0:0:0:0:
256,192,3874,1,0,0:0:0:0:
256,192,4198,1,8,0:0:0:0:
256,192,4847,1,8,0:0:0:0:
256,192,5171,1,0,0:0:0:0:
256,192,5496,1,8,0:0:0:0:
256,192,6144,1,0,0:0:0:0:
256,192,6469,1,0,0:0:0:0:
256,192,6793,1,8,0:0:0:0:
256,192,7442,1,8,0:0:0:0:
256,192,7766,1,0,0:0:0:0:
256,192,8090,1,8,0:0:0:0:
256,192,8739,1,0,0:0:0:0:
256,192,9063,1,0,0:0:0:0:
256,192,9388,1,8,0:0:0:0:
256,192,10036,1,8,0:0:0:0:
256,192,10361,1,0,0:0:0:0:
256,192,10685,1,8,0:0:0:0:
256,192,11334,1,0,0:0:0:0:
256,192,11658,1,12,0:0:0:0:
256,192,12307,1,8,0:0:0:0:
256,192,12469,1,8,0:0:0:0:
256,192,12631,1,8,0:0:0:0:
256,192,12955,1,8,0:0:0:0:
256,192,13604,1,0,0:0:0:0:
256,192,13766,1,0,0:0:0:0:
256,192,13928,1,0,0:0:0:0:
256,192,14252,1,8,0:0:0:0:
256,192,14901,1,8,0:0:0:0:
256,192,15063,1,8,0:0:0:0:
256,192,15225,1,8,0:0:0:0:
256,192,15550,1,8,0:0:0:0:
256,192,16198,1,0,0:0:0:0:
256,192,16361,1,0,0:0:0:0:
256,192,16523,1,0,0:0:0:0:
256,192,16847,1,12,0:0:0:0:
256,192,17496,1,0,0:0:0:0:
256,192,18144,1,12,0:0:0:0:
256,192,18793,1,0,0:0:0:0:
256,192,19442,1,12,0:0:0:0:
256,192,19766,1,0,0:0:0:0:
256,192,20090,1,8,0:0:0:0:
256,192,20415,1,0,0:0:0:0:
256,192,20739,1,8,0:0:0:0:
256,192,21063,1,0,0:0:0:0:
256,192,21388,1,0,0:0:0:0:
256,192,21550,1,0,0:0:0:0:
256,192,21712,1,8,0:0:0:0:
256,192,22036,1,4,0:0:0:0:
256,192,23009,1,0,0:0:0:0:
256,192,23334,1,0,0:0:0:0:
256,192,24307,1,0,0:0:0:0:
256,192,24631,1,8,0:0:0:0:
256,192,25604,1,8,0:0:0:0:
256,192,25928,1,0,0:0:0:0:
256,192,26577,1,8,0:0:0:0:
256,192,26901,1,8,0:0:0:0:
256,192,27225,1,0,0:0:0:0:
256,192,28198,1,0,0:0:0:0:
256,192,28523,1,0,0:0:0:0:
256,192,29171,1,0,0:0:0:0:
256,192,29820,1,8,0:0:0:0:
256,192,30793,1,0,0:0:0:0:
256,192,31117,1,0,0:0:0:0:
256,192,32090,1,8,0:0:0:0:
256,192,32415,1,0,0:0:0:0:
256,192,33388,1,0,0:0:0:0:
256,192,33712,1,0,0:0:0:0:
256,192,34685,1,0,0:0:0:0:
256,192,35009,1,8,0:0:0:0:
256,192,35982,1,8,0:0:0:0:
256,192,36307,1,0,0:0:0:0:
256,192,36955,1,8,0:0:0:0:
256,192,37604,1,0,0:0:0:0:
256,192,38577,1,0,0:0:0:0:
256,192,38901,1,0,0:0:0:0:
256,192,39874,1,0,0:0:0:0:
256,192,40198,1,8,0:0:0:0:
256,192,41496,12,0,42469,0:0:0:0:
256,192,42793,5,12,0:0:0:0:
256,192,43279,1,8,0:0:0:0:
256,192,43766,1,0,0:0:0:0:
256,192,44090,1,8,0:0:0:0:
256,192,44577,1,0,0:0:0:0:
256,192,45063,1,8,0:0:0:0:
256,192,45388,1,8,0:0:0:0:
256,192,46361,1,8,0:0:0:0:
256,192,46685,1,0,0:0:0:0:
256,192,47009,1,8,0:0:0:0:
256,192,47334,1,0,0:0:0:0:
256,192,47658,1,0,0:0:0:0:
256,192,47982,1,8,0:0:0:0:
256,192,48469,1,8,0:0:0:0:
256,192,48955,1,0,0:0:0:0:
256,192,49279,1,8,0:0:0:0:
256,192,49766,1,0,0:0:0:0:
256,192,50252,1,8,0:0:0:0:
256,192,50577,1,8,0:0:0:0:
256,192,51550,1,8,0:0:0:0:
256,192,52198,1,8,0:0:0:0:
256,192,52523,1,8,0:0:0:0:
256,192,52847,1,0,0:0:0:0:
256,192,53171,1,12,0:0:0:0:
256,192,53820,1,0,0:0:0:0:
256,192,53982,1,0,0:0:0:0:
256,192,54144,1,0,0:0:0:0:
256,192,54469,1,8,0:0:0:0:
256,192,54793,1,0,0:0:0:0:
256,192,55117,1,8,0:0:0:0:
256,192,55279,1,8,0:0:0:0:
256,192,55442,1,8,0:0:0:0:
256,192,55766,1,8,0:0:0:0:
256,192,56415,1,0,0:0:0:0:
256,192,56577,1,0,0:0:0:0:
256,192,56739,1,0,0:0:0:0:
256,192,57063,1,8,0:0:0:0:
256,192,57388,1,0,0:0:0:0:
256,192,57712,1,8,0:0:0:0:
256,192,58036,1,0,0:0:0:0:
256,192,58361,1,12,0:0:0:0:
256,192,59009,1,0,0:0:0:0:
256,192,59334,1,0,0:0:0:0:
256,192,59658,1,12,0:0:0:0:
256,192,60307,1,0,0:0:0:0:
256,192,60631,1,0,0:0:0:0:
256,192,60955,1,8,0:0:0:0:
256,192,61604,1,8,0:0:0:0:
256,192,61928,1,8,0:0:0:0:
256,192,62252,1,0,0:0:0:0:
256,192,62577,1,8,0:0:0:0:
256,192,62901,1,0,0:0:0:0:
256,192,63063,1,0,0:0:0:0:
256,192,63225,1,8,0:0:0:0:
256,192,63550,1,4,0:0:0:0:
256,192,64198,1,0,0:0:0:0:
256,192,64361,1,0,0:0:0:0:
256,192,64523,1,0,0:0:0:0:
256,192,64847,1,8,0:0:0:0:
256,192,65171,1,0,0:0:0:0:
256,192,65496,1,8,0:0:0:0:
256,192,65658,1,8,0:0:0:0:
256,192,65820,1,8,0:0:0:0:
256,192,66144,1,8,0:0:0:0:
256,192,66793,1,0,0:0:0:0:
256,192,66955,1,0,0:0:0:0:
256,192,67117,1,0,0:0:0:0:
256,192,67442,1,8,0:0:0:0:
256,192,67766,1,0,0:0:0:0:
256,192,68090,1,8,0:0:0:0:
256,192,68252,1,8,0:0:0:0:
256,192,68415,1,0,0:0:0:0:
256,192,68739,1,0,0:0:0:0:
256,192,69388,1,0,0:0:0:0:
256,192,69550,1,0,0:0:0:0:
256,192,69712,1,0,0:0:0:0:
256,192,70036,1,8,0:0:0:0:
256,192,70361,1,0,0:0:0:0:
256,192,70685,1,8,0:0:0:0:
256,192,70847,1,8,0:0:0:0:
256,192,71009,1,8,0:0:0:0:
256,192,71334,1,8,0:0:0:0:
256,192,71982,1,0,0:0:0:0:
256,192,72144,1,0,0:0:0:0:
256,192,72307,1,8,0:0:0:0:
256,192,72631,1,0,0:0:0:0:
256,192,72955,1,8,0:0:0:0:
256,192,73279,1,8,0:0:0:0:
256,192,73442,1,8,0:0:0:0:
256,192,73604,1,0,0:0:0:0:
256,192,73928,1,0,0:0:0:0:
256,192,74577,1,0,0:0:0:0:
256,192,74739,1,0,0:0:0:0:
256,192,74901,1,0,0:0:0:0:
256,192,75225,1,8,0:0:0:0:
256,192,75550,1,0,0:0:0:0:
256,192,75874,1,8,0:0:0:0:
256,192,76036,1,8,0:0:0:0:
256,192,76198,1,8,0:0:0:0:
256,192,76523,1,8,0:0:0:0:
256,192,77171,1,0,0:0:0:0:
256,192,77334,1,0,0:0:0:0:
256,192,77496,1,0,0:0:0:0:
256,192,77820,1,8,0:0:0:0:
256,192,78144,1,0,0:0:0:0:
256,192,78469,1,8,0:0:0:0:
256,192,78631,1,8,0:0:0:0:
256,192,78793,1,0,0:0:0:0:
256,192,79117,1,0,0:0:0:0:
256,192,79766,1,0,0:0:0:0:
256,192,79928,1,0,0:0:0:0:
256,192,80090,1,0,0:0:0:0:
256,192,80415,1,8,0:0:0:0:
256,192,80739,1,0,0:0:0:0:
256,192,81063,1,8,0:0:0:0:
256,192,81225,1,8,0:0:0:0:
256,192,81388,1,8,0:0:0:0:
256,192,81712,1,8,0:0:0:0:
256,192,82361,1,0,0:0:0:0:
256,192,82523,1,0,0:0:0:0:
256,192,82685,1,8,0:0:0:0:
256,192,83009,1,8,0:0:0:0:
256,192,83334,1,0,0:0:0:0:
256,192,83658,1,8,0:0:0:0:
256,192,83820,1,8,0:0:0:0:
256,192,83982,1,8,0:0:0:0:
256,192,84144,1,8,0:0:0:0:
256,192,84307,1,4,0:0:0:0:
256,192,84955,1,0,0:0:0:0:
256,192,85117,1,0,0:0:0:0:
256,192,85279,1,0,0:0:0:0:
256,192,85604,1,8,0:0:0:0:
256,192,85928,1,0,0:0:0:0:
256,192,86252,1,8,0:0:0:0:
256,192,86415,1,0,0:0:0:0:
256,192,86577,1,8,0:0:0:0:
256,192,86901,1,8,0:0:0:0:
256,192,87550,1,0,0:0:0:0:
256,192,87712,1,0,0:0:0:0:
256,192,87874,1,8,0:0:0:0:
256,192,88198,1,8,0:0:0:0:
256,192,88523,1,0,0:0:0:0:
256,192,88847,1,8,0:0:0:0:
256,192,89009,1,8,0:0:0:0:
256,192,89171,1,0,0:0:0:0:
256,192,89496,1,0,0:0:0:0:
256,192,90144,1,0,0:0:0:0:
256,192,90307,1,0,0:0:0:0:
256,192,90469,1,0,0:0:0:0:
256,192,90793,1,8,0:0:0:0:
256,192,91117,1,0,0:0:0:0:
256,192,91442,1,8,0:0:0:0:
256,192,91604,1,0,0:0:0:0:
256,192,91766,1,8,0:0:0:0:
256,192,92090,1,8,0:0:0:0:
256,192,92739,1,0,0:0:0:0:
256,192,92901,1,0,0:0:0:0:
256,192,93063,1,8,0:0:0:0:
256,192,93388,1,8,0:0:0:0:
256,192,93712,1,0,0:0:0:0:
256,192,94036,1,8,0:0:0:0:
256,192,94198,1,8,0:0:0:0:
256,192,94361,1,0,0:0:0:0:
256,192,94685,1,4,0:0:0:0:
256,192,95334,1,0,0:0:0:0:
256,192,95496,1,0,0:0:0:0:
256,192,95658,1,0,0:0:0:0:
256,192,95982,1,8,0:0:0:0:
256,192,96307,1,0,0:0:0:0:
256,192,96631,1,8,0:0:0:0:
256,192,96793,1,0,0:0:0:0:
256,192,96955,1,8,0:0:0:0:
256,192,97279,1,8,0:0:0:0:
256,192,97928,1,0,0:0:0:0:
256,192,98090,1,8,0:0:0:0:
256,192,98252,1,8,0:0:0:0:
256,192,98577,1,8,0:0:0:0:
256,192,98901,1,0,0:0:0:0:
256,192,99225,1,8,0:0:0:0:
256,192,99388,1,8,0:0:0:0:
256,192,99550,1,0,0:0:0:0:
256,192,99874,1,0,0:0:0:0:
256,192,100523,1,0,0:0:0:0:
256,192,100685,1,0,0:0:0:0:
256,192,100847,1,0,0:0:0:0:
256,192,101171,1,8,0:0:0:0:
256,192,101496,1,0,0:0:0:0:
256,192,101820,1,8,0:0:0:0:
256,192,101982,1,0,0:0:0:0:
256,192,102144,1,8,0:0:0:0:
256,192,102469,1,8,0:0:0:0:
256,192,103117,1,0,0:0:0:0:
256,192,103279,1,8,0:0:0:0:
256,192,103442,1,0,0:0:0:0:
256,192,103766,1,8,0:0:0:0:
256,192,104090,1,0,0:0:0:0:
256,192,104415,1,8,0:0:0:0:
256,192,104577,1,8,0:0:0:0:
256,192,104739,1,8,0:0:0:0:
256,192,104901,1,8,0:0:0:0:
256,192,105063,1,4,0:0:0:0:
256,192,105388,1,8,0:0:0:0:
256,192,106036,1,8,0:0:0:0:
256,192,106361,1,0,0:0:0:0:
256,192,106685,1,8,0:0:0:0:
256,192,107334,1,0,0:0:0:0:
256,192,107658,1,0,0:0:0:0:
256,192,107982,1,8,0:0:0:0:
256,192,108631,1,8,0:0:0:0:
256,192,108955,1,0,0:0:0:0:
256,192,109279,1,8,0:0:0:0:
256,192,109928,1,0,0:0:0:0:
256,192,110252,1,0,0:0:0:0:
256,192,110577,1,8,0:0:0:0:
256,192,111225,1,8,0:0:0:0:
256,192,111550,1,0,0:0:0:0:
256,192,111874,1,8,0:0:0:0:
256,192,112523,1,0,0:0:0:0:
256,192,112847,1,0,0:0:0:0:
256,192,113171,1,8,0:0:0:0:
256,192,113820,1,8,0:0:0:0:
256,192,114144,1,0,0:0:0:0:
256,192,114469,1,8,0:0:0:0:
256,192,115117,1,0,0:0:0:0:
256,192,115442,1,12,0:0:0:0:
256,192,116090,1,8,0:0:0:0:
256,192,116252,1,8,0:0:0:0:
256,192,116415,1,8,0:0:0:0:
256,192,116739,1,8,0:0:0:0:
256,192,117388,1,0,0:0:0:0:
256,192,117550,1,0,0:0:0:0:
256,192,117712,1,0,0:0:0:0:
256,192,118036,1,8,0:0:0:0:
256,192,118685,1,8,0:0:0:0:
256,192,118847,1,8,0:0:0:0:
256,192,119009,1,8,0:0:0:0:
256,192,119334,1,8,0:0:0:0:
256,192,119982,1,0,0:0:0:0:
256,192,120144,1,0,0:0:0:0:
256,192,120307,1,0,0:0:0:0:
256,192,120631,1,12,0:0:0:0:
256,192,121279,1,0,0:0:0:0:
256,192,121928,1,12,0:0:0:0:
256,192,122577,1,0,0:0:0:0:
256,192,123225,1,8,0:0:0:0:
256,192,123550,1,0,0:0:0:0:
256,192,123874,1,8,0:0:0:0:
256,192,124198,1,0,0:0:0:0:
256,192,124523,1,8,0:0:0:0:
256,192,124847,1,0,0:0:0:0:
256,192,125171,1,0,0:0:0:0:
256,192,125334,1,0,0:0:0:0:
256,192,125496,1,8,0:0:0:0:
