osu file format v12

[General]
AudioFilename: 05. drop.mp3
AudioLeadIn: 0
PreviewTime: 231774
Countdown: 0
SampleSet: Soft
StackLeniency: 0.7
Mode: 0
LetterboxInBreaks: 1
WidescreenStoryboard: 0

[Editor]
Bookmarks: 23186,34480,68362,79656,107892,129068,153068,198245,226480,236362
DistanceSpacing: 1.3
BeatDivisor: 4
GridSize: 4

[Metadata]
Title:drop
TitleUnicode:drop
Artist:yuikonnu
ArtistUnicode:ゆいこんぬ
Creator:0OoMickeyoO0
Version:Mickey
Source:Nijiiro Chocolatier
Tags:keeno
BeatmapID:354631
BeatmapSetID:142396

[Difficulty]
HPDrainRate:6
CircleSize:4
OverallDifficulty:8
ApproachRate:8
SliderMultiplier:2.9
SliderTickRate:2

[Events]
//Background and Video events
0,0,"BG2.jpg",0,0
//Break Periods
2,23385,33730
2,68561,78730
2,154679,222730
2,226480,235612
//Storyboard Layer 0 (Background)
//Storyboard Layer 1 (Fail)
//Storyboard Layer 2 (Pass)
//Storyboard Layer 3 (Foreground)
//Storyboard Sound Samples
//Background Colour Transformations
3,100,163,162,255

[TimingPoints]
598,705.882352941176,4,2,1,30,1,0
22480,-200,4,2,1,30,0,0
22833,-200,4,2,1,20,0,0
23186,-133.333333333333,4,2,1,30,0,0
67656,-200,4,2,1,30,0,0
68362,-133.333333333333,4,2,1,30,0,0
102245,-200,4,2,1,10,0,0
103303,-200,4,2,1,5,0,0
103656,-200,4,2,1,10,0,0
104715,-200,4,2,1,5,0,0
105068,-200,4,2,1,10,0,0
106127,-200,4,2,1,5,0,0
106480,-200,4,2,1,10,0,0
107186,-200,4,2,1,20,0,0
107892,-133.333333333333,4,2,1,30,0,0
124833,-133.333333333333,4,2,1,20,0,0
129245,-100,4,2,1,40,0,0
129774,-100,4,2,1,60,0,0
130480,-100,4,2,1,60,0,1
141068,-100,4,2,1,60,0,0
141774,-100,4,2,1,60,0,1
152274,-100,4,2,1,40,0,1
152362,-100,4,2,1,60,0,1
152539,-200,4,2,1,30,0,1
153068,-133.333333333333,4,2,1,60,0,0
153421,-133.333333333333,4,2,1,40,0,0
155892,-133.333333333333,4,2,1,30,0,0
237774,-100,4,2,1,60,0,1
248362,-100,4,2,1,60,0,0
249068,-100,4,2,1,60,0,1
259656,-100,4,2,1,60,0,0
260362,-100,4,2,1,60,0,1
271656,-100,4,2,1,60,0,0

[Colours]
Combo1 : 200,200,200
Combo2 : 0,150,0
Combo3 : 0,150,250

[HitObjects]
244,304,22127,1,0,1:0:0:0:
292,168,22303,1,8,0:0:0:0:
292,168,22480,2,0,B|367:174,2,72.5,8|8|4,0:0|0:0|1:2,0:0:0:0:
256,192,34480,12,8,36597,0:0:0:0:
256,192,37303,12,8,39421,0:0:0:0:
256,192,40127,12,8,42245,0:0:0:0:
256,192,42597,5,4,1:2:0:0:
364,32,45597,1,0,0:0:0:0:
376,64,45774,6,0,P|388:116|376:172,1,108.75,0|2,1:0|0:0,0:0:0:0:
328,220,46303,2,0,L|164:232,1,163.125006222725
396,240,47362,1,0,0:0:0:0:
396,240,47539,2,0,P|388:184|348:152,1,108.750004148483,0|2,0:0|0:0,0:0:0:0:
292,108,48068,2,0,L|300:52,2,54.3750020742417,0|0|2,0:0|0:0|0:0,0:0:0:0:
224,132,48597,6,0,B|184:140|152:128|152:128|132:96,1,108.750004148483,0|2,0:0|0:0,0:0:0:0:
88,40,49127,2,0,P|96:92|76:144,1,108.750004148483,0|0,0:0|0:0,0:0:0:0:
32,200,49656,2,0,B|80:264|56:344|56:344|92:288,1,217.500008296967,0|0,0:0|1:0,0:0:0:0:
152,252,50715,1,2,0:0:0:0:
220,272,51068,1,0,0:0:0:0:
152,252,51421,6,0,P|156:300|200:340,1,108.750004148483,0|2,1:0|0:0,0:0:0:0:
288,292,51950,2,0,P|284:244|240:204,1,108.750004148483,0|0,1:0|0:0,0:0:0:0:
88,64,52656,1,2,0:0:0:0:
144,20,52833,2,0,P|128:68|128:128,1,108.750004148483,0|0,0:0|1:0,0:0:0:0:
140,196,53362,2,0,P|140:250|123:301,1,108.750004148483,0|0,0:0|0:0,0:0:0:0:
68,348,53892,2,0,L|12:356,1,54.3750020742417,0|2,0:0|0:0,0:0:0:0:
176,352,54245,6,0,L|288:336,1,108.750004148483,0|2,1:0|0:0,0:0:0:0:
283,336,54774,1,0,1:0:0:0:
283,336,54950,1,2,0:0:0:0:
376,204,55303,1,0,0:0:0:0:
360,368,55656,1,0,0:0:0:0:
292,220,56009,1,0,1:0:0:0:
204,356,56362,2,0,L|148:348,1,54.3750020742417,2|0,0:0|0:0,0:0:0:0:
32,324,56715,2,0,L|88:316,1,54.3750020742417,0|2,0:0|0:0,0:0:0:0:
244,236,57068,6,0,B|212:260|176:260|176:260|144:280,1,108.750004148483,0|2,1:0|0:0,0:0:0:0:
85,316,57597,2,0,P|76:264|104:220,1,108.750004148483,0|0,1:0|0:0,0:0:0:0:
168,188,58127,1,0,0:0:0:0:
168,188,58303,2,0,P|244:236|304:208,1,163.125006222725,0|0,0:0|1:0,0:0:0:0:
440,168,59186,2,0,L|496:160,2,54.3750020742417,2|0|0,0:0|0:0|0:0,0:0:0:0:
364,160,59715,1,2,0:0:0:0:
303,208,59892,6,0,P|292:272|304:316,1,108.750004148483,0|2,1:0|0:0,0:0:0:0:
256,260,60421,2,0,P|192:248|148:260,1,108.750004148483,0|0,1:0|0:0,0:0:0:0:
96,304,60950,1,2,0:0:0:0:
96,304,61303,2,0,L|104:192,1,108.750004148483,0|0,0:0|1:0,0:0:0:0:
20,308,62009,2,0,L|28:196,1,108.750004148483,2|0,0:0|1:0,0:0:0:0:
64,136,62539,1,2,0:0:0:0:
104,196,62715,6,0,P|156:204|208:180,1,108.750004148483,0|2,1:0|0:0,0:0:0:0:
224,112,63245,2,0,L|336:104,2,108.750004148483,0|0|2,1:0|0:0|0:0,0:0:0:0:
205,181,64127,2,0,P|204:208|208:236,1,54.3750020742417
240,300,64480,1,0,1:0:0:0:
240,300,64656,2,0,L|352:308,1,108.750004148483,0|0,0:0|0:0,0:0:0:0:
408,348,65186,1,2,0:0:0:0:
408,348,65539,6,0,P|424:296|412:244,1,108.750004148483,0|2,1:0|0:0,0:0:0:0:
380,180,66068,2,0,P|368:127|384:76,1,108.750004148483,0|0,1:0|0:0,0:0:0:0:
452,52,66597,1,0,0:0:0:0:
452,52,66774,2,0,P|384:76|296:64,1,163.125006222725,0|0,0:0|1:0,0:0:0:0:
232,32,67480,1,8,0:0:0:0:
248,176,67656,6,0,L|232:32,1,145,8|4,0:0|1:2,0:0:0:0:
304,256,79480,5,2,0:0:0:0:
304,256,79568,1,0,0:0:0:0:
304,256,79656,2,0,P|312:200|296:152,1,108.750004148483,2|0,1:2|0:0,0:0:0:0:
256,92,80186,2,0,L|92:84,2,163.125006222725,0|0|0,1:0|0:0|0:0,0:0:0:0:
304,40,81421,1,0,1:0:0:0:
200,164,81774,2,0,P|188:216|200:272,1,108.750004148483,2|0,0:0|0:0,0:0:0:0:
260,308,82303,1,2,0:0:0:0:
328,288,82480,6,0,P|380:284|436:300,1,108.750004148483,0|2,1:0|0:0,0:0:0:0:
476,244,83009,2,0,P|446:200|432:144,1,108.750004148483,0|2,1:0|0:0,0:0:0:0:
364,136,83539,2,0,P|341:183|299:223,2,108.750004148483,0|0|0,0:0|0:0|1:0,0:0:0:0:
364,64,84597,1,2,0:0:0:0:
292,76,84950,1,0,0:0:0:0:
236,28,85303,6,0,P|220:76|240:128,1,108.750004148483,0|2,1:0|0:0,0:0:0:0:
280,188,85833,2,0,L|264:296,1,108.750004148483,0|0,1:0|0:0,0:0:0:0:
96,344,86539,1,2,0:0:0:0:
96,344,86715,2,0,L|112:236,1,108.750004148483,0|0,0:0|1:0,0:0:0:0:
72,176,87245,2,0,P|120:200|176:192,1,108.750004148483
336,84,87950,1,2,0:0:0:0:
400,52,88127,6,0,B|380:88|388:124|388:124|372:156,1,108.750004148483,0|2,1:0|0:0,0:0:0:0:
304,136,88656,1,0,1:0:0:0:
304,136,88833,2,0,B|296:160|304:188|324:208|324:208|284:212,1,108.750004148483,2|0,0:0|0:0,0:0:0:0:
160,164,89539,1,0,0:0:0:0:
188,304,89892,1,0,1:0:0:0:
88,204,90245,2,0,L|32:196,1,54.3750020742417,2|0,0:0|0:0,0:0:0:0:
160,164,90597,2,0,L|216:172,1,54.3750020742417,0|2,0:0|0:0,0:0:0:0:
88,204,90950,6,0,P|80:148|104:104,1,108.750004148483,0|2,1:0|0:0,0:0:0:0:
172,80,91480,2,0,L|284:96,1,108.750004148483
320,36,92009,1,0,0:0:0:0:
320,36,92186,2,0,B|308:76|280:96|280:96|300:136|288:184,1,163.125006222725,0|0,0:0|1:0,0:0:0:0:
256,344,93068,2,0,L|248:288,1,54.3750020742417,2|0,0:0|0:0,0:0:0:0:
192,196,93421,2,0,L|200:140,1,54.3750020742417,0|2,0:0|0:0,0:0:0:0:
180,268,93774,6,0,P|136:284|108:344,1,108.750004148483,0|2,1:0|0:0,0:0:0:0:
180,340,94303,2,0,L|288:352,1,108.750004148483,0|0,1:0|0:0,0:0:0:0:
348,312,94833,1,2,0:0:0:0:
348,312,95186,5,0,0:0:0:0:
376,172,95539,1,0,1:0:0:0:
420,308,95892,5,2,0:0:0:0:
344,108,96245,1,0,0:0:0:0:
324,220,96421,5,2,0:0:0:0:
324,220,96597,2,0,P|272:236|220:228,1,108.750004148483,0|2,1:0|0:0,0:0:0:0:
176,284,97127,2,0,P|180:232|160:180,1,108.750004148483,0|0,1:0|0:0,0:0:0:0:
100,140,97656,2,0,L|44:144,1,54.3750020742417,2|0,0:0|0:0,0:0:0:0:
200,120,98009,2,0,P|256:120|304:140,1,108.750004148483,0|0,0:0|1:0,0:0:0:0:
348,196,98539,2,0,L|356:88,1,108.750004148483
360,16,99068,1,2,0:0:0:0:
360,16,99421,6,0,L|252:32,1,108.750004148483,0|2,1:0|0:0,0:0:0:0:
204,84,99950,2,0,P|200:136|220:188,1,108.750004148483,0|0,1:0|0:0,0:0:0:0:
272,236,100480,1,0,0:0:0:0:
272,236,100656,2,0,B|312:248|352:236|352:236|392:224|432:236,1,163.125006222725,0|0,0:0|1:0,0:0:0:0:
204,256,101539,2,0,L|96:268,1,108.750004148483,2|0,0:0|0:0,0:0:0:0:
32,236,102068,5,0,0:0:0:0:
32,236,102245,2,0,B|8:180|28:128|28:128|0:84|12:24,1,217.5,2|0,0:0|0:0,0:0:0:0:
328,84,103656,6,0,L|112:60,1,217.5,2|0,0:0|0:0,0:0:0:0:
376,24,105068,6,0,P|404:96|292:152,1,217.5,2|0,0:0|0:0,0:0:0:0:
200,92,106480,6,0,P|148:84|104:116,1,108.75,2|8,0:0|0:0,0:0:0:0:
92,188,107186,1,8,0:0:0:0:
60,44,107539,1,2,0:0:0:0:
20,224,107892,6,0,P|64:264|116:264,1,108.750004148483,4|2,1:2|0:0,0:0:0:0:
172,132,108597,2,0,P|115:150|89:195,1,108.750004148483,8|2,0:0|0:0,0:0:0:0:
176,308,109303,2,0,P|188:249|162:204,1,108.750004148483,0|2,1:0|1:2,0:0:0:0:
40,300,110009,1,8,0:0:0:0:
232,248,110362,1,2,0:0:0:0:
96,112,110715,6,0,L|204:92,1,108.750004148483,0|2,1:0|0:0,0:0:0:0:
248,148,111245,1,0,1:0:0:0:
248,148,111421,2,0,P|256:204|232:248,1,108.750004148483,8|2,0:0|0:0,0:0:0:0:
356,312,112127,2,0,L|248:320,1,108.750004148483,0|2,0:0|1:2,0:0:0:0:
180,300,112656,1,8,0:0:0:0:
180,300,112833,2,0,P|160:248|176:200,1,108.750004148483,0|2,0:0|0:0,0:0:0:0:
336,164,113539,6,0,L|348:56,1,108.750004148483,0|2,1:0|0:0,0:0:0:0:
392,112,114068,1,0,1:0:0:0:
392,112,114245,2,0,P|368:124|292:100,1,108.750004148483,8|2,0:0|0:0,0:0:0:0:
176,24,114950,1,0,1:0:0:0:
348,56,115303,1,2,1:2:0:0:
316,228,115656,2,0,P|312:280|328:336,1,108.750004148483,8|2,0:0|0:0,0:0:0:0:
396,356,116186,1,0,0:0:0:0:
460,324,116362,6,0,P|464:272|448:216,1,108.750004148483,0|2,1:0|0:0,0:0:0:0:
408,160,116892,1,0,1:0:0:0:
408,160,117068,2,0,L|300:152,1,108.750004148483,8|2,0:0|0:0,0:0:0:0:
256,96,117597,2,0,P|192:60|112:88,1,163.125006222725,0|2,0:0|1:2,0:0:0:0:
72,148,118303,1,8,0:0:0:0:
76,220,118480,1,8,0:0:0:0:
40,84,118833,1,2,0:0:0:0:
176,120,119186,6,0,P|232:128|280:108,1,108.750004148483,0|2,1:0|0:0,0:0:0:0:
316,48,119715,2,0,L|372:44,1,54.3750020742417,0|8,1:0|0:0,0:0:0:0:
328,200,120245,2,0,L|384:196,1,54.3750020742417,2|0,0:0|0:0,0:0:0:0:
440,156,120597,1,0,1:0:0:0:
440,156,120950,1,2,1:2:0:0:
448,344,121303,2,0,L|340:352,1,108.750004148483,8|2,0:0|0:0,0:0:0:0:
276,320,121833,1,0,0:0:0:0:
216,284,122009,6,0,L|324:272,1,108.750004148483,0|2,0:0|0:0,0:0:0:0:
372,220,122539,1,0,1:0:0:0:
372,220,122715,2,0,P|380:164|360:112,1,108.750004148483,8|2,0:0|0:0,0:0:0:0:
176,164,123421,2,0,L|284:176,1,108.750004148483,0|2,0:0|1:2,0:0:0:0:
328,232,123950,1,8,0:0:0:0:
328,232,124127,2,0,P|348:280|352:336,1,108.750004148483,8|2,0:0|0:0,0:0:0:0:
388,148,124833,6,0,L|396:40,1,108.750004148483,4|2,1:2|0:0,0:0:0:0:
328,232,125539,2,0,L|436:240,1,108.750004148483,8|2,0:0|0:0,0:0:0:0:
244,172,126245,2,0,L|236:280,1,108.750004148483,0|2,0:0|1:2,0:0:0:0:
304,88,126950,1,8,0:0:0:0:
304,88,127127,2,0,L|196:80,1,108.750004148483,2|2,0:0|0:0,0:0:0:0:
124,76,127656,5,0,1:0:0:0:
40,240,128009,1,2,1:2:0:0:
40,56,128362,1,8,0:0:0:0:
144,208,128715,2,0,P|148:268|116:316,1,108.750004148483,2|0,0:0|0:0,0:0:0:0:
64,348,129245,5,0,1:0:0:0:
244,328,129421,1,12,0:0:0:0:
108,280,129597,5,0,0:0:0:0:
108,280,129686,1,8,0:0:0:0:
108,280,129774,1,8,0:0:0:0:
216,184,129950,1,4,1:3:0:0:
244,328,130127,2,0,P|276:340|316:344,1,72.5,8|8,1:3|0:0,0:0:0:0:
172,376,130480,6,0,P|160:300|208:248,1,145,4|2,1:2|0:0,0:0:0:0:
288,252,131009,1,0,1:0:0:0:
288,252,131186,2,0,L|300:108,1,145,8|2,0:0|1:2,0:0:0:0:
372,56,131715,1,8,0:0:0:0:
372,56,131803,1,0,0:0:0:0:
372,56,131892,2,0,L|444:52,1,72.5,0|8,1:0|0:0,0:0:0:0:
224,64,132245,2,0,L|152:68,1,72.5,2|0,1:2|0:2,0:0:0:0:
84,196,132597,1,8,0:0:0:0:
172,192,132774,2,0,L|244:200,1,72.5,0|2,0:0|0:0,0:0:0:0:
84,196,133127,1,8,0:0:0:0:
212,272,133303,6,0,B|252:284|288:264|288:264|356:276,1,145,0|2,1:0|0:0,0:0:0:0:
440,296,133833,1,0,1:0:0:0:
448,76,134009,2,0,P|416:132|416:212,1,145,8|2,0:0|1:2,0:0:0:0:
316,116,134539,1,8,0:0:0:0:
316,116,134627,1,0,0:0:0:0:
316,116,134715,1,0,1:0:0:0:
228,140,134892,1,8,0:0:0:0:
292,204,135068,1,2,1:2:0:0:
252,52,135245,5,0,0:0:0:0:
252,52,135333,1,8,0:0:0:0:
252,52,135421,1,8,0:0:0:0:
292,204,135597,1,8,0:0:0:0:
164,76,135774,1,2,1:2:0:0:
340,28,135950,1,8,0:0:0:0:
368,248,136127,6,0,P|332:284|240:276,1,145,0|2,1:0|0:0,0:0:0:0:
292,204,136656,1,0,1:0:0:0:
216,160,136833,2,0,P|252:124|344:132,1,145,8|2,0:0|1:2,0:0:0:0:
368,248,137362,2,0,L|372:320,1,72.5,8|0,0:0|1:0,0:0:0:0:
420,172,137715,2,0,L|416:100,1,72.5,8|2,0:0|1:2,0:0:0:0:
476,36,138068,1,0,0:0:0:0:
476,36,138245,2,0,P|412:64|336:56,1,145,8|2,0:0|0:0,0:0:0:0:
256,28,138774,1,8,0:0:0:0:
172,56,138950,6,0,P|108:28|32:36,1,145,0|2,1:0|0:0,0:0:0:0:
68,116,139480,1,0,1:0:0:0:
32,196,139656,2,0,P|32:232|40:268,1,72.5,8|0,0:0|0:0,0:0:0:0:
100,332,140009,1,2,1:2:0:0:
188,320,140186,1,8,0:0:0:0:
296,184,140362,1,0,1:0:0:0:
208,172,140539,1,8,0:0:0:0:
376,128,140715,6,0,P|388:156|392:200,1,72.5,12|0,0:0|0:0,0:0:0:0:
384,240,140980,1,8,0:0:0:0:
356,272,141068,1,8,0:0:0:0:
188,320,141245,1,4,1:3:0:0:
296,184,141421,1,8,1:3:0:0:
288,356,141597,1,8,0:0:0:0:
192,212,141774,6,0,P|132:180|60:196,1,145,4|2,1:2|0:0,0:0:0:0:
24,276,142303,1,0,1:0:0:0:
24,276,142480,2,0,L|12:132,1,145,8|2,0:0|1:2,0:0:0:0:
4,36,143009,2,0,P|40:32|76:36,1,72.5,8|0,0:0|1:0,0:0:0:0:
200,96,143362,2,0,P|226:121|246:151,1,72.5,8|2,0:0|1:2,0:0:0:0:
280,284,143715,1,0,0:0:0:0:
272,372,143892,1,8,0:0:0:0:
280,284,144068,2,0,L|288:196,1,72.5,0|2,0:0|0:0,0:0:0:0:
272,372,144421,1,8,0:0:0:0:
372,232,144597,6,0,P|340:140|268:128,1,145,0|2,1:0|0:0,0:0:0:0:
286,211,145127,1,0,1:0:0:0:
76,168,145303,2,0,L|220:156,1,145,8|2,0:0|1:2,0:0:0:0:
356,268,145833,2,0,L|438:261,1,72.5,8|0,0:0|1:0,0:0:0:0:
252,76,146186,2,0,L|170:83,1,72.5,8|2,0:0|1:2,0:0:0:0:
100,44,146539,1,0,0:0:0:0:
100,44,146715,2,0,B|84:88|104:128|104:128|92:152|88:184,1,145,8|2,0:0|1:2,0:0:0:0:
64,328,147245,1,8,0:0:0:0:
124,264,147421,6,0,P|192:244|264:256,1,145,0|2,1:0|0:0,0:0:0:0:
328,316,147950,1,0,0:0:0:0:
328,316,148127,2,0,P|308:248|320:176,1,145,8|2,0:0|1:2,0:0:0:0:
448,100,148656,2,0,P|404:120|379:125,1,72.5,8|0,0:0|1:0,0:0:0:0:
252,52,149009,2,0,P|291:79|308:98,1,72.5,8|2,0:0|1:2,0:0:0:0:
380,244,149362,1,0,0:0:0:0:
456,288,149539,2,0,P|400:328|328:316,1,145,8|2,0:0|1:2,0:0:0:0:
380,244,150068,1,8,0:0:0:0:
252,360,150245,6,0,P|245:291|291:235,1,145,0|2,1:0|0:0,0:0:0:0:
368,192,150774,1,0,1:0:0:0:
368,192,150950,2,0,L|224:188,1,145,8|2,0:0|1:2,0:0:0:0:
136,184,151480,2,0,P|132:196|136:256,1,72.5,8|0,0:0|1:0,0:0:0:0:
296,108,151833,2,0,P|300:96|296:36,1,72.5,8|6,0:0|1:2,0:0:0:0:
220,76,152186,1,0,0:0:0:0:
220,76,152274,1,8,0:0:0:0:
220,76,152362,1,8,0:0:0:0:
112,84,152539,6,0,L|220:76,1,108.75,4|4,0:1|1:2,0:0:0:0:
380,64,153421,6,0,L|436:68,2,54.3750020742417,2|0|8,0:0|1:0|0:0,0:0:0:0:
264,148,154127,2,0,P|264:200|272:256,1,108.750004148483,2|0,0:0|0:0,0:0:0:0:
256,192,223480,5,0,0:0:0:0:
256,192,223568,1,0,0:0:0:0:
256,192,223656,1,2,0:0:0:0:
256,192,224715,1,2,0:0:0:0:
224,156,236362,5,0,0:0:0:0:
324,180,236539,1,0,1:0:0:0:
432,200,236715,1,12,0:0:0:0:
304,172,236892,1,0,0:0:0:0:
272,204,236980,1,8,0:0:0:0:
240,240,237068,1,8,0:0:0:0:
192,160,237245,1,4,1:3:0:0:
272,108,237421,1,8,1:3:0:0:
352,156,237597,1,8,0:0:0:0:
356,252,237774,5,4,1:2:0:0:
