osu file format v14

[General]
AudioFilename: Caramel Heaven.mp3
AudioLeadIn: 0
PreviewTime: 49834
Countdown: 0
SampleSet: Soft
StackLeniency: 0.7
Mode: 0
LetterboxInBreaks: 0
WidescreenStoryboard: 1

[Editor]
DistanceSpacing: 1.3
BeatDivisor: 4
GridSize: 32
TimelineZoom: 1.8

[Metadata]
Title:caramel heaven
TitleUnicode:キャラメルへヴン
Artist:yuikonnu
ArtistUnicode:ゆいこんぬ
Creator:Fast
Version:Hard
Source:
Tags:megpoid gumi vocaloid utaite Fortune Doyak Underflow Last Note
BeatmapID:818102
BeatmapSetID:366884

[Difficulty]
HPDrainRate:5.3
CircleSize:3.8
OverallDifficulty:5.4
ApproachRate:7.5
SliderMultiplier:1.34
SliderTickRate:2

[Events]
//Background and Video events
0,0,"bg.jpg",0,0
//Break Periods
2,704,1999
2,3178,4473
2,5652,6947
2,74576,78700
2,168597,177669
//Storyboard Layer 0 (Background)
//Storyboard Layer 1 (Fail)
//Storyboard Layer 2 (Pass)
//Storyboard Layer 3 (Foreground)
//Storyboard Sound Samples

[TimingPoints]
350,309.278350515464,4,2,1,50,1,0
8391,-100,4,2,1,35,0,0
9009,-100,4,2,1,65,0,0
14963,-100,4,2,1,55,0,0
15040,-100,4,2,1,45,0,0
15195,-100,4,2,1,65,0,0
19911,-100,4,2,1,50,0,0
19989,-100,4,2,1,40,0,0
20066,-100,4,2,1,30,0,0
20143,-100,4,2,1,50,0,0
30040,-100,4,2,1,55,0,0
39396,-100,4,2,1,60,0,0
39473,-100,4,2,1,55,0,0
39551,-100,4,2,1,50,0,0
39628,-100,4,2,1,45,0,0
39705,-100,4,2,1,40,0,0
39782,-100,4,2,1,35,0,0
39860,-100,4,2,1,30,0,0
39937,-100,4,2,1,65,0,0
47978,-100,4,2,19,65,0,0
48056,-100,4,2,1,65,0,0
49834,-100,4,2,1,75,0,1
54473,-100,4,2,1,60,0,1
54551,-100,4,2,1,55,0,1
54628,-100,4,2,1,50,0,1
54705,-100,4,2,1,45,0,1
54782,-100,4,2,1,75,0,1
59499,-100,4,2,1,65,0,1
59576,-100,4,2,1,55,0,1
59654,-100,4,2,1,45,0,1
59731,-100,4,2,1,75,0,1
64525,-100,4,2,1,55,0,1
64602,-100,4,2,1,45,0,1
64679,-100,4,2,1,75,0,1
69396,-100,4,2,1,65,0,1
69473,-100,4,2,1,55,0,1
69551,-100,4,2,1,45,0,1
69628,-100,4,2,1,75,0,0
70865,-100,4,2,1,55,0,0
72102,-100,4,2,1,40,0,0
79525,-100,4,2,1,50,0,0
89422,-100,4,2,1,55,0,0
98777,-100,4,2,1,60,0,0
98855,-100,4,2,1,55,0,0
98932,-100,4,2,1,50,0,0
99009,-100,4,2,1,45,0,0
99087,-100,4,2,1,40,0,0
99164,-100,4,2,1,35,0,0
99241,-100,4,2,1,30,0,0
99319,-100,4,2,1,65,0,0
108752,-100,4,2,1,60,0,0
108829,-100,4,2,1,55,0,0
108906,-100,4,2,1,50,0,0
108984,-100,4,2,1,45,0,0
109061,-100,4,2,1,40,0,0
109138,-100,4,2,1,35,0,0
109215,-100,4,2,1,75,0,1
113855,-100,4,2,1,60,0,1
113932,-100,4,2,1,55,0,1
114009,-100,4,2,1,50,0,1
114087,-100,4,2,1,45,0,1
114164,-100,4,2,1,75,0,1
118880,-100,4,2,1,65,0,1
118958,-100,4,2,1,55,0,1
119035,-100,4,2,1,45,0,1
119112,-100,4,2,1,75,0,1
123906,-100,4,2,1,55,0,1
123984,-100,4,2,1,45,0,1
124061,-100,4,2,1,75,0,1
129009,-100,4,2,1,65,0,0
138674,-100,4,2,1,55,0,0
138752,-100,4,2,1,45,0,0
138829,-100,4,2,1,35,0,0
138906,-100,4,2,1,65,0,0
143623,-100,4,2,1,55,0,0
143700,-100,4,2,1,45,0,0
143777,-100,4,2,1,35,0,0
143855,-100,4,2,1,65,0,0
153520,-100,4,2,1,55,0,0
153597,-100,4,2,1,45,0,0
153674,-100,4,2,1,35,0,0
153752,-100,4,2,1,65,0,0
158468,-100,4,2,1,55,0,0
158545,-100,4,2,1,45,0,0
158623,-100,4,2,1,35,0,0
158700,-100,4,2,1,65,0,0
163417,-100,4,2,1,55,0,0
163494,-100,4,2,1,45,0,0
163571,-100,4,2,1,35,0,0
163648,-100,4,2,1,65,0,0
178494,-100,4,2,1,50,0,0
187154,-100,4,2,1,55,0,0
187618,-100,4,2,1,65,0,0
188081,-100,4,2,1,75,0,0
188159,-100,4,2,1,65,0,0
188236,-100,4,2,1,55,0,0
188313,-100,4,2,1,45,0,0
188391,-100,4,2,1,80,0,1
193030,-100,4,2,1,65,0,1
193107,-100,4,2,1,60,0,1
193185,-100,4,2,1,55,0,1
193262,-100,4,2,1,50,0,1
193339,-100,4,2,1,80,0,1
198056,-100,4,2,1,70,0,1
198133,-100,4,2,1,60,0,1
198210,-100,4,2,1,50,0,1
198288,-100,4,2,1,80,0,1
203004,-100,4,2,1,70,0,1
203081,-100,4,2,1,60,0,1
203159,-100,4,2,1,50,0,1
203236,-100,4,2,1,80,0,1
207953,-100,4,2,1,70,0,1
208030,-100,4,2,1,60,0,1
208107,-100,4,2,1,50,0,1
208185,-100,4,2,1,70,0,0

[Colours]
Combo1 : 255,203,125
Combo2 : 255,147,147
Combo3 : 255,208,208
Combo4 : 255,197,166

[HitObjects]
341,123,350,6,0,L|354:41,1,67,8|8,0:0|0:0,0:0:0:0:
171,261,2824,6,0,L|158:343,1,67,8|8,0:0|0:0,0:0:0:0:
341,261,5298,6,0,L|354:343,1,67,8|8,0:0|0:0,0:0:0:0:
171,123,7772,6,0,L|158:41,1,67,8|8,0:0|0:0,0:0:0:0:
69,302,8391,1,0,0:0:0:0:
69,302,8700,1,0,0:0:0:0:
69,302,9009,6,0,P|123:338|206:310,1,134,4|8,0:0|0:0,0:0:0:0:
242,257,9473,2,0,P|251:191|241:112,1,134,12|8,0:0|0:3,0:0:0:0:
215,41,9937,1,12,0:0:0:0:
401,115,10246,6,0,L|446:103,2,33.5,4|0|2,0:0|0:0|0:3,0:0:0:0:
336,175,10556,2,0,L|326:266,1,67,8|0,0:0|0:0,0:0:0:0:
280,314,10865,2,0,P|321:328|373:321,1,67,2|2,0:3|0:3,0:0:0:0:
242,239,11174,2,0,P|208:240|177:253,1,67,8|0,0:0|0:0,0:0:0:0:
111,311,11484,5,0,0:0:0:0:
59,240,11638,2,0,L|48:158,1,67,2|8,0:3|0:0,0:0:0:0:
126,130,11947,2,0,L|134:63,1,67,2|0,0:3|0:0,0:0:0:0:
218,35,12257,2,0,L|254:23,2,33.5,2|2|8,0:3|0:3|0:0,0:0:0:0:
259,111,12566,6,0,L|411:138,1,134,4|2,0:0|0:3,0:0:0:0:
475,128,13030,2,0,P|469:161|456:192,1,67,8|2,0:0|0:3,0:0:0:0:
380,236,13339,2,0,L|327:225,2,33.5,0|0|0,0:0|0:0|0:0,0:0:0:0:
431,306,13648,2,0,L|507:292,1,67,8|2,0:0|0:3,0:0:0:0:
356,351,13958,6,0,L|280:337,1,67,0|2,0:0|0:3,0:0:0:0:
219,287,14267,2,0,P|204:327|204:361,1,67,8|0,0:0|1:0,0:0:0:0:
298,257,14576,2,0,P|294:223|281:193,1,67,0|2,0:0|0:3,0:0:0:0:
208,145,14886,2,0,L|160:151,2,33.5,8|8|4,0:0|0:3|0:3,0:0:0:0:
243,65,15195,6,0,L|207:20,2,33.5,4|0|2,0:0|0:0|0:3,0:0:0:0:
323,99,15504,2,0,L|401:79,1,67,8|0,0:0|0:0,0:0:0:0:
462,127,15813,1,2,0:3:0:0:
407,195,15968,2,0,L|426:274,1,67,2|8,0:3|0:0,0:0:0:0:
338,282,16277,6,0,L|252:270,1,67,2|0,0:3|0:0,0:0:0:0:
232,351,16587,2,0,L|165:360,1,67,2|8,0:3|0:0,0:0:0:0:
86,323,16896,1,2,0:3:0:0:
3,352,17051,1,0,0:0:0:0:
16,266,17205,2,0,L|4:208,2,33.5,2|2|8,0:3|0:3|0:0,0:0:0:0:
96,233,17514,6,0,P|113:167|112:77,1,134,4|2,0:0|0:3,0:0:0:0:
199,122,17978,2,0,L|289:141,1,67,8|2,0:0|0:3,0:0:0:0:
343,98,18288,2,0,L|360:51,2,33.5,0|0|0,0:0|0:0|0:0,0:0:0:0:
406,157,18597,2,0,L|414:238,1,67,8|2,0:0|0:3,0:0:0:0:
419,310,18906,5,0,0:0:0:0:
337,278,19061,2,0,L|246:288,1,67,2|8,0:3|0:0,0:0:0:0:
199,234,19370,2,0,P|191:189|201:143,1,67,0|0,1:0|0:0,0:0:0:0:
255,107,19679,1,2,0:3:0:0:
194,43,19834,2,0,L|141:28,3,33.5,8|8|8|8,0:0|0:0|0:0|0:0,0:0:0:0:
140,60,20143,6,0,P|70:52|0:68,1,134,4|8,0:0|0:0,0:0:0:0:
50,140,20607,1,2,0:3:0:0:
12,217,20762,2,0,L|4:289,1,67,0|0,0:0|0:0,0:0:0:0:
91,276,21071,2,0,L|99:348,1,67,8|2,0:0|0:3,0:0:0:0:
184,353,21380,6,0,P|241:336|256:261,1,134,0|8,0:0|0:0,0:0:0:0:
216,193,21844,1,2,0:3:0:0:
275,129,21999,2,0,L|350:140,1,67,0|0,0:0|0:0,0:0:0:0:
354,224,22308,2,0,L|429:213,1,67,8|8,0:0|0:0,0:0:0:0:
484,154,22618,6,0,P|492:86|426:36,1,134,8|8,0:0|0:0,0:0:0:0:
364,27,23081,1,2,0:3:0:0:
283,62,23236,2,0,L|272:145,1,67,0|0,0:0|0:0,0:0:0:0:
199,172,23545,2,0,L|190:105,1,67,8|2,0:0|0:3,0:0:0:0:
116,57,23855,6,0,L|48:68,1,67,0|2,0:0|0:3,0:0:0:0:
34,153,24164,2,0,L|100:142,1,67,8|2,0:0|0:3,0:0:0:0:
132,223,24473,2,0,P|182:258|259:230,1,134,0|8,0:0|0:0,0:0:0:0:
321,193,24937,1,8,0:0:0:0:
377,126,25092,6,0,L|368:56,1,67,12|2,0:0|0:3,0:0:0:0:
282,46,25401,2,0,L|290:112,1,67,8|2,0:0|0:3,0:0:0:0:
321,193,25710,1,0,0:0:0:0:
256,252,25865,2,0,L|210:242,2,33.5,2|2|8,0:3|0:3|0:0,0:0:0:0:
329,303,26174,6,0,P|385:288|473:294,1,134,2|2,0:3|0:3,0:0:0:0:
505,216,26638,2,0,L|491:133,1,67,8|2,0:0|0:3,0:0:0:0:
407,162,26947,2,0,L|421:79,1,67,0|2,0:3|0:3,0:0:0:0:
357,32,27257,2,0,L|282:17,1,67,8|8,0:0|0:0,0:0:0:0:
228,79,27566,6,0,B|191:94|191:94|78:76,1,134,4|8,0:0|0:0,0:0:0:0:
21,120,28030,2,0,P|89:132|106:205,1,134,2|2,0:3|0:3,0:0:0:0:
63,261,28494,1,8,0:0:0:0:
231,349,28803,6,0,L|315:333,1,67,8|8,0:0|0:0,0:0:0:0:
310,250,29112,2,0,L|244:262,1,67,8|12,0:0|0:0,0:0:0:0:
171,100,29576,2,0,P|241:98|313:78,1,134,12|8,0:0|0:0,0:0:0:0:
387,61,30040,6,0,P|379:96|371:146,1,67,4|2,0:0|0:3,0:0:0:0:
429,194,30350,2,0,L|506:180,1,67,8|2,0:0|0:3,0:0:0:0:
357,238,30659,2,0,P|299:218|206:210,1,134,0|8,0:0|0:0,0:0:0:0:
143,233,31123,1,2,0:3:0:0:
77,176,31277,6,0,L|91:94,1,67,0|2,0:0|0:3,0:0:0:0:
136,36,31587,2,0,L|56:12,1,67,8|2,0:0|0:3,0:0:0:0:
175,119,31896,2,0,P|251:99|329:107,1,134,0|8,0:0|0:0,0:0:0:0:
387,131,32360,1,8,0:0:0:0:
321,187,32514,6,0,L|304:279,1,67,2|2,0:3|0:3,0:0:0:0:
396,245,32824,2,0,L|413:337,1,67,8|2,0:0|0:3,0:0:0:0:
471,188,33133,2,0,P|483:127|481:36,1,134,0|8,0:0|0:0,0:0:0:0:
405,15,33597,1,2,0:3:0:0:
339,72,33752,6,0,L|267:56,1,67,0|2,0:0|0:3,0:0:0:0:
242,138,34061,2,0,L|314:154,1,67,8|2,0:0|0:3,0:0:0:0:
183,72,34370,2,0,P|155:131|191:210,1,134,0|8,0:0|0:0,0:0:0:0:
254,228,34834,1,8,0:0:0:0:
184,281,34989,6,0,L|96:266,1,67,4|2,0:0|0:3,0:0:0:0:
127,356,35298,2,0,L|193:367,1,67,8|2,0:0|0:3,0:0:0:0:
263,316,35607,1,0,0:0:0:0:
333,367,35762,2,0,L|378:360,2,33.5,2|2|8,0:3|0:3|0:0,0:0:0:0:
346,280,36071,6,0,P|359:216|368:129,1,134,2|2,0:3|0:3,0:0:0:0:
306,74,36535,2,0,L|226:59,1,67,8|2,0:0|0:3,0:0:0:0:
176,121,36844,1,0,0:3:0:0:
93,93,36999,2,0,P|89:46|95:8,2,67,2|8|8,0:3|0:0|0:0,0:0:0:0:
30,154,37463,6,0,P|39:207|24:312,1,134,4|8,0:0|0:0,0:0:0:0:
98,343,37927,2,0,P|151:348|196:265,1,134,2|2,0:3|0:3,0:0:0:0:
154,214,38391,1,8,0:0:0:0:
332,121,38700,6,0,L|406:114,1,67,2|2,0:3|0:3,0:0:0:0:
381,200,39009,2,0,L|455:207,1,67,8|2,0:0|0:3,0:0:0:0:
482,287,39319,2,0,L|468:318,3,33.5,8|8|4|4,0:0|0:0|0:3|0:3,0:0:0:0:
436,330,39628,2,0,L|387:346,3,33.5,8|8|8|8,0:3|0:3|0:3|0:3,0:0:0:0:
377,319,39937,6,0,P|335:297|230:292,1,134,4|2,0:0|0:3,0:0:0:0:
168,319,40401,2,0,L|78:306,1,67,2|8,0:3|0:0,0:0:0:0:
35,252,40710,2,0,L|25:203,2,33.5,0|0|2,0:0|0:0|0:3,0:0:0:0:
118,223,41020,6,0,P|136:158|146:66,1,134,8|2,0:0|0:3,0:0:0:0:
218,44,41484,1,0,0:0:0:0:
294,85,41638,2,0,L|342:73,2,33.5,2|0|8,0:3|0:0|0:0,0:0:0:0:
244,156,41947,2,0,L|232:232,1,67,0|2,0:0|0:3,0:0:0:0:
292,287,42257,1,8,0:0:0:0:
327,208,42411,6,0,P|394:195|451:258,1,134,4|2,0:0|0:3,0:0:0:0:
481,311,42875,2,0,L|485:363,2,33.5,2|2|8,0:3|0:3|0:0,0:0:0:0:
393,314,43185,2,0,L|304:293,1,67,0|2,0:0|0:3,0:0:0:0:
253,344,43494,6,0,P|218:302|120:305,1,134,8|2,0:0|0:3,0:0:0:0:
69,340,43958,1,0,0:0:0:0:
30,262,44112,2,0,L|24:180,1,67,2|8,0:3|0:0,0:0:0:0:
67,118,44422,1,2,0:3:0:0:
145,154,44576,2,0,L|202:143,3,33.5,8|8|8|4,0:0|0:3|0:3|0:3,0:0:0:0:
201,122,44886,6,0,P|265:109|321:175,1,134,4|2,0:0|0:3,0:0:0:0:
265,222,45350,2,0,L|275:310,1,67,2|8,0:3|0:0,0:0:0:0:
342,340,45659,2,0,L|351:378,2,33.5,0|0|2,0:0|0:0|0:3,0:0:0:0:
410,285,45968,6,0,P|419:214|439:144,1,134,8|2,0:0|0:3,0:0:0:0:
489,85,46432,1,2,0:3:0:0:
409,48,46587,2,0,L|316:37,1,67,2|8,0:3|0:0,0:0:0:0:
317,123,46896,2,0,L|224:134,1,67,0|2,0:0|0:3,0:0:0:0:
178,180,47205,1,8,0:0:0:0:
97,146,47360,6,0,L|80:71,2,67,2|2|8,0:3|0:3|0:0,0:0:0:0:
42,214,47824,2,0,L|18:362,1,134,2|2,0:3|0:3,0:0:0:0:
107,354,48288,2,0,L|120:273,1,67,8|2,0:0|0:3,0:0:0:0:
192,219,48597,5,12,0:0:0:0:
192,219,49370,2,0,L|182:138,2,67,8|8|8,0:0|0:3|0:3,0:0:0:0:
261,271,49834,6,0,P|326:253|416:281,1,134,4|8,1:2|0:0,0:0:0:0:
465,309,50298,1,0,0:0:0:0:
501,229,50453,2,0,L|485:142,1,67,2|2,0:3|0:3,0:0:0:0:
466,78,50762,1,8,0:0:0:0:
403,139,50917,6,0,P|351:155|286:86,1,134,4|2,1:2|0:3,0:0:0:0:
297,24,51380,2,0,L|375:39,1,67,8|2,0:0|0:3,0:0:0:0:
216,67,51690,2,0,L|138:82,1,67,2|2,0:3|0:3,0:0:0:0:
80,27,51999,1,8,0:0:0:0:
36,102,52154,6,0,L|23:198,1,67,4|0,1:2|0:0,0:0:0:0:
67,245,52463,2,0,L|76:289,2,33.5,2|2|8,0:3|0:3|0:0,0:0:0:0:
150,218,52772,2,0,L|156:185,2,33.5,2|2|8,0:3|0:3|0:0,0:0:0:0:
185,297,53081,2,0,L|191:329,2,33.5,2|2|8,0:3|0:3|0:0,0:0:0:0:
261,254,53391,6,0,P|326:253|409:284,1,134,4|2,1:2|0:3,0:0:0:0:
455,332,53855,1,8,0:0:0:0:
503,260,54009,2,0,P|502:204|476:115,1,134,4|2,0:0|0:3,0:0:0:0:
408,82,54473,2,0,L|357:70,3,33.5,8|8|8|4,0:0|0:3|0:3|0:3,0:0:0:0:
349,96,54782,6,0,P|291:66|225:97,1,134,4|8,1:2|0:0,0:0:0:0:
194,169,55246,1,0,0:0:0:0:
128,111,55401,2,0,P|86:103|53:101,2,67,2|2|8,0:3|0:3|0:0,0:0:0:0:
109,196,55865,6,0,L|132:340,1,134,4|2,1:2|0:3,0:0:0:0:
205,284,56329,2,0,L|281:262,1,67,8|2,0:0|0:3,0:0:0:0:
278,352,56638,2,0,L|342:370,1,67,2|2,0:3|0:3,0:0:0:0:
417,325,56947,1,8,0:0:0:0:
496,360,57102,6,0,P|505:317|450:244,1,134,4|2,1:2|0:3,0:0:0:0:
369,249,57566,2,0,L|291:262,1,67,8|2,0:0|0:3,0:0:0:0:
223,296,57875,2,0,L|214:328,2,33.5,2|2|2,0:3|0:3|0:3,0:0:0:0:
229,208,58185,1,8,0:0:0:0:
149,243,58339,6,0,P|98:236|68:150,1,134,4|2,1:2|0:3,0:0:0:0:
99,87,58803,1,8,0:0:0:0:
177,125,58958,2,0,P|245:117|322:104,1,134,4|8,0:0|0:0,0:0:0:0:
391,75,59422,2,0,L|451:88,3,33.5,8|8|8|8,0:0|0:0|0:0|0:0,0:0:0:0:
456,92,59731,6,0,P|470:132|422:205,1,134,4|8,1:2|0:0,0:0:0:0:
341,177,60195,1,0,0:0:0:0:
357,262,60350,2,0,L|338:356,1,67,2|2,0:3|0:3,0:0:0:0:
267,369,60659,1,8,0:0:0:0:
201,312,60813,6,0,P|158:303|66:312,1,134,4|2,1:2|0:3,0:0:0:0:
32,231,61277,2,0,L|18:143,1,67,8|2,0:0|0:3,0:0:0:0:
108,180,61587,2,0,L|122:92,1,67,2|2,0:3|0:3,0:0:0:0:
58,50,61896,1,8,0:0:0:0:
142,29,62051,6,0,P|206:33|294:49,1,134,4|2,1:2|0:3,0:0:0:0:
351,85,62514,2,0,L|411:73,2,33.5,8|2|2,0:0|0:3|0:3,0:0:0:0:
297,154,62824,2,0,L|244:139,2,33.5,8|2|2,0:0|0:3|0:3,0:0:0:0:
355,219,63133,1,8,0:0:0:0:
309,293,63288,6,0,P|266:277|156:281,1,134,4|2,1:2|0:3,0:0:0:0:
98,310,63752,1,8,0:0:0:0:
41,244,63906,2,0,P|30:183|109:143,1,134,4|2,0:0|0:3,0:0:0:0:
157,181,64370,2,0,L|201:172,3,33.5,8|0|8|8,0:0|0:0|0:0|0:0,0:0:0:0:
214,150,64679,6,0,P|280:162|364:168,1,134,4|8,1:2|0:0,0:0:0:0:
419,119,65143,1,0,0:0:0:0:
429,205,65298,2,0,L|437:284,2,67,2|2|8,0:3|0:3|0:0,0:0:0:0:
500,155,65762,6,0,P|505:97|442:33,1,134,4|2,1:2|0:3,0:0:0:0:
372,45,66226,2,0,L|300:28,1,67,8|2,0:0|0:3,0:0:0:0:
298,116,66535,2,0,L|232:131,1,67,8|2,0:0|0:3,0:0:0:0:
164,76,66844,1,8,0:0:0:0:
94,129,66999,6,0,L|73:273,1,134,4|2,1:2|0:3,0:0:0:0:
136,323,67463,2,0,L|225:305,1,67,8|2,0:0|0:3,0:0:0:0:
258,243,67772,2,0,L|273:191,2,33.5,8|2|2,0:0|0:3|0:3,0:0:0:0:
288,324,68081,1,8,0:0:0:0:
362,278,68236,6,0,B|423:250|434:304|503:268,1,134,4|2,1:2|0:3,0:0:0:0:
454,194,68700,2,0,L|474:107,1,67,8|2,0:0|0:3,0:0:0:0:
381,131,69009,2,0,L|361:44,1,67,8|2,0:0|0:3,0:0:0:0:
282,91,69319,2,0,L|226:76,3,33.5,8|8|8|8,0:0|0:0|0:0|0:0,0:0:0:0:
216,88,69628,5,4,0:0:0:0:
256,192,69705,12,4,72102,0:1:0:0:
418,296,79525,6,0,L|432:214,1,67,12|2,0:0|0:3,0:0:0:0:
342,232,79834,2,0,L|330:298,1,67,2|2,0:3|0:3,0:0:0:0:
256,343,80143,2,0,P|196:350|151:278,1,134,8|8,0:0|0:0,0:0:0:0:
211,233,80607,1,8,0:0:0:0:
125,213,80762,6,0,L|47:225,1,67,2|8,0:3|0:0,0:0:0:0:
31,140,81071,2,0,L|97:129,1,67,2|2,0:3|0:3,0:0:0:0:
182,146,81380,2,0,P|213:103|296:116,1,134,8|2,0:0|0:3,0:0:0:0:
343,175,81844,1,8,0:0:0:0:
313,257,81999,6,0,L|327:326,1,67,4|2,0:0|0:3,0:0:0:0:
405,360,82308,2,0,P|451:356|486:327,1,67,2|2,0:3|0:3,0:0:0:0:
501,264,82618,2,0,P|484:197|481:114,1,134,8|8,0:0|0:0,0:0:0:0:
495,45,83081,1,8,0:0:0:0:
413,76,83236,6,0,L|339:60,1,67,2|8,0:3|0:0,0:0:0:0:
292,129,83545,2,0,L|218:145,1,67,2|0,0:3|0:0,0:0:0:0:
164,80,83855,2,0,L|26:63,1,134,8|2,0:0|0:3,0:0:0:0:
51,148,84319,1,8,0:0:0:0:
83,228,84473,6,0,L|69:301,1,67,4|0,0:0|0:0,0:0:0:0:
157,284,84782,2,0,L|143:357,1,67,2|8,0:3|0:0,0:0:0:0:
232,346,85092,1,8,0:0:0:0:
296,287,85246,2,0,L|283:238,2,33.5,2|2|2,0:3|0:3|0:3,0:0:0:0:
371,332,85556,6,0,P|426:338|476:271,1,134,8|8,0:0|0:0,0:0:0:0:
482,196,86020,2,0,L|485:105,1,67,2|0,0:3|0:0,0:0:0:0:
420,69,86329,1,8,0:0:0:0:
340,106,86484,2,0,L|264:78,1,67,0|2,0:0|0:3,0:0:0:0:
207,135,86793,1,8,0:0:0:0:
135,86,86947,6,0,P|121:131|166:211,1,134,4|2,0:0|0:3,0:0:0:0:
239,236,87411,2,0,P|296:217|376:219,1,134,8|2,0:0|0:3,0:0:0:0:
435,274,87875,1,8,0:0:0:0:
494,79,88185,6,0,L|481:3,1,67,8|8,0:0|0:0,0:0:0:0:
402,58,88494,2,0,L|413:124,1,67,8|12,0:0|0:0,0:0:0:0:
481,302,88958,2,0,P|424:286|320:288,1,134,12|8,0:0|0:0,0:0:0:0:
278,333,89422,6,0,L|196:319,1,67,4|2,0:0|0:3,0:0:0:0:
132,283,89731,2,0,P|125:315|129:349,1,67,8|2,0:0|0:3,0:0:0:0:
211,238,90040,2,0,P|221:168|202:83,1,134,0|8,0:0|0:0,0:0:0:0:
183,23,90504,1,2,0:3:0:0:
268,41,90659,6,0,L|364:55,1,67,0|2,0:0|0:3,0:0:0:0:
410,93,90968,2,0,P|423:48|414:13,1,67,8|2,0:0|0:3,0:0:0:0:
335,138,91277,2,0,L|350:203,1,67,0|2,0:0|0:3,0:0:0:0:
424,250,91587,2,0,L|409:315,1,67,8|8,0:0|0:0,0:0:0:0:
320,326,91896,5,2,0:3:0:0:
232,338,92051,2,0,L|224:370,2,33.5,2|2|8,0:3|0:3|0:0,0:0:0:0:
260,255,92360,2,0,L|246:173,1,67,8|2,0:0|0:3,0:0:0:0:
298,117,92669,1,10,0:3:0:0:
211,107,92824,2,0,L|133:98,1,67,8|8,0:0|0:0,0:0:0:0:
263,37,93133,6,0,L|341:28,1,67,0|2,0:0|0:3,0:0:0:0:
380,100,93442,2,0,L|446:107,1,67,8|8,0:0|0:0,0:0:0:0:
491,183,93752,2,0,P|486:240|396:276,1,134,0|8,0:0|0:0,0:0:0:0:
364,218,94215,1,8,0:0:0:0:
343,302,94370,6,0,L|351:377,1,67,4|2,0:0|0:3,0:0:0:0:
263,361,94679,2,0,L|255:294,1,67,8|2,0:0|0:3,0:0:0:0:
178,252,94989,1,0,0:0:0:0:
108,304,95143,2,0,L|102:347,2,33.5,2|2|8,0:3|0:3|0:0,0:0:0:0:
42,245,95453,6,0,P|53:174|41:82,1,134,2|2,0:3|0:3,0:0:0:0:
40,20,95917,2,0,L|137:37,1,67,8|2,0:0|0:3,0:0:0:0:
140,111,96226,2,0,L|234:98,1,67,0|2,0:0|0:3,0:0:0:0:
263,36,96535,2,0,L|357:49,1,67,8|8,0:0|0:0,0:0:0:0:
372,117,96844,6,0,P|401:167|360:250,1,134,4|8,0:0|0:0,0:0:0:0:
297,266,97308,2,0,P|232:243|136:243,1,134,2|2,0:3|0:3,0:0:0:0:
84,266,97772,1,8,0:0:0:0:
27,74,98081,6,0,L|97:62,1,67,2|2,0:3|0:3,0:0:0:0:
139,137,98391,2,0,L|209:149,1,67,8|2,0:0|0:3,0:0:0:0:
274,94,98700,2,0,L|331:84,3,33.5,8|8|4|4,0:0|0:0|0:3|0:3,0:0:0:0:
339,101,99009,2,0,L|396:91,3,33.5,8|8|8|8,0:3|0:3|0:3|0:3,0:0:0:0:
402,112,99319,5,4,1:2:0:0:
468,191,99473,1,0,1:0:0:0:
280,349,100092,2,0,L|198:334,1,67,12|0,0:0|0:0,0:0:0:0:
137,379,100401,6,0,P|128:327|174:260,1,134,12|8,0:0|0:0,0:0:0:0:
257,261,100865,2,0,L|322:273,1,67,0|0,0:0|0:0,0:0:0:0:
361,194,101174,2,0,L|295:181,1,67,0|4,0:0|0:0,0:0:0:0:
249,106,101484,2,0,L|239:17,1,67,2|0,0:3|0:0,0:0:0:0:
154,32,101793,5,4,1:2:0:0:
145,132,101947,1,0,1:0:0:0:
366,315,102566,2,0,L|449:298,1,67,12|0,0:0|0:0,0:0:0:0:
448,215,102875,6,0,L|294:246,1,134,12|8,0:0|0:0,0:0:0:0:
249,297,103339,1,0,0:0:0:0:
226,212,103494,2,0,L|237:129,1,67,2|8,0:3|0:0,0:0:0:0:
173,83,103803,1,2,0:3:0:0:
94,122,103958,2,0,L|84:168,3,33.5,8|8|8|4,0:0|0:3|0:3|0:3,0:0:0:0:
106,182,104267,6,0,L|124:264,1,67,4|2,0:0|0:3,0:0:0:0:
141,332,104576,2,0,L|61:319,1,67,8|0,0:0|0:0,0:0:0:0:
205,276,104886,2,0,L|285:263,1,67,2|2,0:3|0:3,0:0:0:0:
329,330,105195,1,8,0:0:0:0:
403,283,105350,6,0,P|415:213|361:153,1,134,4|2,0:0|0:3,0:0:0:0:
295,149,105813,2,0,L|228:159,1,67,8|2,0:0|0:3,0:0:0:0:
160,104,106123,1,0,0:0:0:0:
240,71,106277,2,0,L|305:62,2,33.5,2|0|8,0:3|0:0|0:0,0:0:0:0:
170,17,106587,1,8,0:0:0:0:
90,51,106741,6,0,L|6:35,1,67,4|2,0:0|0:3,0:0:0:0:
12,125,107051,2,0,L|77:137,1,67,8|2,0:0|0:3,0:0:0:0:
88,224,107360,2,0,L|22:211,1,67,8|2,0:0|0:3,0:0:0:0:
109,312,107669,2,0,L|174:299,1,67,8|2,0:0|0:3,0:0:0:0:
229,231,107978,6,0,P|270:223|341:300,1,134,12|8,0:0|0:0,0:0:0:0:
371,357,108442,1,8,0:3:0:0:
450,321,108597,2,0,L|459:273,3,33.5,8|8|8|8,0:3|0:3|0:0|0:0,0:0:0:0:
441,257,108906,2,0,L|432:209,3,33.5,8|8|8|8,0:0|0:0|0:0|0:0,0:0:0:0:
459,200,109215,6,0,L|473:60,1,134,4|8,1:2|0:0,0:0:0:0:
405,11,109679,1,0,0:0:0:0:
331,57,109834,2,0,L|261:34,1,67,2|2,0:3|0:3,0:0:0:0:
198,89,110143,1,8,0:0:0:0:
253,156,110298,6,0,P|251:208|176:252,1,134,4|2,1:2|0:3,0:0:0:0:
116,202,110762,2,0,L|101:123,1,67,8|2,0:0|0:3,0:0:0:0:
25,175,111071,2,0,L|37:240,1,67,2|2,0:3|0:3,0:0:0:0:
10,323,111380,1,8,0:0:0:0:
96,313,111535,6,0,P|177:321|193:324,1,67,4|0,1:2|0:0,0:0:0:0:
239,277,111844,2,0,L|257:227,2,33.5,2|2|8,0:3|0:3|0:0,0:0:0:0:
320,310,112154,2,0,L|331:341,2,33.5,2|2|8,0:3|0:3|0:0,0:0:0:0:
358,231,112463,2,0,L|369:199,2,33.5,2|2|8,0:3|0:3|0:0,0:0:0:0:
432,276,112772,6,0,P|488:251|491:161,1,134,4|2,1:2|0:3,0:0:0:0:
467,104,113236,1,8,0:0:0:0:
383,78,113391,2,0,P|314:76|226:88,1,134,4|2,0:0|0:3,0:0:0:0:
166,111,113855,2,0,L|113:98,3,33.5,8|8|8|4,0:0|0:3|0:3|0:3,0:0:0:0:
108,81,114164,6,0,P|48:116|52:174,1,134,4|8,1:2|0:0,0:0:0:0:
129,214,114628,1,2,0:3:0:0:
58,264,114782,2,0,L|48:345,1,67,2|2,0:3|0:3,0:0:0:0:
126,372,115092,1,8,0:0:0:0:
190,313,115246,6,0,P|231:298|332:308,1,134,4|2,1:2|0:3,0:0:0:0:
401,334,115710,2,0,L|420:253,1,67,8|2,0:0|0:3,0:0:0:0:
341,223,116020,2,0,L|322:142,1,67,2|2,0:3|0:3,0:0:0:0:
378,88,116329,1,8,0:0:0:0:
291,73,116484,6,0,P|221:59|140:60,1,134,4|2,1:2|0:3,0:0:0:0:
180,141,116947,2,0,L|198:233,1,67,8|2,0:0|0:3,0:0:0:0:
158,287,117257,2,0,L|115:312,2,33.5,2|2|2,0:3|0:3|0:3,0:0:0:0:
245,288,117566,1,8,0:0:0:0:
285,210,117721,6,0,P|353:197|398:253,1,134,4|2,1:2|0:3,0:0:0:0:
422,322,118185,1,8,0:0:0:0:
482,260,118339,2,0,P|480:198|469:101,1,134,4|8,0:0|0:0,0:0:0:0:
407,68,118803,2,0,L|362:59,3,33.5,8|8|8|8,0:0|0:0|0:0|0:0,0:0:0:0:
345,43,119112,6,0,P|266:69|198:65,1,134,4|8,1:2|0:0,0:0:0:0:
142,20,119576,1,0,0:0:0:0:
140,107,119731,2,0,L|138:196,1,67,2|2,0:3|0:3,0:0:0:0:
196,239,120040,1,8,0:0:0:0:
115,272,120195,6,0,P|140:309|235:317,1,134,4|2,1:2|0:3,0:0:0:0:
284,260,120659,2,0,L|293:177,1,67,8|2,0:0|0:3,0:0:0:0:
378,201,120968,2,0,L|369:118,1,67,2|2,0:3|0:3,0:0:0:0:
428,69,121277,1,8,0:0:0:0:
342,51,121432,6,0,P|283:69|198:66,1,134,4|2,1:2|0:3,0:0:0:0:
125,50,121896,2,0,L|112:123,1,67,8|2,0:0|0:3,0:0:0:0:
59,184,122205,2,0,L|17:201,2,33.5,2|2|2,0:3|0:3|0:3,0:0:0:0:
144,201,122514,1,8,0:0:0:0:
124,286,122669,6,0,P|180:278|231:199,1,134,4|2,1:2|0:3,0:0:0:0:
199,138,123133,1,8,0:0:0:0:
285,152,123288,2,0,P|356:152|428:118,1,134,4|2,0:0|0:3,0:0:0:0:
491,166,123752,2,0,L|500:220,3,33.5,8|0|8|8,0:0|0:0|0:0|0:0,0:0:0:0:
480,229,124061,6,0,L|471:308,1,67,4|0,1:2|0:0,0:0:0:0:
385,307,124370,2,0,L|392:240,1,67,8|0,0:0|0:0,0:0:0:0:
335,174,124679,1,2,0:3:0:0:
258,216,124834,2,0,L|169:198,1,67,2|8,0:3|0:0,0:0:0:0:
125,146,125143,6,0,P|105:207|135:271,1,134,4|2,1:2|0:3,0:0:0:0:
215,294,125607,2,0,L|280:307,1,67,8|2,0:0|0:3,0:0:0:0:
360,270,125917,1,8,0:0:0:0:
290,218,126071,2,0,L|273:130,1,67,2|8,0:3|0:0,0:0:0:0:
346,99,126380,6,0,P|297:68|220:86,1,134,4|2,1:2|0:3,0:0:0:0:
194,163,126844,2,0,L|206:228,1,67,8|2,0:0|0:3,0:0:0:0:
152,297,127154,2,0,L|141:360,2,33.5,8|2|2,0:0|0:3|0:3,0:0:0:0:
94,231,127463,1,8,0:0:0:0:
21,279,127618,6,0,P|5:215|40:160,1,134,4|2,1:2|0:3,0:0:0:0:
128,149,128081,2,0,L|194:163,1,67,8|2,0:0|0:3,0:0:0:0:
192,250,128391,2,0,L|257:236,1,67,8|2,0:0|0:3,0:0:0:0:
326,182,128700,2,0,L|339:129,3,33.5,8|8|8|8,0:0|0:0|0:0|0:0,0:0:0:0:
348,118,129009,6,0,P|355:189|369:271,1,134,4|8,1:2|0:0,0:0:0:0:
417,320,129473,1,0,0:0:0:0:
331,335,129628,2,0,L|256:319,1,67,2|2,0:0|0:3,0:0:0:0:
180,303,129937,1,8,0:0:0:0:
105,347,130092,6,0,P|95:293|143:223,1,134,4|2,1:2|0:3,0:0:0:0:
221,223,130556,2,0,L|286:236,1,67,8|2,0:0|0:3,0:0:0:0:
345,172,130865,1,2,0:0:0:0:
420,216,131020,2,0,L|431:269,2,33.5,2|2|8,0:3|0:3|0:0,0:0:0:0:
489,162,131329,6,0,P|490:118|406:57,1,134,4|2,1:2|0:3,0:0:0:0:
344,37,131793,2,0,P|278:38|186:63,2,134,8|8|8,0:0|0:0|0:0,0:0:0:0:
366,121,132566,1,0,0:0:0:0:
428,58,132721,6,0,P|453:112|411:199,1,134,4|8,1:2|0:0,0:0:0:0:
352,215,133185,2,0,P|279:199|199:202,1,134,0|2,1:0|0:3,0:0:0:0:
161,262,133648,2,0,L|172:339,1,67,8|8,0:0|0:3,0:0:0:0:
73,248,133958,6,0,L|89:167,1,67,4|0,1:2|0:0,0:0:0:0:
0,179,134267,2,0,L|16:98,1,67,8|0,0:0|0:0,0:0:0:0:
81,59,134576,2,0,P|133:44|207:93,1,134,8|8,0:0|0:0,0:0:0:0:
237,159,135040,6,0,B|273:187|273:187|311:176|311:176|374:208|429:155,1,201,4|8,1:2|0:0,0:0:0:0:
458,85,135659,1,2,0:3:0:0:
504,158,135813,2,0,P|514:211|498:310,1,134,8|8,0:0|0:0,0:0:0:0:
432,338,136277,6,0,L|283:316,1,134,4|2,1:2|0:3,0:0:0:0:
213,304,136741,2,0,L|196:221,1,67,8|2,0:0|0:3,0:0:0:0:
271,188,137051,2,0,L|288:105,1,67,8|2,0:0|0:3,0:0:0:0:
220,62,137360,1,8,0:0:0:0:
302,36,137514,6,0,B|351:25|351:25|438:52,2,134,4|8|2,1:2|0:0|0:0,0:0:0:0:
284,122,138288,2,2,L|271:192,1,67,2|0,0:1|0:0,0:1:0:0:
316,262,138597,2,0,L|329:323,3,33.5,8|8|8|8,0:0|0:0|0:0|0:0,0:0:0:0:
301,321,138906,6,0,P|229:303|160:325,1,134,4|8,1:2|0:0,0:0:0:0:
97,363,139370,1,2,0:3:0:0:
24,315,139525,2,0,L|37:233,1,67,8|2,0:0|0:3,0:0:0:0:
121,244,139834,2,0,L|108:162,1,67,8|2,0:0|0:3,0:0:0:0:
59,107,140143,6,0,B|98:89|98:89|202:105,1,134,4|8,1:2|0:0,0:0:0:0:
231,178,140607,1,2,0:3:0:0:
279,105,140762,2,0,L|294:27,1,67,8|2,0:0|0:3,0:0:0:0:
369,78,141071,2,0,L|456:89,1,67,8|2,0:0|0:3,0:0:0:0:
457,172,141380,6,0,L|472:259,1,67,4|2,1:2|0:3,0:0:0:0:
394,285,141690,2,0,L|382:218,1,67,8|2,0:0|0:3,0:0:0:0:
305,178,141999,2,0,L|227:164,1,67,4|2,1:2|0:3,0:0:0:0:
239,253,142308,2,0,L|317:267,1,67,8|2,0:0|0:3,0:0:0:0:
228,336,142618,6,0,L|162:324,1,67,4|2,1:2|0:3,0:0:0:0:
87,278,142927,2,0,P|79:318|84:355,1,67,8|2,0:0|0:3,0:0:0:0:
160,240,143236,2,0,P|161:206|154:174,1,67,4|2,1:2|0:3,0:0:0:0:
84,121,143545,2,0,L|46:114,3,33.5,8|8|8|8,0:0|0:0|0:0|0:0,0:0:0:0:
19,106,143855,6,0,L|155:89,1,134,4|8,1:2|0:0,0:0:0:0:
229,49,144319,1,2,0:3:0:0:
231,135,144473,2,0,L|245:212,1,67,8|2,0:0|0:3,0:0:0:0:
324,170,144782,2,0,L|312:104,1,67,8|2,0:0|0:3,0:0:0:0:
399,114,145092,6,0,L|427:258,1,134,4|8,1:2|0:0,0:0:0:0:
443,330,145556,1,0,0:3:0:0:
358,309,145710,2,0,L|277:297,1,67,8|2,0:0|0:3,0:3:0:0:
250,222,146020,2,0,L|169:234,1,67,8|2,0:0|0:3,0:3:0:0:
97,246,146329,6,0,P|45:198|62:123,1,134,4|8,1:2|0:0,0:0:0:0:
89,61,146793,1,0,0:0:0:0:
172,36,146947,2,0,L|254:23,1,67,8|2,0:0|0:3,0:0:0:0:
230,112,147257,2,0,L|312:125,1,67,8|2,0:0|0:3,0:0:0:0:
373,82,147566,6,0,L|406:7,2,67,4|8|8,1:2|0:0|0:0,0:0:0:0:
371,169,148030,2,0,P|396:236|409:304,1,134,2|2,0:1|0:3,0:0:0:0:
347,360,148494,2,0,L|297:346,3,33.5,8|8|8|4,0:0|0:3|0:3|0:3,0:0:0:0:
285,368,148803,6,0,L|151:373,1,134,4|2,0:0|0:3,0:0:0:0:
75,329,149267,1,2,0:3:0:0:
150,285,149422,2,0,P|159:208|175:135,1,134,8|2,0:0|0:3,0:0:0:0:
219,80,149886,6,0,P|256:123|337:118,1,134,8|2,0:0|0:3,0:0:0:0:
407,84,150350,2,0,L|421:168,1,67,0|2,0:0|0:3,0:0:0:0:
360,215,150659,1,8,0:0:0:0:
444,234,150813,2,0,L|480:223,2,33.5,2|0|2,0:3|0:0|0:3,0:0:0:0:
384,298,151123,1,8,0:0:0:0:
298,284,151277,6,0,P|231:273|149:260,1,134,4|2,0:0|0:3,0:0:0:0:
97,317,151741,1,2,0:3:0:0:
72,233,151896,2,0,P|68:179|93:85,1,134,8|2,0:0|0:3,0:0:0:0:
151,44,152360,6,0,P|208:29|271:93,1,134,8|2,0:0|0:3,0:0:0:0:
282,156,152824,2,0,L|261:238,1,67,0|2,0:0|0:3,0:0:0:0:
178,225,153133,2,0,L|194:289,1,67,8|2,0:0|0:3,0:0:0:0:
260,347,153442,2,0,L|308:332,3,33.5,8|8|8|4,0:0|0:3|0:3|0:3,0:0:0:0:
324,348,153752,6,0,P|386:355|470:374,1,134,4|2,0:0|0:3,0:0:0:0:
508,301,154215,1,2,0:3:0:0:
423,280,154370,2,0,P|406:220|420:129,1,134,8|2,0:0|0:3,0:0:0:0:
478,92,154834,6,0,P|423:100|330:68,1,134,8|2,0:0|0:3,0:0:0:0:
274,32,155298,2,0,L|187:43,1,67,0|2,0:0|0:3,0:0:0:0:
121,53,155607,1,8,0:0:0:0:
170,124,155762,2,0,L|151:199,1,67,2|2,0:3|0:3,0:0:0:0:
129,272,156071,1,8,0:0:0:0:
214,255,156226,6,0,P|279:254|367:285,1,134,4|2,0:0|0:3,0:0:0:0:
418,319,156690,2,0,P|456:293|448:188,1,134,2|2,0:3|0:3,0:0:0:0:
395,158,157154,2,0,L|308:172,1,67,2|8,0:3|0:0,0:0:0:0:
279,96,157463,6,0,L|429:72,1,134,0|8,0:0|0:0,0:0:0:0:
474,134,157927,2,0,P|478:185|414:240,1,134,2|2,0:3|0:3,0:0:0:0:
335,253,158391,2,0,L|286:243,3,33.5,8|8|8|8,0:0|0:0|0:0|0:0,0:0:0:0:
273,264,158700,6,0,L|197:275,1,67,4|2,0:0|0:3,0:0:0:0:
135,324,159009,1,8,0:0:0:0:
123,237,159164,2,0,L|144:155,1,67,0|2,0:0|0:3,0:0:0:0:
52,165,159473,2,0,L|35:100,1,67,2|8,0:3|0:0,0:0:0:0:
90,32,159782,6,0,P|140:24|211:68,1,134,4|2,0:0|0:3,0:0:0:0:
237,147,160246,2,0,L|226:224,1,67,8|0,0:0|0:0,0:0:0:0:
212,299,160556,1,2,0:3:0:0:
295,274,160710,2,0,L|380:286,1,67,2|8,0:3|0:0,0:0:0:0:
447,299,161020,1,0,0:0:0:0:
417,217,161174,6,0,P|392:156|439:84,1,134,2|8,0:3|0:0,0:0:0:0:
473,29,161638,1,0,0:0:0:0:
386,16,161793,2,0,L|297:40,1,67,2|2,0:3|0:3,0:0:0:0:
272,105,162102,1,8,0:0:0:0:
220,34,162257,6,0,P|188:82|217:175,1,134,4|0,0:0|0:0,0:0:0:0:
278,190,162721,2,0,L|353:175,1,67,8|2,0:0|0:3,0:0:0:0:
330,263,163030,2,0,L|405:278,1,67,0|2,0:0|0:3,0:0:0:0:
357,354,163339,2,0,L|308:364,3,33.5,8|8|8|8,0:0|0:0|0:0|0:0,0:0:0:0:
291,367,163648,6,0,P|225:345|146:341,1,134,2|8,0:3|0:0,0:0:0:0:
76,363,164112,1,0,0:0:0:0:
59,277,164267,2,0,L|48:191,1,67,2|2,0:3|0:3,0:0:0:0:
37,124,164576,1,8,0:0:0:0:
117,158,164731,6,0,P|176:179|258:141,1,134,4|2,0:0|0:3,0:0:0:0:
314,109,165195,2,0,L|324:28,1,67,8|2,0:0|0:3,0:0:0:0:
400,81,165504,2,0,L|391:147,1,67,0|2,0:0|0:3,0:0:0:0:
320,197,165813,2,0,L|328:263,1,67,8|8,0:0|0:0,0:0:0:0:
397,317,166123,6,0,L|480:338,2,67,4|2|8,0:0|0:3|0:0,0:0:0:0:
318,355,166587,2,0,P|253:335|163:341,1,134,2|2,0:3|0:3,0:0:0:0:
103,358,167051,2,0,L|87:276,1,67,8|2,0:0|0:3,0:0:0:0:
66,193,167360,5,4,0:0:0:0:
76,91,178494,6,0,L|226:114,1,134,4|8,0:3|0:1,0:0:0:0:
276,56,178958,1,0,0:0:0:0:
289,141,179112,2,0,L|294:218,2,67,8|2|8,0:1|0:3|0:1,0:0:0:0:
358,88,179576,6,0,P|424:84|469:138,1,134,4|0,0:3|0:0,0:0:0:0:
462,217,180040,2,0,L|449:288,1,67,8|0,0:1|0:0,0:0:0:0:
363,295,180350,2,0,L|375:229,1,67,8|0,0:1|0:0,0:0:0:0:
329,154,180659,1,8,0:1:0:0:
260,207,180813,6,0,P|211:208|136:157,1,134,4|0,0:3|0:0,0:0:0:0:
124,78,181277,2,0,L|118:33,2,33.5,8|0|0,0:1|0:0|0:0,0:0:0:0:
56,134,181587,2,0,L|14:123,2,33.5,8|0|2,0:1|0:0|0:3,0:0:0:0:
75,218,181896,1,8,0:1:0:0:
140,164,182051,6,0,P|189:163|264:214,1,134,4|0,0:3|0:0,0:0:0:0:
285,289,182514,1,8,0:1:0:0:
220,347,182669,2,0,P|261:373|358:333,1,134,8|2,0:1|0:3,0:0:0:0:
372,273,183133,1,8,0:1:0:0:
252,103,183442,6,0,L|95:121,1,134,4|8,0:3|0:1,0:0:0:0:
48,67,183906,1,0,0:0:0:0:
41,154,184061,2,0,L|36:247,1,67,8|2,0:1|0:3,0:0:0:0:
30,307,184370,1,8,0:1:0:0:
109,270,184525,6,0,P|167:263|246:328,1,134,4|0,0:3|0:0,0:0:0:0:
280,371,184989,2,0,L|354:358,1,67,8|0,0:1|0:0,0:0:0:0:
338,272,185298,2,0,L|403:283,1,67,8|2,0:1|0:3,0:0:0:0:
465,345,185607,1,8,0:1:0:0:
490,261,185762,6,0,L|472:108,1,134,4|2,0:3|0:3,0:0:0:0:
390,105,186226,2,0,L|397:178,1,67,8|0,0:1|0:0,0:0:0:0:
340,238,186535,2,0,L|338:272,2,33.5,8|0|0,0:1|0:0|0:0,0:0:0:0:
267,190,186844,2,0,L|196:148,1,67,8|8,0:1|0:1,0:0:0:0:
121,106,187154,5,4,1:3:0:0:
206,54,187308,1,4,1:3:0:0:
202,260,187618,5,4,1:3:0:0:
117,208,187772,1,4,1:3:0:0:
303,159,188081,6,0,L|296:110,3,33.5,8|8|8|8,0:0|0:0|0:0|0:0,0:0:0:0:
290,96,188391,6,0,P|351:99|435:63,1,134,4|8,1:2|0:0,0:0:0:0:
477,9,188855,1,0,0:0:0:0:
504,91,189009,2,0,L|494:167,1,67,2|2,0:3|0:3,0:0:0:0:
482,244,189319,1,8,0:0:0:0:
411,192,189473,6,0,P|369:185|296:254,1,134,4|2,1:2|0:3,0:0:0:0:
273,320,189937,2,0,L|191:326,1,67,8|2,0:0|0:3,0:0:0:0:
200,237,190246,2,0,L|133:232,1,67,0|2,0:0|0:3,0:0:0:0:
65,288,190556,1,8,0:0:0:0:
47,203,190710,6,0,L|65:120,1,67,4|0,1:2|0:0,0:0:0:0:
112,66,191020,2,0,L|109:29,2,33.5,2|2|8,0:3|0:3|0:0,0:0:0:0:
189,108,191329,2,0,L|185:141,2,33.5,2|2|8,0:3|0:3|0:0,0:0:0:0:
250,46,191638,2,0,L|246:12,2,33.5,2|2|8,0:3|0:3|0:0,0:0:0:0:
297,118,191947,6,0,P|362:96|431:97,1,134,4|2,1:2|0:3,0:0:0:0:
495,150,192411,1,8,0:0:0:0:
415,185,192566,2,0,P|398:226|445:297,1,134,4|2,0:0|0:3,0:0:0:0:
382,359,193030,2,0,L|335:350,3,33.5,8|8|8|4,0:0|0:3|0:3|0:3,0:0:0:0:
318,338,193339,6,0,L|181:360,1,134,4|8,1:2|0:0,0:0:0:0:
104,326,193803,1,0,0:0:0:0:
174,275,193958,2,0,L|158:185,1,67,2|2,0:3|0:3,0:0:0:0:
210,136,194267,1,8,0:0:0:0:
123,126,194422,6,0,P|139:82|232:54,1,134,4|2,1:2|0:3,0:0:0:0:
287,98,194886,2,0,L|298:163,1,67,8|2,0:0|0:3,0:0:0:0:
361,224,195195,1,2,0:3:0:0:
277,249,195350,2,0,L|208:234,1,67,2|8,0:3|0:0,0:0:0:0:
165,309,195659,6,0,L|301:338,1,134,4|2,1:2|0:3,0:0:0:0:
362,280,196123,1,8,0:0:0:0:
349,194,196277,2,0,L|336:103,1,67,2|2,0:3|0:3,0:0:0:0:
252,115,196587,2,0,L|261:181,1,67,2|8,0:3|0:0,0:0:0:0:
199,242,196896,6,0,P|156:251|101:174,1,134,4|2,1:2|0:3,0:0:0:0:
126,107,197360,1,8,0:0:0:0:
208,79,197514,2,0,L|348:99,1,134,4|8,0:0|0:0,0:0:0:0:
395,165,197978,2,0,L|448:155,3,33.5,8|8|8|8,0:0|0:0|0:0|0:0,0:0:0:0:
461,147,198288,6,0,L|446:293,1,134,4|8,1:2|0:0,0:0:0:0:
507,343,198752,1,0,0:0:0:0:
423,367,198906,2,0,L|347:347,1,67,2|2,0:3|0:3,0:0:0:0:
273,329,199215,1,8,0:0:0:0:
332,265,199370,6,0,P|319:198|240:177,1,134,4|2,1:2|0:3,0:0:0:0:
178,189,199834,1,8,0:0:0:0:
198,104,199989,2,0,L|215:18,1,67,0|0,0:0|0:0,0:0:0:0:
125,55,200298,2,0,L|112:120,1,67,2|8,0:3|0:0,0:0:0:0:
32,156,200607,6,0,P|52:218|58:292,1,134,4|2,1:2|0:3,0:0:0:0:
41,371,201071,2,0,L|131:353,1,67,8|2,0:0|0:3,0:0:0:0:
150,282,201380,2,0,L|132:223,2,33.5,2|2|2,0:3|0:3|0:3,0:0:0:0:
221,332,201690,1,8,0:0:0:0:
285,274,201844,6,0,P|337:263|422:293,1,134,4|2,1:2|0:3,0:0:0:0:
470,351,202308,1,8,0:0:0:0:
499,268,202463,2,0,P|464:203|465:127,1,134,4|2,0:0|0:3,0:0:0:0:
482,59,202927,2,0,L|439:48,3,33.5,8|8|8|8,0:0|0:0|0:0|0:0,0:0:0:0:
420,33,203236,6,0,L|275:61,1,134,4|8,1:2|0:0,0:0:0:0:
207,25,203700,1,2,0:3:0:0:
218,111,203855,2,0,L|231:198,1,67,2|2,0:3|0:3,0:0:0:0:
298,228,204164,1,8,0:0:0:0:
219,266,204319,6,0,P|154:274|90:235,1,134,4|2,1:2|0:3,0:0:0:0:
51,167,204782,2,0,L|60:100,1,67,8|2,0:0|0:3,0:0:0:0:
123,38,205092,1,8,0:0:0:0:
203,69,205246,2,0,L|263:53,2,33.5,2|2|8,0:3|0:3|0:0,0:0:0:0:
156,143,205556,6,0,P|150:209|216:251,1,134,4|2,1:2|0:3,0:0:0:0:
283,265,206020,2,0,L|365:282,1,67,8|2,0:0|0:3,0:0:0:0:
434,292,206329,2,0,L|451:353,2,33.5,8|2|2,0:0|0:3|0:3,0:0:0:0:
405,209,206638,1,8,0:0:0:0:
484,172,206793,6,0,P|457:137|348:143,1,134,4|2,1:2|0:3,0:0:0:0:
318,195,207257,2,0,L|311:267,1,67,8|2,0:0|0:3,0:0:0:0:
231,225,207566,2,0,L|237:158,1,67,8|2,0:0|0:3,0:0:0:0:
176,95,207875,2,0,L|184:45,3,33.5,8|8|8|8,0:0|0:0|0:0|0:0,0:0:0:0:
164,32,208185,5,4,0:0:0:0:
