osu file format v14

[General]
AudioFilename: rtyrt.mp3
AudioLeadIn: 0
PreviewTime: 56730
Countdown: 1
SampleSet: Normal
StackLeniency: 0.2
Mode: 0
LetterboxInBreaks: 1
WidescreenStoryboard: 0

[Editor]
Bookmarks: 49230
DistanceSpacing: 0.5
BeatDivisor: 4
GridSize: 16
TimelineZoom: 1

[Metadata]
Title:Yume Chizu
TitleUnicode:Yume Chizu
Artist:yuikonnu
ArtistUnicode:yuikonnu
Creator:pashty
Version:Dream
Source:
Tags:
BeatmapID:1587793
BeatmapSetID:754145

[Difficulty]
HPDrainRate:5
CircleSize:4.3
OverallDifficulty:9.3
ApproachRate:9.2
SliderMultiplier:1.5
SliderTickRate:1

[Events]
//Background and Video events
0,0,"328617.jpg",0,0
//Break Periods
2,134146,142751
//Storyboard Layer 0 (Background)
//Storyboard Layer 1 (Fail)
//Storyboard Layer 2 (Pass)
//Storyboard Layer 3 (Foreground)
//Storyboard Sound Samples

[TimingPoints]
140,340.909090909091,4,1,0,100,1,0
1247,-25,4,1,0,100,0,0
1588,-1000,4,1,0,100,0,0
2867,-333.333333333333,4,1,0,100,0,0
4145,-133.333333333333,4,1,0,100,0,0
5594,-333.333333333333,4,1,0,100,0,0
7128,-133.333333333333,4,1,0,100,0,0
8321,-333.333333333333,4,1,0,100,0,0
11049,-100,4,1,0,100,0,0
15821,-71.4285714285714,4,1,0,100,0,0
16674,-100,4,1,0,100,0,0
19230,-100,4,1,0,100,0,0
20240,-66.6666666666667,4,1,0,100,0,0
25026,-100,4,1,0,100,0,0
44799,-66.6666666666667,4,1,0,100,0,0
44969,-50,4,1,0,100,0,0
45310,-100,4,1,0,100,0,0
46503,-200,4,1,0,100,0,0
51958,-100,4,1,0,100,0,0
57412,-66.6666666666667,4,1,0,100,0,1
79060,-100,4,1,0,100,0,0
92185,-66.6666666666667,4,1,0,100,0,0
92867,-100,4,1,0,100,0,0
94912,-66.6666666666667,4,1,0,100,0,0
95594,-100,4,1,0,100,0,0
97640,-66.6666666666667,4,1,0,100,0,0
98321,-100,4,1,0,100,0,0
131049,-100,4,1,0,100,0,1
133946,-100,4,1,0,100,0,0
144685,-100,4,1,0,40,0,0
150108,-100,4,1,0,60,0,0
151503,-100,4,1,0,80,0,0
155594,-100,4,1,0,100,0,0
166333,-100,4,1,0,100,0,1
174685,-100,4,1,0,100,0,0
186787,-200,4,1,0,100,0,0
187128,-200,4,1,0,5,0,0

[HitObjects]
144,192,2526,5,0,0:0:0:0:
224,96,2696,1,0,0:0:0:0:
272,256,2867,2,0,L|300:319,1,67.4999979400635
416,208,3890,5,0,0:0:0:0:
320,96,4060,1,0,0:0:0:0:
416,208,4401,6,0,L|368:160,1,56.2500021457673
416,208,4912,5,0,0:0:0:0:
320,96,5083,1,0,0:0:0:0:
336,256,5253,1,0,0:0:0:0:
432,48,5424,1,0,0:0:0:0:
277,194,5594,2,0,L|224:244,1,67.4999979400635
96,176,6617,5,0,0:0:0:0:
192,288,6787,1,0,0:0:0:0:
95,178,7128,6,0,L|145:237,1,56.2500021457673
96,176,7640,5,0,0:0:0:0:
208,304,7810,1,0,0:0:0:0:
44,251,7980,1,0,0:0:0:0:
244,226,8151,1,0,0:0:0:0:
110,306,8321,2,0,L|46:346,1,67.4999979400635
193,164,9344,5,0,0:0:0:0:
298,93,9515,1,0,0:0:0:0:
244,226,9685,2,0,L|224:271,1,44.999998626709
376,223,10367,2,0,L|393:175,1,44.999998626709
448,326,11049,5,0,0:0:0:0:
351,163,11219,1,0,0:0:0:0:
332,310,11390,5,0,0:0:0:0:
442,124,11560,1,0,0:0:0:0:
385,273,11730,5,0,0:0:0:0:
258,61,11900,1,0,0:0:0:0:
256,262,12071,5,0,0:0:0:0:
398,24,12241,1,0,0:0:0:0:
372,176,12583,5,0,0:0:0:0:
393,283,12753,1,0,0:0:0:0:
482,105,12924,1,0,0:0:0:0:
318,129,13094,1,0,0:0:0:0:
280,132,13179,1,0,0:0:0:0:
245,146,13264,1,0,0:0:0:0:
215,168,13349,1,0,0:0:0:0:
192,197,13434,1,0,0:0:0:0:
176,231,13520,1,0,0:0:0:0:
170,268,13605,6,0,P|171:316|207:355,1,75
284,185,13946,1,0,0:0:0:0:
103,270,14117,1,0,0:0:0:0:
284,306,14287,2,0,P|340:291|364:263,1,75
374,113,14628,1,0,0:0:0:0:
251,203,14799,2,0,P|201:158|201:131,1,75
290,28,15140,5,0,0:0:0:0:
331,196,15310,1,0,0:0:0:0:
446,41,15480,2,0,P|432:93|400:123,1,75
234,152,15821,2,0,P|195:181|174:236,1,104.999996795654
112,338,16162,2,0,P|165:328|215:279,1,104.999996795654
212,105,16503,5,0,0:0:0:0:
127,253,16674,1,0,0:0:0:0:
82,56,16844,2,0,P|130:83|151:117,1,75
44,236,17185,1,0,0:0:0:0:
261,163,17355,1,0,0:0:0:0:
166,342,17526,2,0,P|226:322|256:288,1,75
144,128,17867,1,0,0:0:0:0:
368,192,18037,1,0,0:0:0:0:
240,16,18208,5,0,0:0:0:0:
288,224,18378,1,0,0:0:0:0:
356,46,18549,1,0,0:0:0:0:
176,160,18719,1,0,0:0:0:0:
426,145,18890,5,0,0:0:0:0:
144,256,19060,1,0,0:0:0:0:
336,304,19230,1,0,0:0:0:0:
240,112,19401,2,0,P|192:80|160:80,1,75
144,224,19742,1,0,0:0:0:0:
336,128,19912,1,0,0:0:0:0:
144,32,20083,1,0,0:0:0:0:
320,224,20253,6,0,P|256:208|192:160,1,112.500004291535
352,48,20594,2,0,P|400:96|416:160,1,112.500004291535
256,272,20935,1,0,0:0:0:0:
288,64,21105,1,0,0:0:0:0:
96,160,21276,1,0,0:0:0:0:
336,144,21446,1,0,0:0:0:0:
144,304,21617,1,0,0:0:0:0:
176,64,21787,1,0,0:0:0:0:
304,288,21958,1,0,0:0:0:0:
96,176,22128,2,0,P|48:128|48:80,1,112.500004291535
224,32,22469,5,0,0:0:0:0:
160,224,22640,1,0,0:0:0:0:
304,144,22810,2,0,P|352:112|432:96,1,112.500004291535
304,288,23151,1,0,0:0:0:0:
352,64,23321,1,0,0:0:0:0:
448,256,23492,5,0,0:0:0:0:
208,48,23662,1,0,0:0:0:0:
448,121,23833,5,0,0:0:0:0:
72,181,24003,1,0,0:0:0:0:
321,11,24174,5,0,0:0:0:0:
116,351,24344,1,0,0:0:0:0:
116,351,24429,1,0,0:0:0:0:
116,351,24515,1,0,0:0:0:0:
160,48,24685,1,0,0:0:0:0:
240,208,24855,5,0,0:0:0:0:
304,128,25026,2,0,P|352:160|368:208,1,75
304,288,25367,1,0,0:0:0:0:
432,224,25537,1,0,0:0:0:0:
288,176,25708,2,0,P|240:160|208:128,1,75
304,64,26049,1,0,0:0:0:0:
144,80,26219,1,0,0:0:0:0:
256,208,26390,1,0,0:0:0:0:
208,80,26560,2,0,P|192:128|160:160,1,75
112,272,26901,2,0,P|160:272|192:240,1,75
208,128,27242,1,0,0:0:0:0:
128,336,27412,5,0,0:0:0:0:
240,224,27583,1,0,0:0:0:0:
208,352,27753,1,0,0:0:0:0:
320,256,27924,1,0,0:0:0:0:
288,352,28094,1,0,0:0:0:0:
416,256,28265,2,0,P|384:208|352:192,1,75
240,208,28605,2,0,P|240:160|256:128,1,75
400,64,28946,2,0,P|384:112|336:144,1,75
192,176,29287,1,0,0:0:0:0:
416,112,29458,1,0,0:0:0:0:
288,272,29628,2,0,P|336:224|336:192,1,75
304,64,29969,1,0,0:0:0:0:
288,320,30140,5,0,0:0:0:0:
192,208,30310,1,0,0:0:0:0:
144,352,30480,2,0,P|112:320|96:288,1,75
144,128,30821,1,0,0:0:0:0:
272,208,30992,1,0,0:0:0:0:
128,288,31162,1,0,0:0:0:0:
208,144,31333,2,0,P|240:112|304:96,1,112.5
320,112,31674,2,0,P|304:176|256:224,1,112.5
272,240,32015,2,0,P|336:272|400:256,1,112.5
384,240,32355,2,0,P|416:192|400:112,1,112.5
400,112,32696,6,0,P|272:144|176:80,1,225
304,48,33378,2,0,P|336:80|352:128,1,75
288,224,33719,2,0,P|256:192|240:144,1,75
368,176,34060,2,0,P|400:208|416:256,1,75
352,352,34401,2,0,P|320:320|304:272,1,75
416,176,34742,1,0,0:0:0:0:
288,352,34912,1,0,0:0:0:0:
288,144,35083,1,0,0:0:0:0:
400,304,35253,1,0,0:0:0:0:
176,192,35424,1,0,0:0:0:0:
432,96,35594,2,0,P|400:144|304:160,1,150
368,32,36105,5,0,0:0:0:0:
352,240,36276,1,0,0:0:0:0:
256,48,36446,1,0,0:0:0:0:
448,176,36617,1,0,0:0:0:0:
208,144,36787,2,0,P|176:192|128:208,1,75
352,176,37128,1,0,0:0:0:0:
224,272,37299,1,0,0:0:0:0:
256,112,37469,2,0,P|272:176|288:192,1,75
400,272,37810,2,0,P|384:320|336:336,1,75
304,144,38151,1,0,0:0:0:0:
128,320,38321,5,0,0:0:0:0:
192,240,38492,1,0,0:0:0:0:
224,336,38662,1,0,0:0:0:0:
112,240,38833,2,0,P|160:192|160:160,1,75
128,80,39174,1,0,0:0:0:0:
32,208,39344,1,0,0:0:0:0:
208,208,39515,2,0,P|256:192|288:144,1,75
128,336,39855,1,0,0:0:0:0:
240,256,40026,1,0,0:0:0:0:
112,224,40196,2,0,P|112:176|144:144,1,75
272,144,40537,2,0,P|320:128|336:96,1,75
176,48,40878,1,0,0:0:0:0:
368,208,41049,5,0,0:0:0:0:
448,128,41219,1,0,0:0:0:0:
448,272,41390,2,0,P|400:304|368:304,1,75
352,256,41730,2,0,P|304:288|272:288,1,75
336,112,42071,1,0,0:0:0:0:
176,112,42242,2,0,P|128:144|112:240,1,150
124,247,42668,1,0,0:0:0:0:
147,258,42753,5,0,0:0:0:0:
221,133,42924,1,0,0:0:0:0:
244,315,43094,1,0,0:0:0:0:
104,133,43265,1,0,0:0:0:0:
104,133,43350,1,0,0:0:0:0:
104,133,43435,2,0,P|128:192|160:208,1,75
208,64,43776,1,0,0:0:0:0:
304,192,43946,1,0,0:0:0:0:
336,48,44117,1,0,0:0:0:0:
448,176,44287,2,0,P|432:240|400:256,1,75
272,208,44628,2,0,P|240:256|240:304,1,75
384,240,44969,6,0,L|304:80,1,150
448,160,45310,1,0,0:0:0:0:
320,304,45480,1,0,0:0:0:0:
240,128,45651,1,0,0:0:0:0:
448,240,45821,1,0,0:0:0:0:
352,32,45992,1,0,0:0:0:0:
256,256,46162,1,0,0:0:0:0:
176,48,46333,1,0,0:0:0:0:
184,84,46418,1,0,0:0:0:0:
208,112,46503,6,0,P|240:144|304:144,1,112.5
112,208,47185,1,0,0:0:0:0:
240,288,47526,1,0,0:0:0:0:
320,192,47696,1,0,0:0:0:0:
320,320,47867,1,0,0:0:0:0:
240,208,48037,1,0,0:0:0:0:
368,256,48208,1,0,0:0:0:0:
416,80,48549,6,0,P|384:112|384:128,1,56.25
384,144,48889,2,0,P|374:170|351:184,1,56.25
336,192,49230,2,0,P|288:224|304:272,1,112.5
272,64,49912,1,0,0:0:0:0:
144,176,50253,1,0,0:0:0:0:
64,272,50423,1,0,0:0:0:0:
64,144,50594,1,0,0:0:0:0:
144,256,50764,1,0,0:0:0:0:
16,208,50935,1,0,0:0:0:0:
208,320,51276,5,0,0:0:0:0:
320,144,51446,1,0,0:0:0:0:
304,288,51617,5,0,0:0:0:0:
176,112,51787,1,0,0:0:0:0:
176,112,51872,1,0,0:0:0:0:
176,112,51958,2,0,L|192:192,1,75
320,192,52299,2,0,L|304:288,1,75
112,80,52640,2,0,L|128:160,1,75
352,240,52981,2,0,L|336:336,1,75
192,112,53321,5,0,0:0:0:0:
256,256,53492,1,0,0:0:0:0:
304,112,53662,1,0,0:0:0:0:
160,224,53833,1,0,0:0:0:0:
224,64,54003,1,0,0:0:0:0:
320,240,54174,1,0,0:0:0:0:
112,80,54344,1,0,0:0:0:0:
208,304,54515,1,0,0:0:0:0:
320,80,54685,5,0,0:0:0:0:
80,256,54855,1,0,0:0:0:0:
384,144,55026,5,0,0:0:0:0:
73,178,55196,1,0,0:0:0:0:
416,224,55367,5,0,0:0:0:0:
117,92,55537,1,0,0:0:0:0:
416,304,55708,5,0,0:0:0:0:
218,34,55878,1,0,0:0:0:0:
336,368,56049,5,0,0:0:0:0:
297,18,56219,1,0,0:0:0:0:
208,368,56390,1,0,0:0:0:0:
176,64,56730,6,0,L|208:160,1,75
352,160,57071,2,0,L|320:256,1,75
256,336,57412,2,0,L|256:208,1,112.500004291535
160,64,57753,1,0,0:0:0:0:
336,176,57924,1,0,0:0:0:0:
128,240,58094,1,0,0:0:0:0:
272,48,58265,1,0,0:0:0:0:
368,288,58435,2,0,B|416:208|416:208|416:176,1,112.500004291535
320,48,58776,5,0,0:0:0:0:
416,288,58946,1,0,0:0:0:0:
224,128,59117,1,0,0:0:0:0:
480,208,59287,1,0,0:0:0:0:
272,320,59458,2,0,B|192:336|192:336|160:304,1,112.500004291535
224,192,59799,2,0,B|170:130|170:130|181:87,1,112.500004291535
352,160,60140,2,0,B|336:96|336:96|400:96,1,112.500004291535
416,272,60480,5,0,0:0:0:0:
256,96,60651,1,0,0:0:0:0:
256,336,60821,1,0,0:0:0:0:
112,160,60992,1,0,0:0:0:0:
368,272,61162,2,0,B|384:192|384:192|336:144,1,112.500004291535
208,80,61503,1,0,0:0:0:0:
304,320,61674,1,0,0:0:0:0:
384,64,61844,1,0,0:0:0:0:
160,240,62015,1,0,0:0:0:0:
384,256,62185,6,0,B|467:229|467:229|486:188,1,112.500004291535
388,105,62526,2,0,B|417:28|417:28|391:-8,1,112.500004291535
257,119,62867,2,0,B|250:53|250:53|190:75,1,112.500004291535
206,69,63122,1,0,0:0:0:0:
206,69,63208,5,0,0:0:0:0:
288,272,63378,1,0,0:0:0:0:
80,160,63549,1,0,0:0:0:0:
352,144,63719,1,0,0:0:0:0:
112,336,63890,2,0,B|176:288|176:288|192:224,1,112.500004291535
80,128,64230,1,0,0:0:0:0:
320,224,64401,1,0,0:0:0:0:
192,32,64571,5,0,0:0:0:0:
224,304,64742,1,0,0:0:0:0:
304,80,64912,5,0,0:0:0:0:
174,321,65083,1,0,0:0:0:0:
368,192,65253,5,0,0:0:0:0:
123,316,65424,1,0,0:0:0:0:
368,320,65594,2,0,B|432:272|432:272|416:224,1,112.500004291535
336,240,65935,2,0,B|354:162|354:162|311:135,1,112.500004291535
224,144,66276,2,0,B|187:72|187:72|137:80,1,112.500004291535
96,192,66617,5,0,0:0:0:0:
432,208,66787,1,0,0:0:0:0:
240,96,66958,1,0,0:0:0:0:
288,288,67128,1,0,0:0:0:0:
368,112,67299,1,0,0:0:0:0:
144,240,67469,1,0,0:0:0:0:
192,32,67640,1,0,0:0:0:0:
368,272,67810,1,0,0:0:0:0:
352,64,67980,1,0,0:0:0:0:
300,85,68065,1,0,0:0:0:0:
263,127,68151,6,0,P|224:176|208:256,1,112.500004291535
384,192,68492,1,0,0:0:0:0:
256,16,68662,1,0,0:0:0:0:
272,272,68833,1,0,0:0:0:0:
400,64,69003,1,0,0:0:0:0:
144,160,69174,1,0,0:0:0:0:
400,256,69344,2,0,B|336:320|336:320|288:304,1,112.500004291535
320,176,69685,5,0,0:0:0:0:
80,128,69855,1,0,0:0:0:0:
192,304,70026,1,0,0:0:0:0:
224,48,70196,1,0,0:0:0:0:
368,208,70367,2,0,B|304:256|304:256|272:208,1,112.500004291535
288,144,70708,2,0,B|210:125|210:125|226:70,1,112.500004291535
384,64,71049,2,0,B|432:96|432:96|400:176,1,112.500004291535
411,146,71304,1,0,0:0:0:0:
411,146,71390,5,0,0:0:0:0:
272,48,71560,1,0,0:0:0:0:
320,272,71730,1,0,0:0:0:0:
400,64,71901,1,0,0:0:0:0:
160,192,72071,5,0,0:0:0:0:
448,192,72242,2,0,P|416:256|368:288,1,112.500004291535
256,128,72583,1,0,0:0:0:0:
480,272,72753,1,0,0:0:0:0:
224,288,72924,1,0,0:0:0:0:
400,112,73094,2,0,P|352:176|304:192,1,112.500004291535
176,64,73435,5,0,0:0:0:0:
128,288,73605,2,0,P|192:272|224:224,1,112.500004291535
219,237,73861,1,0,0:0:0:0:
219,237,73946,1,0,0:0:0:0:
32,352,74117,1,0,0:0:0:0:
128,176,74287,1,0,0:0:0:0:
192,352,74458,1,0,0:0:0:0:
32,192,74628,1,0,0:0:0:0:
272,304,74799,2,0,B|320:272|320:272|336:224|384:176,1,168.750006437302
400,176,75140,6,0,P|352:96|304:112,1,112.500004291535
346,95,75395,1,0,0:0:0:0:
346,95,75480,1,0,0:0:0:0:
224,240,75651,1,0,0:0:0:0:
256,48,75821,1,0,0:0:0:0:
336,256,75992,1,0,0:0:0:0:
160,64,76162,1,0,0:0:0:0:
432,208,76333,2,0,P|400:272|320:288,1,112.500004291535
368,160,76674,5,0,0:0:0:0:
80,288,76844,2,0,P|112:224|160:208,1,112.500004291535
160,352,77185,1,0,0:0:0:0:
112,96,77355,1,0,0:0:0:0:
240,256,77526,1,0,0:0:0:0:
240,64,77696,2,0,P|320:80|352:144,1,112.500004291535
224,160,78037,5,0,0:0:0:0:
432,336,78208,2,0,P|448:272|432:224,1,112.500004291535
272,128,78549,1,0,0:0:0:0:
432,304,78719,1,0,0:0:0:0:
208,240,78890,1,0,0:0:0:0:
208,240,78975,1,0,0:0:0:0:
208,240,79060,1,0,0:0:0:0:
464,144,79230,1,0,0:0:0:0:
464,144,79571,1,0,0:0:0:0:
464,144,79912,5,0,0:0:0:0:
336,112,80083,1,0,0:0:0:0:
368,240,80253,1,0,0:0:0:0:
256,128,80424,1,0,0:0:0:0:
256,128,80765,1,0,0:0:0:0:
256,128,81105,1,0,0:0:0:0:
256,128,81446,5,0,0:0:0:0:
192,272,81617,2,0,L|224:320,2,37.5
112,112,81958,1,0,0:0:0:0:
112,112,82299,1,0,0:0:0:0:
112,112,82640,5,0,0:0:0:0:
240,160,82810,1,0,0:0:0:0:
352,128,82980,1,0,0:0:0:0:
240,288,83151,1,0,0:0:0:0:
240,288,83492,2,0,L|320:288,1,75
256,256,83833,2,0,L|304:176,1,75
224,224,84174,5,0,0:0:0:0:
160,96,84344,2,0,L|176:48,2,37.5
96,272,84685,1,0,0:0:0:0:
96,272,85026,1,0,0:0:0:0:
96,272,85367,5,0,0:0:0:0:
224,208,85537,1,0,0:0:0:0:
352,256,85708,1,0,0:0:0:0:
208,304,85878,1,0,0:0:0:0:
208,304,86219,1,0,0:0:0:0:
208,272,86390,1,0,0:0:0:0:
240,256,86560,1,0,0:0:0:0:
250,225,86731,1,0,0:0:0:0:
288,192,86901,5,0,0:0:0:0:
240,64,87071,2,0,L|208:32,2,37.5
368,192,87412,1,0,0:0:0:0:
416,96,87583,1,0,0:0:0:0:
448,208,87753,1,0,0:0:0:0:
336,96,87924,1,0,0:0:0:0:
304,256,88094,1,0,0:0:0:0:
432,144,88265,1,0,0:0:0:0:
448,288,88435,5,0,0:0:0:0:
288,160,88605,1,0,0:0:0:0:
448,96,88776,1,0,0:0:0:0:
336,304,88946,1,0,0:0:0:0:
320,32,89117,1,0,0:0:0:0:
144,288,89287,1,0,0:0:0:0:
464,80,89458,1,0,0:0:0:0:
80,112,89628,1,0,0:0:0:0:
432,336,89799,1,0,0:0:0:0:
432,336,89884,1,0,0:0:0:0:
432,336,89969,5,0,0:0:0:0:
224,16,90140,2,0,P|176:64|176:160,1,150
192,256,90651,2,0,P|288:240|320:176,1,150
272,32,91162,2,0,P|352:32|416:96,1,150
199,262,91674,2,0,P|127:248|80:192,1,150
224,112,92185,2,0,P|288:128|352:192,1,112.500004291535
416,272,92526,2,0,P|352:288|288:272,1,112.500004291535
192,64,92867,6,0,P|128:96|80:192,1,150
272,224,93378,2,0,P|336:208|400:144,1,150
176,144,93890,2,0,P|176:224|240:288,1,150
384,48,94401,2,0,P|320:32|256:80,1,150
416,192,94912,2,0,P|400:256|352:304,1,112.500004291535
256,192,95253,2,0,P|208:224|176:288,1,112.500004291535
400,256,95594,6,0,P|416:192|368:96,1,150
240,32,96105,2,0,P|176:80|160:176,1,150
336,160,96617,2,0,P|304:240|240:272,1,150
224,48,97128,2,0,P|304:48|368:96,1,150
192,208,97640,2,0,P|224:272|288:304,1,112.500004291535
352,208,97980,2,0,P|320:144|272:112,1,112.500004291535
128,96,98321,6,0,P|64:192|80:240,1,150
208,144,98833,2,0,P|240:176|256:208,1,75
176,288,99174,2,0,P|224:320|272:320,1,75
336,272,99515,2,0,P|384:304|400:320,1,75
288,96,99855,5,0,0:0:0:0:
336,352,100026,1,0,0:0:0:0:
448,128,100196,1,0,0:0:0:0:
176,288,100367,1,0,0:0:0:0:
240,32,100537,1,0,0:0:0:0:
384,144,100708,1,0,0:0:0:0:
398,178,100793,1,0,0:0:0:0:
397,215,100878,1,0,0:0:0:0:
380,248,100963,1,0,0:0:0:0:
351,272,101049,6,0,P|288:304|208:288,1,150
208,80,101560,2,0,L|304:64,1,75
304,224,101901,2,0,L|230:236,1,75
249,70,102242,2,0,L|344:88,1,75
290,238,102583,2,0,L|216:224,1,75
291,75,102924,2,0,L|375:124,1,75
272,247,103265,2,0,L|207:209,1,75
328,94,103605,1,0,0:0:0:0:
80,208,103776,6,0,P|112:256|208:288,1,150
320,96,104287,2,0,L|256:48,1,75
160,192,104628,2,0,L|224:240,1,75
283,79,104969,2,0,L|206:56,1,75
165,224,105310,2,0,L|242:248,1,75
243,77,105651,2,0,L|163:81,1,75
182,253,105992,2,0,L|262:249,1,75
204,88,106333,5,0,0:0:0:0:
352,224,106503,2,0,P|416:192|448:112,1,150
256,160,107015,2,0,P|224:192|208:240,1,75
288,320,107355,2,0,P|320:288|336:240,1,75
245,161,107696,2,0,P|225:202|227:253,1,75
329,301,108036,2,0,P|348:260|347:209,1,75
235,167,108378,2,0,P|231:212|250:259,1,75
362,269,108718,2,0,P|366:224|348:177,1,75
228,175,109060,5,0,0:0:0:0:
400,304,109230,1,0,0:0:0:0:
400,80,109401,1,0,0:0:0:0:
256,304,109571,1,0,0:0:0:0:
256,80,109742,1,0,0:0:0:0:
426,287,109912,5,0,0:0:0:0:
383,44,110083,1,0,0:0:0:0:
270,314,110253,1,0,0:0:0:0:
227,71,110424,1,0,0:0:0:0:
451,264,110594,5,0,0:0:0:0:
359,10,110765,1,0,0:0:0:0:
288,324,110935,1,0,0:0:0:0:
195,69,111106,1,0,0:0:0:0:
461,229,111276,5,0,0:0:0:0:
304,0,111447,1,0,0:0:0:0:
310,316,111617,1,0,0:0:0:0:
310,316,111702,1,0,0:0:0:0:
310,316,111787,1,0,0:0:0:0:
128,64,111958,2,0,P|144:128|176:144,1,75
272,128,112299,5,0,0:0:0:0:
352,80,112469,1,0,0:0:0:0:
320,224,112640,1,0,0:0:0:0:
208,96,112810,1,0,0:0:0:0:
224,256,112980,2,0,P|240:208|288:176,1,75
416,176,113492,5,0,0:0:0:0:
336,272,113662,1,0,0:0:0:0:
336,112,113833,1,0,0:0:0:0:
432,256,114003,1,0,0:0:0:0:
448,48,114174,1,0,0:0:0:0:
288,192,114344,2,0,L|320:240,2,37.5
192,32,114685,6,0,P|160:64|144:112,1,75
192,288,115026,5,0,0:0:0:0:
80,256,115196,1,0,0:0:0:0:
128,352,115366,1,0,0:0:0:0:
160,208,115537,1,0,0:0:0:0:
256,352,115708,2,0,P|288:320|304:272,1,75
288,112,116219,5,0,0:0:0:0:
208,192,116390,1,0,0:0:0:0:
352,192,116560,1,0,0:0:0:0:
208,96,116730,1,0,0:0:0:0:
272,256,116901,1,0,0:0:0:0:
336,48,117071,1,0,0:0:0:0:
336,48,117157,1,0,0:0:0:0:
336,48,117242,6,0,P|384:64|416:112,1,75
240,176,117583,1,0,0:0:0:0:
384,208,117753,1,0,0:0:0:0:
304,304,117924,1,0,0:0:0:0:
304,96,118094,1,0,0:0:0:0:
160,272,118265,1,0,0:0:0:0:
416,144,118435,1,0,0:0:0:0:
144,96,118605,2,0,P|144:144|176:192,1,75
154,168,118861,1,0,0:0:0:0:
154,168,118946,5,0,0:0:0:0:
288,64,119117,1,0,0:0:0:0:
368,240,119287,2,0,P|336:288|288:288,1,75
224,144,119628,2,0,P|256:96|304:96,1,75
400,304,119969,5,0,0:0:0:0:
224,64,120140,2,0,B|176:80|176:80|128:112|128:112|80:128,1,150
192,32,120651,1,0,0:0:0:0:
128,208,120821,2,0,P|192:160|208:160,1,75
368,192,121162,5,0,0:0:0:0:
32,192,121333,2,0,P|64:256|144:304,1,150
112,112,121844,1,0,0:0:0:0:
272,240,122015,1,0,0:0:0:0:
224,64,122185,1,0,0:0:0:0:
128,256,122355,1,0,0:0:0:0:
384,144,122526,1,0,0:0:0:0:
112,64,122696,1,0,0:0:0:0:
304,320,122867,2,0,P|352:320|400:224,1,150
272,128,123549,5,0,0:0:0:0:
256,256,123719,1,0,0:0:0:0:
368,160,123890,1,0,0:0:0:0:
176,160,124060,2,0,P|208:208|240:208,1,75
336,112,124401,2,0,P|304:64|272:64,1,75
192,240,124742,1,0,0:0:0:0:
240,48,124912,1,0,0:0:0:0:
320,240,125083,1,0,0:0:0:0:
144,80,125253,2,0,L|176:32,2,37.5
48,240,125594,6,0,P|80:288|192:288,1,150
160,128,126105,2,0,P|208:112|320:160,1,150
160,256,126617,1,0,0:0:0:0:
304,32,126787,2,0,P|352:48|384:96,1,75
336,256,127128,1,0,0:0:0:0:
240,96,127299,1,0,0:0:0:0:
208,288,127469,1,0,0:0:0:0:
400,128,127640,1,0,0:0:0:0:
128,176,127810,1,0,0:0:0:0:
368,304,127980,2,0,L|400:352,2,37.5
224,64,128321,5,0,0:0:0:0:
256,192,128492,1,0,0:0:0:0:
320,80,128662,1,0,0:0:0:0:
160,160,128833,1,0,0:0:0:0:
256,32,129003,2,0,P|272:80|272:128,1,75
144,240,129344,1,0,0:0:0:0:
352,80,129515,2,0,P|336:128|304:160,1,75
112,176,129855,1,0,0:0:0:0:
112,176,129941,1,0,0:0:0:0:
112,176,130026,6,0,P|144:208|192:224,1,75
176,64,130367,1,0,0:0:0:0:
256,320,130537,1,0,0:0:0:0:
288,80,130708,1,0,0:0:0:0:
144,304,130878,1,0,0:0:0:0:
352,126,131049,5,0,0:0:0:0:
98,205,131219,1,0,0:0:0:0:
400,240,131390,5,0,0:0:0:0:
105,116,131560,1,0,0:0:0:0:
350,364,131730,5,0,0:0:0:0:
175,22,131900,1,0,0:0:0:0:
208,368,132071,1,0,0:0:0:0:
208,368,132157,1,0,0:0:0:0:
208,368,132242,5,0,0:0:0:0:
96,160,132412,1,0,0:0:0:0:
352,256,132583,1,0,0:0:0:0:
112,256,132753,5,0,0:0:0:0:
421,146,132924,1,0,0:0:0:0:
207,364,133094,1,0,0:0:0:0:
243,354,133179,1,0,0:0:0:0:
274,333,133264,1,0,0:0:0:0:
298,304,133349,1,0,0:0:0:0:
311,270,133435,2,0,P|320:224|304:192,1,75
192,64,133946,1,0,0:0:0:0:
208,112,143321,6,0,L|272:192,2,75
256,224,144003,1,0,0:0:0:0:
256,224,144344,1,0,0:0:0:0:
256,224,144685,2,0,L|320:288,11,75
352,192,146730,2,0,L|288:128,1,75
144,224,147071,2,0,L|208:288,1,75
309,277,147412,2,0,L|256:224,11,75
298,138,149458,2,0,L|351:191,1,75
196,276,149799,2,0,L|142:222,1,75
256,224,150140,5,0,0:0:0:0:
320,288,150310,1,0,0:0:0:0:
320,160,150480,1,0,0:0:0:0:
240,320,150651,1,0,0:0:0:0:
224,160,150821,1,0,0:0:0:0:
368,256,150992,1,0,0:0:0:0:
336,64,151162,2,0,L|288:144,1,75
160,208,151503,5,0,0:0:0:0:
240,64,151674,1,0,0:0:0:0:
256,272,151844,1,0,0:0:0:0:
128,80,152015,1,0,0:0:0:0:
128,288,152185,2,0,P|176:320|208:320,1,75
256,160,152526,2,0,P|208:128|176:128,1,75
256,336,152867,2,0,P|336:320|368:256,1,150
240,160,153549,1,0,0:0:0:0:
240,256,153890,6,0,L|336:208,1,75
204,60,154401,2,0,L|185:13,2,37.5
261,198,154742,1,0,0:0:0:0:
121,116,154912,1,0,0:0:0:0:
321,60,155083,1,0,0:0:0:0:
290,292,155253,1,0,0:0:0:0:
310,322,155338,1,0,0:0:0:0:
342,341,155423,1,0,0:0:0:0:
379,345,155508,1,0,0:0:0:0:
414,332,155593,5,0,0:0:0:0:
323,189,155765,1,0,0:0:0:0:
270,321,155935,1,0,0:0:0:0:
459,201,156105,1,0,0:0:0:0:
277,93,156276,1,0,0:0:0:0:
345,313,156446,1,0,0:0:0:0:
446,62,156617,2,0,P|421:114|385:138,1,75
224,185,156958,5,0,0:0:0:0:
368,43,157128,1,0,0:0:0:0:
342,254,157299,1,0,0:0:0:0:
212,31,157469,1,0,0:0:0:0:
137,268,157640,2,0,P|179:304|219:300,1,75
261,236,157980,2,0,P|315:226|338:193,1,75
316,45,158321,2,0,P|260:39|187:117,1,150
356,133,158833,5,0,0:0:0:0:
220,254,159003,1,0,0:0:0:0:
249,63,159174,1,0,0:0:0:0:
345,237,159344,5,0,0:0:0:0:
71,71,159515,2,0,P|115:117|133:212,1,150
176,16,160026,1,0,0:0:0:0:
56,261,160196,1,0,0:0:0:0:
234,109,160367,2,0,P|260:164|302:173,1,75
361,48,160708,5,0,0:0:0:0:
221,307,160878,2,0,P|271:298|297:269,1,75
255,103,161219,1,0,0:0:0:0:
169,261,161390,2,0,P|130:241|101:194,1,75
226,162,161730,1,0,0:0:0:0:
58,283,161901,1,0,0:0:0:0:
129,131,162071,2,0,P|171:142|207:118,1,75
156,18,162412,2,0,P|116:15|74:41,1,75
188,180,162753,5,0,0:0:0:0:
128,47,162924,1,0,0:0:0:0:
85,184,163094,2,0,P|107:231|147:263,1,75
255,124,163435,1,0,0:0:0:0:
213,340,163605,1,0,0:0:0:0:
379,204,163776,1,0,0:0:0:0:
217,229,163946,2,0,P|167:204|149:171,1,75
276,126,164287,5,0,0:0:0:0:
200,303,164458,1,0,0:0:0:0:
373,172,164628,1,0,0:0:0:0:
301,323,164799,1,0,0:0:0:0:
205,131,164969,1,0,0:0:0:0:
381,208,165140,1,0,0:0:0:0:
295,45,165310,5,0,0:0:0:0:
246,278,165480,1,0,0:0:0:0:
439,121,165651,1,0,0:0:0:0:
439,121,165736,1,0,0:0:0:0:
439,121,165821,1,0,0:0:0:0:
183,113,165992,1,0,0:0:0:0:
359,278,166162,1,0,0:0:0:0:
359,278,166247,1,0,0:0:0:0:
359,278,166333,5,0,0:0:0:0:
251,28,166503,1,0,0:0:0:0:
112,144,166674,1,0,0:0:0:0:
177,43,166844,5,0,0:0:0:0:
110,222,167015,1,0,0:0:0:0:
112,80,167185,5,0,0:0:0:0:
144,277,167356,1,0,0:0:0:0:
64,144,167526,5,0,0:0:0:0:
196,306,167697,1,0,0:0:0:0:
160,128,167867,1,0,0:0:0:0:
80,304,168037,1,0,0:0:0:0:
224,192,168208,1,0,0:0:0:0:
64,96,168378,1,0,0:0:0:0:
176,336,168549,1,0,0:0:0:0:
176,336,168634,1,0,0:0:0:0:
176,336,168719,5,0,0:0:0:0:
192,64,168890,1,0,0:0:0:0:
336,272,169060,1,0,0:0:0:0:
256,48,169230,5,0,0:0:0:0:
278,325,169400,1,0,0:0:0:0:
333,54,169571,5,0,2:0:0:0:
202,330,169741,1,0,2:0:0:0:
404,103,169913,5,0,2:0:0:0:
127,294,170083,1,0,2:0:0:0:
432,224,170253,1,0,0:0:0:0:
112,144,170424,1,0,0:0:0:0:
352,336,170594,1,0,0:0:0:0:
288,64,170765,1,0,0:0:0:0:
288,64,170850,1,0,0:0:0:0:
288,64,170935,5,0,0:0:0:0:
224,336,171105,1,0,0:0:0:0:
384,96,171276,1,0,0:0:0:0:
80,288,171446,1,0,0:0:0:0:
413,194,171617,5,0,0:0:0:0:
413,194,171702,1,0,0:0:0:0:
413,194,171787,5,0,0:0:0:0:
59,152,171958,1,0,0:0:0:0:
393,312,172128,5,0,0:0:0:0:
138,41,172299,1,0,0:0:0:0:
288,384,172469,5,0,0:0:0:0:
263,10,172640,1,0,0:0:0:0:
164,351,172810,5,0,0:0:0:0:
408,17,172981,1,0,0:0:0:0:
48,256,173151,5,0,0:0:0:0:
488,147,173322,1,0,0:0:0:0:
35,97,173492,5,0,0:0:0:0:
483,316,173663,1,0,0:0:0:0:
128,16,173833,1,0,0:0:0:0:
368,368,174003,1,0,0:0:0:0:
288,32,174174,1,0,0:0:0:0:
160,336,174344,1,0,0:0:0:0:
416,144,174515,1,0,0:0:0:0:
416,144,174600,1,0,0:0:0:0:
416,144,174685,5,0,0:0:0:0:
320,256,174855,1,0,0:0:0:0:
336,80,175026,1,0,0:0:0:0:
432,240,175196,1,0,0:0:0:0:
256,144,175367,2,0,P|224:192|128:224,1,150
272,272,176049,2,0,P|352:320|416:320,1,150
256,48,176730,2,0,P|240:96|160:160,1,150
368,48,177242,5,0,0:0:0:0:
320,192,177583,2,0,B|304:240|304:240|256:208,1,75
96,288,178094,5,0,0:0:0:0:
176,224,178265,1,0,0:0:0:0:
176,336,178435,1,0,0:0:0:0:
176,336,178520,1,0,0:0:0:0:
176,336,178605,5,0,0:0:0:0:
128,208,178776,1,0,0:0:0:0:
272,304,178946,1,0,0:0:0:0:
224,112,179117,1,0,0:0:0:0:
96,288,179287,1,0,0:0:0:0:
352,208,179458,2,0,P|320:256|288:272,1,75
288,112,179799,1,0,0:0:0:0:
400,320,179969,5,0,0:0:0:0:
416,144,180310,2,0,B|432:96|432:96|384:96,1,75
208,240,180821,5,0,0:0:0:0:
272,160,180992,1,0,0:0:0:0:
288,304,181162,2,0,P|336:288|352:256,1,75
320,96,181503,2,0,B|240:80|192:160,1,150
272,336,182185,2,0,B|352:352|400:272,1,150
240,80,182696,2,0,P|224:128|192:160,1,75
176,48,183037,5,0,0:0:0:0:
256,192,183208,1,0,0:0:0:0:
96,128,183378,1,0,0:0:0:0:
304,96,183549,1,0,0:0:0:0:
160,240,183719,1,0,0:0:0:0:
208,48,183890,2,0,P|224:96|256:112,1,75
352,48,184230,5,0,0:0:0:0:
256,240,184401,1,0,0:0:0:0:
368,144,184571,5,0,0:0:0:0:
171,229,184742,1,0,0:0:0:0:
336,240,184912,1,0,0:0:0:0:
310,267,184997,1,0,0:0:0:0:
279,288,185082,1,0,0:0:0:0:
244,300,185167,1,0,0:0:0:0:
208,304,185253,2,0,P|160:304|128:256,1,75
128,112,186617,5,0,0:0:0:0:
304,288,186787,2,0,B|352:320|352:320|352:288,1,75
