osu file format v12

[General]
AudioFilename: yakimoti no kotae -another story-.mp3
AudioLeadIn: 0
PreviewTime: 53342
Countdown: 0
SampleSet: Soft
StackLeniency: 0.7
Mode: 0
LetterboxInBreaks: 1
WidescreenStoryboard: 0

[Editor]
Bookmarks: 18605,38815,43868,59983
DistanceSpacing: 1
BeatDivisor: 4
GridSize: 4

[Metadata]
Title:Yakimochi no Kotae -another story-
TitleUnicode:ヤキモチの答え -another story-
Artist:yuikonnu
ArtistUnicode:ゆいこんぬ
Creator:litoluna
Version:Normal
Source:Nico Nico Douga
Tags:HoneyWorks A Solution for Jealousy Rokugen Astrology vocaloid hatsune miku sm20605397
BeatmapID:262462
BeatmapSetID:93397

[Difficulty]
HPDrainRate:3
CircleSize:3
OverallDifficulty:3
ApproachRate:4
SliderMultiplier:0.8
SliderTickRate:1

[Events]
//Background and Video events
Video,0,"video.avi"
0,0,"BG.jpg",0,0
//Break Periods
2,76761,85505
2,150183,151190
2,172720,176453
//Storyboard Layer 0 (Background)
//Storyboard Layer 1 (Fail)
//Storyboard Layer 2 (Pass)
//Storyboard Layer 3 (Foreground)
//Storyboard Sound Samples
//Background Colour Transformations
3,100,163,162,255

[TimingPoints]
931,315.789473684211,4,2,1,70,1,0
8746,-100,4,2,2,60,0,0
8904,-100,4,2,1,70,0,0
10010,-100,4,2,2,60,0,0
10167,-100,4,2,1,70,0,0
11273,-100,4,2,2,60,0,0
11431,-100,4,2,1,70,0,0
12536,-100,4,2,2,60,0,0
12694,-100,4,2,1,70,0,0
13799,-100,4,2,2,60,0,0
13957,-100,4,2,1,70,0,0
15062,-100,4,2,2,60,0,0
15220,-100,4,2,1,70,0,0
18615,-100,4,2,1,50,0,0
28720,-100,4,2,1,60,0,0
28957,-100,4,2,2,50,0,0
29115,-100,4,2,1,60,0,0
30220,-100,4,2,2,50,0,0
30378,-100,4,2,1,60,0,0
31483,-100,4,2,2,50,0,0
31641,-100,4,2,1,60,0,0
32115,-100,4,2,2,50,0,0
32273,-100,4,2,1,60,0,0
34010,-100,4,2,2,50,0,0
34167,-100,4,2,1,60,0,0
34641,-100,4,2,2,50,0,0
34799,-100,4,2,1,60,0,0
37799,-100,4,2,2,50,0,0
37957,-100,4,2,1,60,0,0
38825,-100,4,2,1,50,0,0
43878,-100,4,2,1,60,0,0
52088,-100,4,2,1,70,0,0
53983,-100,4,2,1,80,0,1
54220,-100,4,2,2,70,0,1
54378,-100,4,2,1,80,0,1
56746,-100,4,2,2,70,0,1
56904,-100,4,2,1,80,0,1
57378,-100,4,2,2,70,0,1
57536,-100,4,2,1,80,0,1
59273,-100,4,2,2,70,0,1
59431,-100,4,2,1,80,0,1
62825,-100,4,2,1,80,0,0
64088,-100,4,2,1,80,0,1
64325,-100,4,2,2,70,0,1
64483,-100,4,2,1,80,0,1
66852,-100,4,2,2,70,0,1
67010,-100,4,2,1,80,0,1
67483,-100,4,2,2,70,0,1
67641,-100,4,2,1,80,0,1
69378,-100,4,2,2,70,0,1
69536,-100,4,2,1,80,0,1
76562,-100,4,2,1,60,0,0
86825,-100,4,2,1,50,0,0
96931,-100,4,2,1,60,0,0
97167,-100,4,2,2,50,0,0
97325,-100,4,2,1,60,0,0
98431,-100,4,2,2,50,0,0
98588,-100,4,2,1,60,0,0
99694,-100,4,2,2,50,0,0
99852,-100,4,2,1,60,0,0
100325,-100,4,2,2,50,0,0
100483,-100,4,2,1,60,0,0
102220,-100,4,2,2,50,0,0
102378,-100,4,2,1,60,0,0
102852,-100,4,2,2,50,0,0
103010,-100,4,2,1,60,0,0
106010,-100,4,2,2,50,0,0
106167,-100,4,2,1,60,0,0
107035,-100,4,2,1,50,0,0
112088,-100,4,2,1,60,0,0
120299,-100,4,2,1,70,0,0
122193,-100,4,2,1,80,0,1
122431,-100,4,2,2,70,0,1
122588,-100,4,2,1,80,0,1
124957,-100,4,2,2,70,0,1
125115,-100,4,2,1,80,0,1
125588,-100,4,2,2,70,0,1
125746,-100,4,2,1,80,0,1
127483,-100,4,2,2,70,0,1
127641,-100,4,2,1,80,0,1
131035,-100,4,2,1,80,0,0
132298,-100,4,2,1,80,0,1
132536,-100,4,2,2,70,0,1
132694,-100,4,2,1,80,0,1
135062,-100,4,2,2,70,0,1
135220,-100,4,2,1,80,0,1
135694,-100,4,2,2,70,0,1
135852,-100,4,2,1,80,0,1
137588,-100,4,2,2,70,0,1
137746,-100,4,2,1,80,0,1
144772,-100,4,2,1,60,0,0
149352,-100,4,2,1,15,0,0
149983,-100,4,2,1,10,0,0
152510,-100,4,2,1,10,0,0
152825,-100,4,2,1,20,0,0
153141,-100,4,2,1,30,0,0
153457,-100,4,2,1,40,0,0
153773,-100,4,2,1,50,0,0
154088,-100,4,2,1,60,0,0
154404,-100,4,2,1,10,0,0
155036,-100,4,2,1,60,0,0
155273,-100,4,2,2,50,0,0
155431,-100,4,2,1,60,0,0
157799,-100,4,2,2,50,0,0
157957,-100,4,2,1,60,0,0
160325,-100,4,2,3,50,0,0
160483,-100,4,2,1,60,0,0
165378,-100,4,2,2,50,0,0
165536,-100,4,2,1,60,0,0
171062,-100,4,2,2,50,0,0
171220,-100,4,2,1,60,0,0
171694,-100,4,2,2,50,0,0
171852,-100,4,2,1,60,0,0
180299,-100,4,2,1,20,0,0
181878,-100,4,2,1,40,0,0
182825,-100,4,2,1,60,0,0
187878,-100,4,2,1,80,0,1
188115,-100,4,2,2,70,0,1
188273,-100,4,2,1,80,0,1
190641,-100,4,2,2,70,0,1
190799,-100,4,2,1,80,0,1
191273,-100,4,2,2,70,0,1
191431,-100,4,2,1,80,0,1
193167,-100,4,2,2,70,0,1
193325,-100,4,2,1,80,0,1
196720,-100,4,2,1,80,0,0
197983,-100,4,2,1,80,0,1
198220,-100,4,2,2,70,0,1
198378,-100,4,2,1,80,0,1
200746,-100,4,2,2,80,0,1
200904,-100,4,2,1,80,0,1
201378,-100,4,2,2,70,0,1
201536,-100,4,2,1,80,0,1
203273,-100,4,2,2,70,0,1
203431,-100,4,2,1,80,0,1
210457,-100,4,2,1,80,0,0
211246,-100,4,2,1,70,0,0
211878,-100,4,2,1,60,0,0
212510,-100,4,2,1,50,0,0
213141,-100,4,2,1,40,0,0
213773,-100,4,2,1,30,0,0
214404,-100,4,2,1,20,0,0
215036,-100,4,2,1,10,0,0
215667,-100,4,2,1,5,0,0

[Colours]
Combo1 : 162,224,255
Combo2 : 255,164,209
Combo3 : 129,129,192
Combo4 : 255,113,113
Combo5 : 193,255,132

[HitObjects]
44,136,8510,6,0,P|120:116|200:136,1,160,4|2,0:0|0:0,0:0:0:0:
256,192,9457,1,8,0:0:0:0:
314,249,9773,2,0,P|392:268|468:248,1,160,2|2,0:0|0:0,0:0:0:0:
468,88,11036,6,0,P|392:68|314:86,1,160,2|2,0:0|0:0,0:0:0:0:
256,140,11983,1,8,0:0:0:0:
197,86,12299,2,0,P|119:67|43:87,1,160,2|2,0:0|0:0,0:0:0:0:
44,248,13562,6,0,P|120:268|200:248,1,160,2|2,0:0|0:0,0:0:0:0:
256,192,14510,1,8,0:0:0:0:
314,134,14825,2,0,P|392:116|468:136,1,160,2|2,0:0|0:0,0:0:0:0:
256,192,16088,12,0,17983,0:0:0:0:
75,66,18615,6,0,P|154:74|222:120,1,160,4|2,0:0|0:0,0:0:0:0:
256,192,19562,1,0,0:0:0:0:
291,265,19878,2,0,P|357:309|436:317,1,160,2|2,0:0|0:0,0:0:0:0:
492,164,21141,6,0,P|448:156|416:168,1,80,2|0,0:0|0:0,0:0:0:0:
352,212,21773,2,0,P|312:220|272:204,1,80,2|0,0:0|0:0,0:0:0:0:
212,160,22404,2,0,P|134:141|56:160,1,160,2|2,0:0|0:0,0:0:0:0:
16,228,23352,1,0,0:0:0:0:
58,295,23667,6,0,P|134:312|212:294,1,160,2|2,0:0|0:0,0:0:0:0:
256,228,24615,1,0,0:0:0:0:
292,156,24931,2,0,P|330:148|372:148,1,80,2|0,0:0|0:0,0:0:0:0:
444,292,25878,1,0,0:0:0:0:
444,292,26194,6,0,P|367:309|289:291,2,160,2|2|2,0:0|0:0|0:0,0:0:0:0:
484,220,27773,1,8,0:0:0:0:
444,152,28088,2,0,P|400:140|360:140,1,80,2|8,0:0|0:0,0:0:0:0:
296,180,28720,6,0,P|218:198|140:180,1,160,4|2,0:0|0:0,0:0:0:0:
88,120,29667,1,8,0:0:0:0:
52,48,29983,2,0,P|129:29|208:48,1,160,2|2,0:0|0:0,0:0:0:0:
256,112,30931,1,8,0:0:0:0:
305,47,31246,6,0,P|382:29|460:48,2,160,2|2|2,0:0|0:0|0:0,0:0:0:0:
184,156,33141,1,2,0:0:0:0:
160,232,33457,1,8,0:0:0:0:
136,308,33773,6,0,P|213:326|292:308,2,160,4|2|2,0:0|0:0|0:0,0:0:0:0:
72,260,35352,1,8,0:0:0:0:
72,100,35983,1,8,0:0:0:0:
144,68,36299,6,0,P|185:52|221:47,1,80,2|8,0:0|0:0,0:0:0:0:
255,120,36931,2,0,P|299:111|334:113,1,80,2|8,0:0|0:0,0:0:0:0:
399,161,37562,2,0,P|351:224|280:260,1,160,2|2,0:0|0:0,0:0:0:0:
128,312,38825,6,0,P|67:342|7:342,2,120,4|2|0,0:0|0:0|0:0,0:0:0:0:
175,247,40088,2,0,P|253:171|331:247,1,240,2|0,0:0|0:0,0:0:0:0:
380,312,41352,2,0,P|440:342|500:342,2,120,2|2|0,0:0|0:0|0:0,0:0:0:0:
331,246,42615,2,0,P|332:168|284:100,1,160,2|0,0:0|0:0,0:0:0:0:
132,72,43878,6,0,P|116:148|132:228,2,160,2|2|2,0:0|0:0|0:0,0:0:0:0:
204,36,45457,1,0,0:0:0:0:
276,72,45773,1,2,0:0:0:0:
348,36,46088,1,0,0:0:0:0:
420,72,46404,6,0,P|436:148|420:228,1,160,2|2,0:0|0:0,0:0:0:0:
356,280,47352,1,0,0:0:0:0:
328,204,47667,2,0,P|292:176|256:176,1,80,8|0,0:0|0:0,0:0:0:0:
188,212,48299,1,8,0:0:0:0:
124,260,48615,1,8,0:0:0:0:
60,212,48931,6,0,P|44:152|44:92,1,120,4|4,0:3|0:3,0:3:0:0:
160,60,49878,2,0,P|216:80|276:80,1,120,4|4,0:3|0:3,0:0:0:0:
396,64,50825,6,0,P|439:127|440:207,1,160,8|0,0:0|0:0,0:0:0:0:
348,340,52088,2,0,P|304:276|304:196,1,160,0|8,0:0|0:0,0:0:0:0:
336,40,53352,2,0,P|292:36|256:40,1,80,8|0,0:0|0:0,0:0:0:0:
188,80,53983,6,0,P|166:154|190:230,1,160,4|2,0:0|0:0,0:0:0:0:
256,280,54931,1,8,0:0:0:0:
332,300,55246,2,0,P|308:340|276:356,2,80,2|8|2,0:0|0:0|0:0,0:0:0:0:
348,220,56194,1,8,0:0:0:0:
332,140,56510,6,0,P|256:116|180:140,2,160,2|2|2,0:0|0:0|0:0,0:0:0:0:
468,224,58404,2,0,L|468:144,1,80,2|8,0:0|0:0,0:0:0:0:
468,64,59036,6,0,P|392:40|316:64,1,160,2|2,0:0|0:0,0:0:0:0:
256,112,59983,1,8,0:0:0:0:
200,172,60299,2,0,P|160:160|120:160,2,80,2|8|2,0:0|0:0|0:0,0:0:0:0:
256,228,61246,1,8,0:0:0:0:
316,280,61562,6,0,P|290:310|255:333,1,80,2|8,0:0|0:0,0:0:0:0:
176,332,62194,2,0,P|142:309|117:279,1,80,2|8,0:0|0:0,0:0:0:0:
64,220,62825,2,0,P|40:144|64:68,1,160,10|10,0:0|0:0,0:0:0:0:
224,56,64088,6,0,P|298:34|374:58,1,160,4|2,0:0|0:0,0:0:0:0:
396,136,65036,1,8,0:0:0:0:
376,212,65352,2,0,P|416:212|452:192,2,80,2|8|2,0:0|0:0|0:0,0:0:0:0:
296,200,66299,1,8,0:0:0:0:
256,132,66615,6,0,P|180:108|104:132,2,160,2|2|2,0:0|0:0|0:0,0:0:0:0:
352,260,68510,2,0,L|276:287,1,80,2|8,0:0|0:0,0:0:0:0:
200,308,69141,6,0,P|122:290|68:232,1,160,2|2,0:0|0:0,0:0:0:0:
52,156,70088,1,8,0:0:0:0:
100,92,70404,2,0,P|56:76|17:84,2,80,2|8|2,0:0|0:0|0:0,0:0:0:0:
164,140,71352,1,8,0:0:0:0:
228,188,71667,6,0,P|202:217|186:256,2,80,2|8|2,0:0|0:0|0:0,0:0:0:0:
280,128,72615,1,8,0:0:0:0:
348,88,72931,2,0,P|408:76|468:76,2,120,2|2|2,0:0|0:0|0:0,0:0:0:0:
280,128,74194,6,0,P|296:208|280:284,1,160,8|10,0:0|0:0,0:0:0:0:
220,336,75141,1,4,0:0:0:0:
156,284,75457,2,0,P|116:292|76:284,1,80,12|8,0:0|0:0,0:0:0:0:
60,208,76088,2,0,P|116:192|180:208,1,120,8|4,0:0|0:0,0:0:0:0:
36,192,86825,6,0,P|105:154|188:154,1,160,4|2,0:0|0:0,0:0:0:0:
256,192,87773,1,0,0:0:0:0:
316,248,88088,2,0,P|394:249|465:211,1,160,2|2,0:0|0:0,0:0:0:0:
452,52,89352,6,0,P|408:44|376:56,1,80,2|0,0:0|0:0,0:0:0:0:
312,100,89984,2,0,P|272:108|232:92,1,80,2|0,0:0|0:0,0:0:0:0:
168,56,90615,2,0,P|99:97|57:166,1,160,2|2,0:0|0:0,0:0:0:0:
48,244,91562,1,0,0:0:0:0:
100,308,91878,6,0,P|176:325|254:307,1,160,2|2,0:0|0:0,0:0:0:0:
304,244,92825,1,0,0:0:0:0:
336,172,93141,2,0,P|343:132|344:92,1,80,2|0,0:0|0:0,0:0:0:0:
192,44,94088,1,0,0:0:0:0:
128,92,94404,6,0,P|111:169|129:247,2,160,4|2|2,0:0|0:0|0:0,0:0:0:0:
280,44,96299,1,2,0:0:0:0:
412,132,96931,6,0,P|334:150|256:132,1,160,4|2,0:0|0:0,0:0:0:0:
184,100,97878,1,8,0:0:0:0:
108,72,98194,2,0,P|89:149|108:226,1,160,2|2,0:0|0:0,0:0:0:0:
160,288,99141,1,8,0:0:0:0:
208,224,99457,6,0,P|285:206|363:225,2,160,2|2|2,0:0|0:0|0:0,0:0:0:0:
76,308,101352,1,2,0:0:0:0:
124,244,101667,1,8,0:0:0:0:
72,184,101983,6,0,P|71:104|107:31,2,160,4|2|2,0:0|0:0|0:0,0:0:0:0:
124,244,103562,1,8,0:0:0:0:
256,336,104194,1,8,0:0:0:0:
336,332,104510,6,0,P|376:332|414:318,1,80,2|8,0:0|0:0,0:0:0:0:
444,244,105141,2,0,P|400:240|364:256,1,80,2|8,0:0|0:0,0:0:0:0:
288,264,105773,2,0,P|212:264|137:228,1,160,2|2,0:0|0:0,0:0:0:0:
148,64,107036,6,0,P|87:34|27:34,2,120,4|2|0,0:0|0:0|0:0,0:0:0:0:
212,112,108299,2,0,P|288:192|212:268,1,240,2|0,0:0|0:0,0:0:0:0:
148,320,109562,2,0,P|95:348|36:350,2,120,2|2|0,0:0|0:0|0:0,0:0:0:0:
212,268,110825,2,0,P|289:260|329:193,1,160,2|0,0:0|0:0,0:0:0:0:
372,40,112088,6,0,P|440:73|480:147,2,160,2|2|2,0:0|0:0|0:0,0:0:0:0:
292,44,113667,1,0,0:0:0:0:
216,68,113983,1,2,0:0:0:0:
168,132,114299,1,0,0:0:0:0:
144,208,114615,6,0,P|220:223|300:207,1,160,2|2,0:0|0:0,0:0:0:0:
364,160,115562,1,0,0:0:0:0:
424,104,115878,2,0,P|444:144|444:184,1,80,8|0,0:0|0:0,0:0:0:0:
424,256,116510,1,8,0:0:0:0:
360,304,116825,1,8,0:0:0:0:
296,256,117141,6,0,P|232:240|176:240,1,120,4|4,0:3|0:3,0:0:0:0:
68,288,118088,2,0,P|44:228|44:172,1,120,4|4,0:3|3:3,0:0:0:0:
124,84,119036,6,0,P|197:61|274:85,1,160,8|0,0:0|0:0,0:0:0:0:
396,192,120299,2,0,P|419:117|395:41,1,160,0|8,0:0|0:0,0:0:0:0:
256,124,121562,2,0,P|212:128|176:124,1,80,8|0,0:0|0:0,0:0:0:0:
100,96,122194,6,0,P|78:170|102:246,1,160,4|2,0:0|0:0,0:0:0:0:
180,272,123141,1,8,0:0:0:0:
260,280,123457,2,0,P|240:324|216:344,2,80,2|8|2,0:0|0:0|0:0,0:0:0:0:
272,200,124404,1,8,0:0:0:0:
304,128,124720,6,0,P|380:104|456:128,2,160,2|2|2,0:0|0:0|0:0,0:0:0:0:
180,228,126615,2,0,L|123:284,1,80,2|8,0:0|0:0,0:0:0:0:
64,340,127246,6,0,P|39:264|64:188,1,160,2|2,0:0|0:0,0:0:0:0:
112,128,128194,1,8,0:0:0:0:
176,84,128510,2,0,P|144:56|104:52,2,80,2|8|2,0:0|0:0|0:0,0:0:0:0:
212,156,129457,1,8,0:0:0:0:
264,220,129773,6,0,P|300:240|340:248,1,80,2|8,0:0|0:0,0:0:0:0:
404,200,130404,2,0,P|368:176|332:168,1,80,2|8,0:0|0:0,0:0:0:0:
256,144,131036,2,0,P|176:148|104:184,1,160,10|10,0:0|0:0,0:0:0:0:
32,328,132299,6,0,P|106:350|182:326,1,160,4|2,0:0|0:0,0:0:0:0:
236,268,133246,1,8,0:0:0:0:
296,216,133562,2,0,P|336:216|376:204,2,80,2|8|2,0:0|0:0|0:0,0:0:0:0:
236,160,134510,1,8,0:0:0:0:
180,104,134825,6,0,P|104:80|28:104,2,160,2|2|2,0:0|0:0|0:0,0:0:0:0:
296,216,136720,2,0,L|296:135,1,80,2|8,0:0|0:0,0:0:0:0:
260,64,137352,6,0,P|182:82|128:140,1,160,2|2,0:0|0:0,0:0:0:0:
136,216,138299,1,8,0:0:0:0:
128,296,138615,2,0,P|84:312|44:312,2,80,2|8|2,0:0|0:0|0:0,0:0:0:0:
204,268,139562,1,8,0:0:0:0:
264,216,139878,6,0,P|295:241|332:255,2,80,2|8|2,0:0|0:0|0:0,0:0:0:0:
228,144,140825,1,8,0:0:0:0:
264,72,141141,2,0,P|324:84|384:84,2,120,2|2|2,0:0|0:0|0:0,0:0:0:0:
184,68,142404,6,0,P|135:131|132:210,1,160,8|10,0:0|0:0,0:0:0:0:
168,280,143351,1,4,0:0:0:0:
232,232,143667,2,0,P|268:224|312:232,1,80,12|8,0:0|0:0,0:0:0:0:
368,288,144299,2,0,P|388:232|368:176,1,120,8|4,0:0|0:0,0:0:0:0:
256,192,144931,12,0,149983,0:0:0:0:
256,192,152510,12,0,154404,0:0:0:0:
88,100,155036,6,0,P|164:80|244:100,1,160,4|2,0:0|0:0,0:0:0:0:
292,160,155983,2,0,P|248:180|216:172,2,80,4|2|8,0:0|0:0|0:0,0:0:0:0:
352,108,156931,1,2,0:0:0:0:
420,64,157246,1,8,0:0:0:0:
488,108,157562,6,0,P|487:187|456:264,1,160,2|2,0:0|0:0,0:0:0:0:
396,312,158510,1,8,0:0:0:0:
328,268,158825,2,0,P|284:260|252:272,1,80,2|8,0:0|0:0,0:0:0:0:
188,316,159457,2,0,P|148:324|108:308,1,80,2|8,0:0|0:0,0:0:0:0:
44,272,160088,2,0,P|32:208|44:156,1,120,6|2,0:0|0:0,0:0:0:0:
156,40,161194,6,0,P|196:32|236:40,1,80,2|0,0:0|0:0,0:0:0:0:
300,88,161825,2,0,P|295:128|276:164,1,80,2|0,0:0|0:0,0:0:0:0:
200,184,162457,2,0,P|240:296|384:296,1,280,2|0,0:0|0:0,0:0:0:0:
436,236,163878,5,10,0:0:0:0:
460,160,164194,1,8,0:0:0:0:
436,84,164510,1,10,0:0:0:0:
368,44,164825,1,8,0:0:0:0:
288,36,165141,6,0,P|220:75|177:146,1,160,4|2,0:0|0:0,0:0:0:0:
144,216,166088,2,0,P|104:212|68:196,2,80,8|2|8,0:0|0:0|0:0,0:0:0:0:
224,212,167036,1,2,0:0:0:0:
300,188,167352,1,8,0:0:0:0:
364,140,167667,2,0,P|404:132|444:140,1,80,2|8,0:0|0:0,0:0:0:0:
480,212,168299,2,0,P|452:241|415:259,1,80,2|8,0:0|0:0,0:0:0:0:
376,260,168773,6,0,P|312:264|256:288,1,120,4|8,0:0|0:0,0:0:0:0:
184,304,169562,2,0,P|164:228|184:148,1,160,2|2,0:0|0:0,0:0:0:0:
342,150,170825,2,0,P|360:227|340:303,2,160
176,156,177773,6,0,P|145:228|177:300,1,160,2|2,0:0|0:0,0:0:0:0:
336,300,179036,2,0,P|368:228|336:156,1,160,2|2,0:0|0:0,0:0:0:0:
195,85,180299,6,0,P|102:201|191:323,1,320,2|2,0:0|0:0,0:0:0:0:
272,328,181878,1,2,0:0:0:0:
340,284,182194,1,0,0:0:0:0:
384,216,182510,1,2,0:0:0:0:
396,136,182825,6,0,P|339:120|279:136,1,120,4|4,0:0|0:0,0:0:0:0:
212,232,183773,2,0,P|154:247|96:232,1,120,4|4,0:0|0:0,0:0:0:0:
52,124,184720,2,0,P|120:86|203:86,2,160
52,284,186615,2,0,L|92:292,1,40,8|8,0:0|0:0,0:0:0:0:
204,336,187246,2,0,L|244:324,1,40,8|8,0:0|0:0,0:0:0:0:
348,264,187878,6,0,P|336:187|282:128,1,160,4|2,0:0|0:0,0:0:0:0:
204,108,188826,1,8,0:0:0:0:
128,80,189141,2,0,P|112:43|78:23,2,80,2|8|2,0:0|0:0|0:0,0:0:0:0:
112,160,190089,1,8,0:0:0:0:
128,240,190405,6,0,P|204:264|280:240,2,160,2|2|2,0:0|0:0|0:0,0:0:0:0:
44,108,192299,2,0,L|100:51,1,80,2|8,0:0|0:0,0:0:0:0:
180,36,192931,6,0,P|256:60|332:36,1,160,2|2,0:0|0:0,0:0:0:0:
408,52,193878,1,8,0:0:0:0:
432,128,194194,2,0,P|472:140|512:140,2,80,2|8|2,0:0|0:0|0:0,0:0:0:0:
352,112,195141,1,8,0:0:0:0:
272,92,195457,6,0,P|232:92|194:110,1,80,2|8,0:0|0:0,0:0:0:0:
168,185,196088,2,0,P|212:186|247:168,1,80,2|8,0:0|0:0,0:0:0:0:
323,194,196720,2,0,P|347:270|323:346,1,160,10|10,0:0|0:0,0:0:0:0:
160,344,197983,6,0,P|138:270|162:194,1,160,4|2,0:0|0:0,0:0:0:0:
216,133,198931,1,8,0:0:0:0:
292,108,199247,2,0,P|292:68|278:28,2,80,2|8|2,0:0|0:0|0:0,0:0:0:0:
284,188,200194,1,8,0:0:0:0:
256,264,200510,6,0,P|332:288|408:264,2,160,2|2|2,0:0|0:0|0:0,0:0:0:0:
140,152,202405,2,0,L|60:152,1,80,2|8,0:0|0:0,0:0:0:0:
24,80,203036,6,0,P|100:56|174:78,1,160,2|2,0:0|0:0,0:0:0:0:
236,132,203983,1,8,0:0:0:0:
300,184,204299,2,0,P|344:168|384:168,2,80,2|8|2,0:0|0:0|0:0,0:0:0:0:
236,232,205247,1,8,0:0:0:0:
172,280,205562,6,0,P|128:264|88:264,2,80,2|8|2,0:0|0:0|0:0,0:0:0:0:
236,332,206510,1,8,0:0:0:0:
296,280,206826,2,0,P|351:285|409:258,2,120,2|2|2,0:0|0:0|0:0,0:0:0:0:
220,252,208088,6,0,P|192:176|192:96,1,160,8|10,0:0|0:0,0:0:0:0:
256,48,209035,1,4,0:0:0:0:
320,96,209351,2,0,P|356:88|400:96,1,80,12|8,0:0|0:0,0:0:0:0:
416,172,209983,2,0,P|356:188|300:172,1,120,8|4,0:0|0:0,0:0:0:0:
256,192,210615,12,0,215667,0:0:0:0:
