osu file format v12

[General]
AudioFilename: yakimoti no kotae -another story-.mp3
AudioLeadIn: 0
PreviewTime: 53342
Countdown: 0
SampleSet: Soft
StackLeniency: 0.7
Mode: 0
LetterboxInBreaks: 1
WidescreenStoryboard: 0

[Editor]
Bookmarks: 18605,38815,43868,59983,98825
DistanceSpacing: 1
BeatDivisor: 4
GridSize: 4

[Metadata]
Title:Yakimochi no Kotae -another story-
TitleUnicode:ヤキモチの答え -another story-
Artist:yuikonnu
ArtistUnicode:ゆいこんぬ
Creator:litoluna
Version:Hard
Source:Nico Nico Douga
Tags:HoneyWorks A Solution for Jealousy Rokugen Astrology vocaloid hatsune miku sm20605397
BeatmapID:264325
BeatmapSetID:93397

[Difficulty]
HPDrainRate:6
CircleSize:4
OverallDifficulty:6
ApproachRate:7
SliderMultiplier:1.4
SliderTickRate:1

[Events]
//Background and Video events
Video,0,"video.avi"
0,0,"BG.jpg",0,0
//Break Periods
2,76762,85925
2,150183,151610
2,172920,176873
//Storyboard Layer 0 (Background)
//Storyboard Layer 1 (Fail)
//Storyboard Layer 2 (Pass)
//Storyboard Layer 3 (Foreground)
//Storyboard Sound Samples
//Background Colour Transformations
3,100,163,162,255

[TimingPoints]
931,315.789473684211,4,2,1,70,1,0
18615,-100,4,2,1,50,0,0
28720,-100,4,2,1,60,0,0
38825,-133.333333333333,4,2,1,50,0,0
43878,-100,4,2,1,60,0,0
52088,-100,4,2,1,70,0,0
53983,-100,4,2,1,80,0,1
62825,-100,4,2,1,80,0,0
64088,-100,4,2,1,80,0,1
76562,-100,4,2,1,60,0,0
86825,-100,4,2,1,50,0,0
96931,-100,4,2,1,60,0,0
107035,-133.333333333333,4,2,1,50,0,0
112088,-100,4,2,1,60,0,0
120299,-100,4,2,1,70,0,0
122193,-100,4,2,1,80,0,1
131035,-100,4,2,1,80,0,0
132298,-100,4,2,1,80,0,1
144772,-100,4,2,1,60,0,0
149352,-100,4,2,1,15,0,0
149983,-100,4,2,1,10,0,0
152510,-100,4,2,1,10,0,0
152825,-100,4,2,1,20,0,0
153141,-100,4,2,1,30,0,0
153457,-100,4,2,1,40,0,0
153773,-100,4,2,1,50,0,0
154088,-100,4,2,1,60,0,0
154404,-100,4,2,1,10,0,0
155036,-100,4,2,1,60,0,0
180299,-133.333333333333,4,2,1,20,0,0
181878,-133.333333333333,4,2,1,40,0,0
182825,-100,4,2,1,60,0,0
185352,-200,4,2,1,60,0,0
187720,-200,4,2,1,20,0,0
187878,-100,4,2,1,80,0,1
196720,-100,4,2,1,80,0,0
197983,-100,4,2,1,80,0,1
210457,-100,4,2,1,80,0,0
211246,-100,4,2,1,70,0,0
211878,-100,4,2,1,60,0,0
212510,-100,4,2,1,50,0,0
213141,-100,4,2,1,40,0,0
213773,-100,4,2,1,30,0,0
214404,-100,4,2,1,20,0,0
215036,-100,4,2,1,10,0,0
215667,-100,4,2,1,5,0,0

[Colours]
Combo1 : 162,224,255
Combo2 : 255,164,209
Combo3 : 129,129,192
Combo4 : 255,113,113
Combo5 : 193,255,132

[HitObjects]
48,164,8510,2,0,P|112:140|176:164,1,140,4|8,0:0|0:0,0:0:0:0:
284,256,9141,2,0,P|348:280|412:256,1,140,2|8,0:0|0:0,0:0:0:0:
500,148,9773,1,2,0:0:0:0:
416,36,10088,1,8,0:0:0:0:
332,148,10404,1,2,0:0:0:0:
204,92,10720,1,8,0:0:0:0:
76,148,11036,6,0,P|30:203|32:268,1,140,2|8,0:0|0:0,0:0:0:0:
152,344,11667,2,0,P|220:320|280:344,1,140,2|8,0:0|0:0,0:0:0:0:
412,296,12299,1,2,0:0:0:0:
288,232,12615,1,8,0:0:0:0:
412,168,12931,1,2,0:0:0:0:
288,108,13246,1,8,0:0:0:0:
164,44,13562,6,0,P|90:63|37:98,1,140,2|8,0:0|0:0,0:0:0:0:
40,240,14194,2,0,P|92:274|166:294,1,140,2|8,0:0|0:0,0:0:0:0:
308,296,14825,1,2,0:0:0:0:
432,232,15141,1,8,0:0:0:0:
308,168,15457,1,2,0:0:0:0:
432,108,15772,1,8,0:0:0:0:
256,192,16088,12,0,17983,0:0:0:0:
60,132,18615,6,0,P|128:116|200:116,1,140,4|0,0:0|0:0,0:0:0:0:
280,132,19088,1,0,0:0:0:0:
352,176,19246,2,0,P|374:153|391:119,2,70,2|0|0,0:0|0:0|0:0,0:0:0:0:
280,220,19720,1,0,0:0:0:0:
196,240,19878,6,0,P|160:240|124:248,1,70,2|0,0:0|0:0,0:0:0:0:
88,324,20194,2,0,P|124:324|160:316,1,70
240,304,20510,2,0,P|304:292|376:308,1,140,2|0,0:0|0:0,0:0:0:0:
476,172,21141,6,0,P|410:152|340:159,1,140,2|0,0:0|0:0,0:0:0:0:
257,174,21615,1,0,0:0:0:0:
320,227,21773,2,0,P|340:159|331:91,1,140,2|0,0:0|0:0,0:0:0:0:
275,29,22246,1,0,0:0:0:0:
244,108,22404,2,0,P|172:124|104:124,1,140,2|0,0:0|0:0,0:0:0:0:
40,280,23036,6,0,P|76:288|112:280,1,70,2|2,0:0|0:0,0:0:0:0:
188,256,23352,2,0,P|256:236|324:256,1,140,0|2,0:0|0:0,0:0:0:0:
392,300,23825,1,0,0:0:0:0:
400,216,23983,2,0,P|432:216|472:204,2,70,0|0|2,0:0|0:0|0:0,0:0:0:0:
328,176,24457,2,0,P|318:141|301:108,1,70
256,40,24773,1,0,0:0:0:0:
208,108,24931,2,0,P|136:92|72:108,1,140,2|0,0:0|0:0,0:0:0:0:
56,348,25878,5,0,0:0:0:0:
56,348,26194,2,0,P|123:347|192:328,1,140,2|0,0:0|0:0,0:0:0:0:
324,220,26825,2,0,P|256:219|188:200,1,140,2|0,0:0|0:0,0:0:0:0:
40,116,27457,1,8,0:0:0:0:
96,52,27615,2,0,L|80:20,2,35,2|0|2,0:0|0:0|0:0,0:0:0:0:
132,128,27931,1,0,0:0:0:0:
184,64,28088,6,0,L|216:81,3,35,8|0|0|0,0:0|0:0|0:0|0:0,0:0:0:0:
240,80,28404,2,0,L|270:97,3,35,8|0|0|0,0:0|0:0|0:0|0:0,0:0:0:0:
312,104,28720,6,0,P|380:88|448:104,1,140,4|8,0:0|0:0,0:0:0:0:
500,168,29194,1,0,0:0:0:0:
448,232,29352,2,0,P|380:248|312:232,1,140,2|8,0:0|0:0,0:0:0:0:
238,194,29825,1,0,0:0:0:0:
316,164,29983,2,0,P|312:232|281:299,1,140,2|8,0:0|0:0,0:0:0:0:
200,320,30457,1,0,0:0:0:0:
136,264,30615,2,0,L|123:193,1,70,2|0,0:0|0:0,0:0:0:0:
40,184,30931,2,0,L|27:115,1,70,8|0,0:0|0:0,0:0:0:0:
88,56,31246,6,0,P|156:40|224:56,1,140,2|8,0:0|0:0,0:0:0:0:
296,100,31720,1,0,0:0:0:0:
352,164,31878,2,0,P|388:164|420:156,2,70,2|0|8,0:0|0:0|0:0,0:0:0:0:
184,152,32510,2,0,P|112:152|48:176,1,140,2|8,0:0|0:0,0:0:0:0:
36,344,33141,2,0,P|72:340|104:328,1,70,2|2,0:0|0:0,0:0:0:0:
160,268,33457,6,0,P|224:244|296:244,1,140,8|4,0:0|0:0,0:0:0:0:
452,304,34088,2,0,P|460:264|460:232,1,70,8|0,0:0|0:0,0:0:0:0:
428,156,34404,2,0,P|444:124|472:100,2,70,2|0|8,0:0|0:0|0:0,0:0:0:0:
388,228,34878,1,0,0:0:0:0:
336,164,35036,2,0,P|280:120|212:112,1,140,2|8,0:0|0:0,0:0:0:0:
52,160,35667,1,2,0:0:0:0:
48,328,35983,6,0,P|80:336|116:332,1,70,8|8,0:0|0:0,0:0:0:0:
192,296,36299,2,0,P|256:316|324:296,2,140,2|8|2,0:0|0:0|0:0,0:0:0:0:
104,152,37246,1,8,0:0:0:0:
256,80,37562,2,0,P|324:64|392:80,1,140,2|8,0:0|0:0,0:0:0:0:
500,208,38194,2,0,P|432:224|364:208,1,140,2|8,0:0|0:0,0:0:0:0:
256,144,38825,6,0,P|200:132|152:144,1,105.000004005432,4|0,0:0|0:0,0:0:0:0:
112,176,39299,2,0,P|102:231|70:270,1,105.000004005432,2|0,0:0|0:0,0:0:0:0:
36,308,39773,1,2,0:0:0:0:
136,344,40088,6,0,P|192:356|240:344,1,105.000004005432,2|0,0:0|0:0,0:0:0:0:
280,312,40562,2,0,P|297:263|336:226,1,105.000004005432,2|0,0:0|0:0,0:0:0:0:
384,208,41036,1,2,0:0:0:0:
388,104,41352,6,0,P|352:58|308:37,1,105.000004005432,2|0,0:0|0:0,0:0:0:0:
257,35,41825,2,0,P|214:70|164:80,1,105.000004005432,2|0,0:0|0:0,0:0:0:0:
116,84,42299,1,2,0:0:0:0:
68,176,42615,6,0,P|116:192|168:176,1,105.000004005432,2|0,0:0|0:0,0:0:0:0:
256,120,43246,2,0,P|306:104|354:120,1,105.000004005432,2|0,0:0|0:0,0:0:0:0:
424,260,43878,6,0,P|460:272|500:272,2,70,2|0|0,0:0|0:0|0:0,0:0:0:0:
356,224,44352,1,0,0:0:0:0:
296,176,44510,2,0,P|279:142|250:113,2,70,2|0|0,0:0|0:0|0:0,0:0:0:0:
276,252,44983,1,0,0:0:0:0:
204,272,45141,2,0,P|132:272|68:252,1,140,2|0,0:0|0:0,0:0:0:0:
40,100,45773,2,0,P|112:100|176:120,1,140,2|0,0:0|0:0,0:0:0:0:
284,232,46404,6,0,P|296:268|315:296,1,70,2|0,0:0|0:0,0:0:0:0:
388,316,46720,2,0,P|406:289|418:253,1,70
436,180,47036,2,0,P|472:180|506:170,2,70,2|0|0,0:0|0:0|0:0,0:0:0:0:
360,168,47510,1,0,0:0:0:0:
292,136,47667,2,0,P|224:120|156:136,1,140,2|0,0:0|0:0,0:0:0:0:
84,272,48299,2,0,P|153:263|211:225,1,140,2|0,0:0|0:0,0:0:0:0:
304,84,48931,6,0,P|334:93|370:110,2,70,4|0|0,0:3|0:0|0:0,0:0:0:0:
222,107,49404,2,0,P|191:97|155:80,2,70,4|0|0,0:3|0:0|0:0,0:0:0:0:
284,164,49878,2,0,P|318:179|348:189,2,70,4|0|0,0:3|0:0|0:0,0:0:0:0:
204,184,50352,2,0,P|169:168|139:158,2,70,4|0|0,0:3|0:0|0:0,0:0:0:0:
256,248,50825,2,0,P|324:264|392:248,1,140,4|8,0:3|0:0,0:0:0:0:
476,104,51457,6,0,L|440:96,3,35,8|0|0|0,0:0|0:0|0:0|0:0,0:0:0:0:
412,76,51773,2,0,L|376:68,3,35,8|0|0|0,0:0|0:0|0:0|0:0,0:0:0:0:
348,48,52088,2,0,P|276:36|208:48,1,140,8|8,0:0|0:0,0:0:0:0:
68,140,52720,1,8,0:0:0:0:
68,140,52878,1,8,0:0:0:0:
256,312,53352,1,8,0:0:0:0:
256,312,53510,1,8,0:0:0:0:
440,140,53983,6,0,P|372:120|304:120,1,140,4|8,0:0|0:0,0:0:0:0:
220,144,54457,1,0,0:0:0:0:
152,192,54615,2,0,P|112:180|84:180,2,70,2|0|8,0:0|0:0|0:0,0:0:0:0:
220,244,55088,1,0,0:0:0:0:
292,288,55246,2,0,P|328:284|360:272,1,70,2|0,0:0|0:0,0:0:0:0:
384,192,55562,2,0,P|418:181|448:164,1,70,8|0,0:0|0:0,0:0:0:0:
472,84,55878,2,0,P|400:72|332:84,1,140,2|8,0:0|0:0,0:0:0:0:
172,132,56510,6,0,P|140:192|168:256,1,140,2|8,0:0|0:0,0:0:0:0:
244,288,56983,1,0,0:0:0:0:
324,316,57141,2,0,P|352:340|388:348,2,70,2|0|8,0:0|0:0|0:0,0:0:0:0:
308,232,57615,1,0,0:0:0:0:
256,164,57773,2,0,P|288:144|312:120,2,70,2|0|8,0:0|0:0|0:0,0:0:0:0:
184,200,58246,1,0,0:0:0:0:
104,224,58404,2,0,P|72:160|104:104,1,140,2|8,0:0|0:0,0:0:0:0:
176,60,58878,1,0,0:0:0:0:
176,60,58957,1,0,0:0:0:0:
176,60,59036,6,0,P|244:40|308:60,1,140,2|8,0:0|0:0,0:0:0:0:
368,120,59510,1,0,0:0:0:0:
412,192,59667,2,0,P|420:232|420:264,1,70,2|0,0:0|0:0,0:0:0:0:
352,312,59983,2,0,P|344:272|344:240,1,70,8|0,0:0|0:0,0:0:0:0:
300,172,60299,2,0,P|308:132|308:100,2,70,2|0|8,0:0|0:0|0:0,0:0:0:0:
256,244,60773,1,0,0:0:0:0:
192,300,60931,2,0,P|140:316|92:300,1,105,2|0,0:0|0:0,0:0:0:0:
72,280,61246,2,0,L|72:204,1,70,8|0,0:0|0:0,0:0:0:0:
84,128,61562,6,0,P|109:101|139:81,1,70,2|0,0:0|0:0,0:0:0:0:
216,56,61878,2,0,P|241:82|269:100,1,70,8|0,0:0|0:0,0:0:0:0:
348,136,62194,2,0,P|381:131|417:135,2,70,2|0|8,0:0|0:0|0:0,0:0:0:0:
184,168,62825,6,0,L|156:192,3,35,8|0|0|0,0:0|0:0|0:0|0:0,0:0:0:0:
148,224,63141,2,0,L|120:248,3,35,8|0|0|0,0:0|0:0|0:0|0:0,0:0:0:0:
116,280,63457,2,0,L|172:324,1,70,8|0,0:0|0:0,0:0:0:0:
256,332,63773,2,0,L|311:288,1,70,8|0,0:0|0:0,0:0:0:0:
356,216,64088,6,0,P|324:152|264:120,1,140,4|8,0:0|0:0,0:0:0:0:
184,96,64562,1,0,0:0:0:0:
100,80,64720,2,0,P|88:52|60:24,2,70,2|0|8,0:0|0:0|0:0,0:0:0:0:
108,164,65194,1,0,0:0:0:0:
116,248,65352,2,0,P|129:281|149:309,1,70,2|0,0:0|0:0,0:0:0:0:
212,364,65667,2,0,P|232:336|245:302,1,70,8|0,0:0|0:0,0:0:0:0:
260,220,65983,2,0,P|260:148|300:96,1,140,2|8,0:0|0:0,0:0:0:0:
384,76,66457,1,0,0:0:0:0:
460,44,66615,6,0,P|460:111|407:154,1,140,2|8,0:0|0:0,0:0:0:0:
332,196,67088,1,0,0:0:0:0:
256,164,67246,2,0,P|208:144|156:148,1,105,2|0,0:0|0:0,0:0:0:0:
136,168,67562,2,0,L|112:236,1,70,8|0,0:0|0:0,0:0:0:0:
80,312,67878,2,0,P|48:292|24:268,2,70,2|0|8,0:0|0:0|0:0,0:0:0:0:
164,332,68352,1,0,0:0:0:0:
244,300,68510,2,0,P|308:268|364:299,1,140,2|8,0:0|0:0,0:0:0:0:
424,356,68983,1,0,0:0:0:0:
424,356,69062,1,0,0:0:0:0:
424,356,69141,6,0,P|444:288|424:224,1,140,2|8,0:0|0:0,0:0:0:0:
388,148,69615,1,0,0:0:0:0:
340,80,69773,2,0,P|314:48|291:29,1,70,2|0,0:0|0:0,0:0:0:0:
208,36,70088,2,0,P|210:68|224:102,1,70,8|0,0:0|0:0,0:0:0:0:
256,180,70404,6,0,P|288:179|324:171,2,70,2|0|8,0:0|0:0|0:0,0:0:0:0:
172,172,70878,1,0,0:0:0:0:
88,152,71036,2,0,P|88:192|92:224,1,70,2|0,0:0|0:0,0:0:0:0:
140,292,71352,2,0,P|176:288|212:288,1,70,8|0,0:0|0:0,0:0:0:0:
296,292,71667,5,2,0:0:0:0:
296,292,71825,1,0,0:0:0:0:
372,256,71983,1,8,0:0:0:0:
372,256,72141,1,0,0:0:0:0:
416,184,72299,2,0,L|488:184,2,70,2|0|8,0:0|0:0|0:0,0:0:0:0:
296,68,72931,6,0,P|224:52|160:68,1,140,8|8,0:0|0:0,0:0:0:0:
92,116,73404,1,0,0:0:0:0:
32,176,73562,2,0,L|8:212,3,35,8|0|0|0,0:0|0:0|0:0|0:0,0:0:0:0:
16,240,73878,2,0,P|44:264|76:276,1,70,8|0,0:0|0:0,0:0:0:0:
148,316,74194,6,0,P|160:352|180:376,2,70,10|0|8,0:0|0:0|0:0,0:0:0:0:
172,236,74667,1,0,0:0:0:0:
224,168,74825,2,0,P|220:132|208:100,2,70,10|0|12,0:0|0:0|0:0,0:0:0:0:
276,236,75299,1,0,0:0:0:0:
336,324,75457,6,0,P|372:332|404:324,1,70,12|0,0:0|0:0,0:0:0:0:
472,244,75773,1,8,0:0:0:0:
472,244,75931,1,0,0:0:0:0:
404,164,76088,2,0,P|356:116|288:116,1,140,10|8,0:0|0:0,0:0:0:0:
192,160,76562,1,4,0:0:0:0:
80,100,86825,6,0,P|148:100|219:120,1,140,4|0,0:0|0:0,0:0:0:0:
284,172,87299,1,0,0:0:0:0:
344,228,87457,2,0,P|372:220|412:220,2,70,2|0|0,0:0|0:0|0:0,0:0:0:0:
264,256,87931,1,0,0:0:0:0:
180,256,88088,6,0,P|159:285|145:319,1,70,2|0,0:0|0:0,0:0:0:0:
232,316,88404,2,0,P|252:286|266:252,1,70
284,172,88720,2,0,P|264:92|296:48,1,140,2|0,0:0|0:0,0:0:0:0:
472,80,89352,6,0,P|404:108|336:108,1,140,2|0,0:0|0:0,0:0:0:0:
256,100,89825,1,0,0:0:0:0:
316,40,89983,2,0,P|336:104|316:172,1,140,2|0,0:0|0:0,0:0:0:0:
256,232,90457,1,0,0:0:0:0:
200,172,90615,2,0,P|128:152|64:156,1,140,2|0,0:0|0:0,0:0:0:0:
20,320,91246,5,2,0:0:0:0:
100,340,91404,1,2,0:0:0:0:
184,336,91562,2,0,P|216:336|260:324,1,70,0|2,0:0|0:0,0:0:0:0:
328,292,91878,2,0,P|352:228|328:164,1,140,2|0,0:0|0:0,0:0:0:0:
264,108,92352,1,0,0:0:0:0:
180,124,92510,2,0,P|152:104|132:76,2,70,2|0|0,0:0|0:0|0:0,0:0:0:0:
236,188,92983,1,0,0:0:0:0:
308,228,93141,2,0,P|380:252|444:252,1,140,2|0,0:0|0:0,0:0:0:0:
460,60,94088,6,0,L|388:60,1,70,2|2,0:0|0:0,0:0:0:0:
304,60,94404,2,0,P|240:60|168:80,1,140,4|0,0:0|0:0,0:0:0:0:
48,200,95036,2,0,P|112:200|184:180,1,140,2|0,0:0|0:0,0:0:0:0:
184,180,95667,1,2,0:0:0:0:
428,124,96299,2,0,L|460:107,3,35,8|0|0|0,0:0|0:0|0:0|0:0,0:0:0:0:
476,76,96615,2,0,L|446:59,3,35,8|0|0|0,0:0|0:0|0:0|0:0,0:0:0:0:
416,40,96931,6,0,P|348:24|280:40,1,140,4|8,0:0|0:0,0:0:0:0:
200,68,97404,1,0,0:0:0:0:
140,128,97562,2,0,P|173:190|232:223,1,140,2|8,0:0|0:0,0:0:0:0:
317,212,98036,1,0,0:0:0:0:
269,141,98194,2,0,P|234:204|248:267,1,140,2|8,0:0|0:0,0:0:0:0:
316,316,98667,1,0,0:0:0:0:
384,268,98825,2,0,L|397:197,1,70,2|0,0:0|0:0,0:0:0:0:
448,132,99141,2,0,L|435:63,1,70,8|0,0:0|0:0,0:0:0:0:
356,40,99457,6,0,P|288:24|220:40,1,140,2|8,0:0|0:0,0:0:0:0:
160,100,99931,1,0,0:0:0:0:
100,160,100088,2,0,P|64:160|32:152,2,70,2|0|8,0:0|0:0|0:0,0:0:0:0:
268,140,100720,2,0,P|328:176|352:240,1,140,2|8,0:0|0:0,0:0:0:0:
224,348,101352,2,0,P|188:356|156:348,1,70,2|2,0:0|0:0,0:0:0:0:
116,272,101667,6,0,P|188:256|256:272,1,140,8|4,0:0|0:0,0:0:0:0:
384,340,102299,2,0,P|400:304|400:272,1,70,8|0,0:0|0:0,0:0:0:0:
408,188,102615,2,0,P|440:180|476:180,2,70,2|0|8,0:0|0:0|0:0,0:0:0:0:
336,232,103088,1,0,0:0:0:0:
276,288,103246,2,0,P|208:316|144:308,1,140,2|8,0:0|0:0,0:0:0:0:
12,204,103878,1,2,0:0:0:0:
56,40,104194,6,0,P|92:32|124:36,1,70,8|8,0:0|0:0,0:0:0:0:
204,68,104510,2,0,P|268:48|336:68,2,140,2|8|2,0:0|0:0|0:0,0:0:0:0:
72,172,105457,1,8,0:0:0:0:
204,280,105773,2,0,P|268:300|336:280,1,140,2|8,0:0|0:0,0:0:0:0:
460,164,106404,2,0,P|392:180|324:164,1,140,2|8,0:0|0:0,0:0:0:0:
252,64,107036,6,0,P|196:52|148:64,1,105.000004005432,4|0,0:0|0:0,0:0:0:0:
108,92,107510,1,0,0:0:0:0:
64,120,107667,2,0,P|40:100|16:88,2,52.5000020027161,2|0|0,0:0|0:0|0:0,0:0:0:0:
124,208,108299,6,0,P|176:224|214:260,1,105.000004005432,2|0,0:0|0:0,0:0:0:0:
256,288,108773,1,0,0:0:0:0:
299,257,108931,2,0,P|338:222|388:208,1,105.000004005432,2|0,0:0|0:0,0:0:0:0:
452,124,109562,6,0,P|404:92|356:84,1,105.000004005432,2|0,0:0|0:0,0:0:0:0:
304,80,110036,1,0,0:0:0:0:
256,104,110194,2,0,P|232:80|212:68,2,52.5000020027161,2|0|0,0:0|0:0|0:0,0:0:0:0:
304,200,110825,6,0,P|256:216|204:200,1,105.000004005432,2|0,0:0|0:0,0:0:0:0:
205,95,111457,2,0,P|255:79|303:95,1,105.000004005432,2|0,0:0|0:0,0:0:0:0:
428,184,112088,6,0,P|464:184|496:168,2,70,2|0|0,0:0|0:0|0:0,0:0:0:0:
352,184,112562,1,0,0:0:0:0:
276,176,112720,2,0,P|272:136|260:108,2,70,2|0|0,0:0|0:0|0:0,0:0:0:0:
264,252,113194,1,0,0:0:0:0:
192,276,113352,2,0,P|120:276|56:256,1,140,2|0,0:0|0:0,0:0:0:0:
56,88,113983,2,0,P|124:64|192:64,1,140,2|0,0:0|0:0,0:0:0:0:
340,64,114615,6,0,P|328:100|309:128,1,70,2|0,0:0|0:0,0:0:0:0:
236,152,114931,2,0,P|248:188|266:215,1,70
320,272,115246,2,0,P|356:260|388:260,2,70,2|0|0,0:0|0:0|0:0,0:0:0:0:
248,300,115720,1,0,0:0:0:0:
176,332,115878,2,0,P|113:300|71:244,1,140,2|0,0:0|0:0,0:0:0:0:
64,92,116510,2,0,P|133:101|191:139,1,140,2|0,0:0|0:0,0:0:0:0:
312,256,117141,6,0,P|338:272|376:284,2,70,4|0|0,0:3|0:0|0:0,0:0:0:0:
268,184,117615,2,0,P|238:176|202:158,2,70,4|0|0,0:3|0:0|0:0,0:0:0:0:
352,172,118088,2,0,P|378:188|416:200,2,70,4|0|0,0:3|0:0|0:0,0:0:0:0:
308,100,118562,2,0,P|278:92|242:74,2,70,4|0|0,3:3|0:0|0:0,0:0:0:0:
388,68,119036,2,0,P|420:132|416:200,1,140,4|8,0:3|0:0,0:0:0:0:
284,292,119667,6,0,L|250:285,3,35,8|0|0|0,0:0|0:0|0:0|0:0,0:0:0:0:
224,260,119983,2,0,L|189:252,3,35,8|0|0|0,0:0|0:0|0:0|0:0,0:0:0:0:
164,232,120299,2,0,P|132:168|164:112,1,140,8|8,0:0|0:0,0:0:0:0:
312,32,120931,1,8,0:0:0:0:
312,32,121088,1,8,0:0:0:0:
456,236,121562,1,8,0:0:0:0:
456,236,121720,1,8,0:0:0:0:
220,324,122194,6,0,P|156:300|99:258,1,140,4|8,0:0|0:0,0:0:0:0:
76,176,122667,1,0,0:0:0:0:
76,92,122825,2,0,P|36:80|8:80,2,70,2|0|8,0:0|0:0|0:0,0:0:0:0:
152,128,123299,1,0,0:0:0:0:
212,184,123457,2,0,P|248:180|280:168,1,70,2|0,0:0|0:0,0:0:0:0:
300,84,123773,2,0,P|264:88|232:100,1,70,8|0,0:0|0:0,0:0:0:0:
152,128,124088,2,0,P|116:180|136:252,1,140,2|8,0:0|0:0,0:0:0:0:
292,184,124720,6,0,P|354:157|420:184,1,140,2|8,0:0|0:0,0:0:0:0:
448,260,125194,1,0,0:0:0:0:
388,320,125352,2,0,P|416:344|452:348,2,70,2|0|8,0:0|0:0|0:0,0:0:0:0:
328,260,125825,1,0,0:0:0:0:
292,184,125983,2,0,P|303:148|304:116,2,70,2|0|8,0:0|0:0|0:0,0:0:0:0:
236,248,126457,1,0,0:0:0:0:
184,312,126615,2,0,P|152:248|184:192,1,140,2|8,0:0|0:0,0:0:0:0:
244,132,127088,1,0,0:0:0:0:
244,132,127167,1,0,0:0:0:0:
244,132,127246,6,0,P|304:104|368:132,1,140,2|8,0:0|0:0,0:0:0:0:
412,204,127720,1,0,0:0:0:0:
352,264,127878,2,0,P|311:263|279:256,1,70,2|0,0:0|0:0,0:0:0:0:
212,212,128194,2,0,P|172:212|139:219,1,70,8|0,0:0|0:0,0:0:0:0:
60,236,128510,2,0,P|52:272|52:308,2,70,2|0|8,0:0|0:0|0:0,0:0:0:0:
88,156,128983,1,0,0:0:0:0:
132,84,129141,2,0,P|184:68|232:84,1,105,2|0,0:0|0:0,0:0:0:0:
252,104,129457,2,0,L|324:104,1,70,8|0,0:0|0:0,0:0:0:0:
400,136,129773,6,0,P|375:163|345:183,1,70,2|0,0:0|0:0,0:0:0:0:
268,216,130088,2,0,P|293:242|321:260,1,70,8|0,0:0|0:0,0:0:0:0:
388,312,130404,2,0,P|420:312|456:304,2,70,2|0|8,0:0|0:0|0:0,0:0:0:0:
220,304,131036,6,0,L|183:297,3,35,8|0|0|0,0:0|0:0|0:0|0:0,0:0:0:0:
160,272,131352,2,0,L|123:265,3,35,8|0|0|0,0:0|0:0|0:0|0:0,0:0:0:0:
104,236,131667,2,0,L|130:169,1,70,8|0,0:0|0:0,0:0:0:0:
188,112,131983,2,0,L|257:101,1,70,8|0,0:0|0:0,0:0:0:0:
340,96,132299,6,0,P|376:160|340:208,1,140,4|8,0:0|0:0,0:0:0:0:
260,236,132773,1,0,0:0:0:0:
184,268,132931,2,0,P|196:300|196:336,2,70,2|0|8,0:0|0:0|0:0,0:0:0:0:
136,200,133404,1,0,0:0:0:0:
80,136,133562,2,0,P|108:115|141:103,1,70,2|0,0:0|0:0,0:0:0:0:
216,144,133878,2,0,P|249:131|277:111,1,70,8|0,0:0|0:0,0:0:0:0:
336,52,134194,2,0,P|404:29|466:51,1,140,2|8,0:0|0:0,0:0:0:0:
504,128,134667,1,0,0:0:0:0:
464,204,134825,6,0,P|395:226|333:204,1,140,2|8,0:0|0:0,0:0:0:0:
296,128,135299,1,0,0:0:0:0:
252,56,135457,2,0,P|216:100|213:146,1,105,2|0,0:0|0:0,0:0:0:0:
224,172,135773,2,0,L|181:233,1,70,8|0,0:0|0:0,0:0:0:0:
140,300,136088,2,0,P|160:328|188:348,2,70,2|0|8,0:0|0:0|0:0,0:0:0:0:
100,224,136562,1,0,0:0:0:0:
36,168,136720,2,0,P|100:140|161:165,1,140,2|8,0:0|0:0,0:0:0:0:
224,224,137194,1,0,0:0:0:0:
224,224,137273,1,0,0:0:0:0:
224,224,137352,6,0,P|288:248|352:224,1,140,2|8,0:0|0:0,0:0:0:0:
392,152,137825,1,0,0:0:0:0:
356,76,137983,2,0,P|316:60|284:60,1,70,2|0,0:0|0:0,0:0:0:0:
212,100,138299,2,0,P|172:84|145:83,1,70,8|0,0:0|0:0,0:0:0:0:
80,136,138615,6,0,P|40:128|8:128,2,70,2|0|8,0:0|0:0|0:0,0:0:0:0:
152,180,139088,1,0,0:0:0:0:
236,188,139246,2,0,P|248:224|272:248,1,70,2|0,0:0|0:0,0:0:0:0:
344,288,139562,2,0,P|368:260|376:228,1,70,8|0,0:0|0:0,0:0:0:0:
380,144,139878,5,2,0:0:0:0:
380,144,140036,1,0,0:0:0:0:
324,80,140194,1,8,0:0:0:0:
324,80,140352,1,0,0:0:0:0:
248,44,140510,2,0,P|208:32|176:32,2,70,2|0|8,0:0|0:0|0:0,0:0:0:0:
380,144,141141,6,0,P|308:160|244:144,1,140,8|8,0:0|0:0,0:0:0:0:
172,104,141615,1,0,0:0:0:0:
104,52,141773,2,0,L|80:88,3,35,8|0|0|0,0:0|0:0|0:0|0:0,0:0:0:0:
72,116,142088,2,0,P|72:148|84:184,1,70,8|0,0:0|0:0,0:0:0:0:
116,264,142404,6,0,P|88:290|75:318,2,70,10|0|8,0:0|0:0|0:0,0:0:0:0:
196,232,142878,1,0,0:0:0:0:
276,204,143036,2,0,P|276:172|288:136,2,70,10|0|12,0:0|0:0|0:0,0:0:0:0:
320,276,143510,1,0,0:0:0:0:
412,320,143667,6,0,P|426:281|432:250,1,70,12|0,0:0|0:0,0:0:0:0:
436,148,143983,1,8,0:0:0:0:
436,148,144141,1,0,0:0:0:0:
352,84,144299,2,0,P|280:92|228:132,1,140,10|8,0:0|0:0,0:0:0:0:
196,232,144773,1,4,0:0:0:0:
256,192,144931,12,0,149983,0:0:0:0:
256,192,152510,12,0,154404,0:0:0:0:
44,260,155036,6,0,P|112:244|184:244,1,140,4|8,0:0|0:0,0:0:0:0:
192,328,155510,2,0,P|261:327|329:311,1,140,2|0,0:0|0:0,0:0:0:0:
384,248,155983,2,0,L|420:236,3,35,4|0|0|0,0:0|0:0|0:0|0:0,0:0:0:0:
444,212,156299,2,0,P|464:144|444:80,1,140,2|8,0:0|0:0,0:0:0:0:
368,44,156773,2,0,L|300:60,1,70,0|2,0:0|0:0,0:0:0:0:
256,132,157088,2,0,L|188:116,1,70,0|8,0:0|0:0,0:0:0:0:
116,72,157404,1,0,0:0:0:0:
116,72,157483,1,0,0:0:0:0:
116,72,157562,6,0,P|88:128|88:204,1,140,2|8,0:0|0:0,0:0:0:0:
144,268,158036,2,0,L|176:288,9,35,0|0|0|0|0|0|8|0|0|0,0:0|0:0|0:0|0:0|0:0|0:0|0:0|0:0|0:0|0:0,0:0:0:0:
204,300,158825,6,0,P|272:320|340:300,1,140,2|8,0:0|0:0,0:0:0:0:
464,192,159457,2,0,P|396:172|328:192,1,140,2|8,0:0|0:0,0:0:0:0:
204,300,160088,6,0,L|144:260,1,70,6|0,0:0|0:0,0:0:0:0:
80,208,160404,1,8,0:0:0:0:
20,152,160562,2,0,P|80:124|144:152,1,140,4|2,0:0|0:0,0:0:0:0:
208,208,161036,6,0,L|280:208,1,70,8|2,0:0|0:0,0:0:0:0:
393,87,161509,1,0,0:0:0:0:
228,116,161825,1,2,0:0:0:0:
379,190,162141,1,0,0:0:0:0:
300,41,162457,1,2,0:0:0:0:
300,41,162615,5,4,0:0:0:0:
64,130,162931,2,0,L|56:170,11,35
56,200,163878,6,0,P|96:212|124:212,1,70,10|0,0:0|0:0,0:0:0:0:
196,164,164194,2,0,P|224:164|264:176,1,70,8|0,0:0|0:0,0:0:0:0:
320,240,164510,2,0,P|361:233|386:222,1,70,10|0,0:0|0:0,0:0:0:0:
412,140,164825,2,0,P|370:146|345:157,1,70,8|0,0:0|0:0,0:0:0:0:
264,176,165141,6,0,P|200:208|176:272,1,140,4|8,0:0|0:0,0:0:0:0:
220,340,165615,1,0,0:0:0:0:
264,268,165773,2,0,P|212:212|156:184,1,140,2|8,0:0|0:0,0:0:0:0:
76,152,166246,6,0,P|116:96|184:76,1,140,4|0,0:0|0:0,0:0:0:0:
268,80,166720,2,0,L|336:96,1,70,8|0,0:0|0:0,0:0:0:0:
392,160,167036,2,0,L|324:176,1,70,2|0,0:0|0:0,0:0:0:0:
240,180,167352,2,0,L|200:180,3,35,8|0|0|0,0:0|0:0|0:0|0:0,0:0:0:0:
172,164,167667,6,0,P|104:188|64:244,1,140,2|8,0:0|0:0,0:0:0:0:
48,324,168141,2,0,P|116:340|184:324,1,140,2|0,0:0|0:0,0:0:0:0:
244,268,168615,1,8,0:0:0:0:
312,220,168773,6,0,P|328:148|296:92,1,140,4|0,0:0|0:0,0:0:0:0:
224,52,169246,1,8,0:0:0:0:
80,140,169562,2,0,P|56:192|56:244,2,105,2|2|0,0:0|0:0|0:0,0:0:0:0:
140,80,170194,6,0,P|176:72|212:80,1,70,2|0,0:0|0:0,0:0:0:0:
276,132,170510,2,0,L|260:204,1,70,8|0,0:0|0:0,0:0:0:0:
236,280,170825,2,0,P|272:288|308:280,1,70,2|0,0:0|0:0,0:0:0:0:
380,244,171141,2,0,L|395:175,1,70,2|0,0:0|0:0,0:0:0:0:
384,92,171457,6,0,L|352:68,7,35,8|0|0|0|0|0|0|0,0:0|0:0|0:0|0:0|0:0|0:0|0:0|0:0,0:0:0:0:
320,64,172088,2,0,L|280:64,7,35,8|0|0|0|0|0|0|0,0:0|0:0|0:0|0:0|0:0|0:0|0:0|0:0,0:0:0:0:
252,76,172720,1,4,0:0:0:0:
124,308,177773,6,0,P|256:352|384:308,1,280,2|2,0:0|0:0,0:0:0:0:
464,192,178720,1,0,0:0:0:0:
388,76,179036,6,0,P|256:32|128:76,1,280,2|2,0:0|0:0,0:0:0:0:
48,192,179983,1,0,0:0:0:0:
188,224,180299,6,0,P|336:192|188:160,1,420.000016021729,0|2,0:0|0:0,0:0:0:0:
132,272,181878,1,2,0:0:0:0:
236,340,182194,1,0,0:0:0:0:
356,308,182510,1,2,0:0:0:0:
412,196,182825,6,0,P|408:120|360:80,1,140,4|0,0:0|0:0,0:0:0:0:
280,64,183299,2,0,P|300:28|324:12,2,70,4|0|0,0:0|0:0|0:0,0:0:0:0:
264,148,183773,2,0,P|196:140|132:176,1,140,4|0,0:0|0:0,0:0:0:0:
92,244,184246,2,0,P|64:216|56:184,2,70,4|0|0,0:0|0:0|0:0,0:0:0:0:
172,272,184720,5,8,0:0:0:0:
340,272,185036,1,8,0:0:0:0:
256,332,185352,6,0,L|256:120,1,210,8|8,0:0|0:0,0:0:0:0:
256,20,186615,1,8,0:0:0:0:
256,20,186773,1,8,0:0:0:0:
116,80,187246,1,8,0:0:0:0:
116,80,187404,2,0,L|72:140,1,70,8|0,0:0|0:0,0:0:0:0:
48,216,187878,6,0,P|112:256|176:256,1,140,4|8,0:0|0:0,0:0:0:0:
256,228,188352,1,0,0:0:0:0:
324,176,188510,2,0,P|364:188|392:188,2,70,2|0|8,0:0|0:0|0:0,0:0:0:0:
244,148,188983,1,0,0:0:0:0:
164,128,189141,2,0,P|128:124|96:112,1,70,2|0,0:0|0:0,0:0:0:0:
76,28,189457,2,0,P|112:32|144:44,1,70,8|0,0:0|0:0,0:0:0:0:
220,76,189773,2,0,P|288:76|356:56,1,140,2|8,0:0|0:0,0:0:0:0:
488,160,190404,6,0,P|424:184|352:184,1,140,2|8,0:0|0:0,0:0:0:0:
268,168,190878,1,0,0:0:0:0:
188,140,191036,2,0,P|160:116|124:104,2,70,2|0|8,0:0|0:0|0:0,0:0:0:0:
212,220,191510,1,0,0:0:0:0:
224,304,191667,2,0,P|255:322|293:328,2,70,2|0|8,0:0|0:0|0:0,0:0:0:0:
152,260,192141,1,0,0:0:0:0:
100,192,192299,2,0,P|68:128|100:72,1,140,2|8,0:0|0:0,0:0:0:0:
160,132,192773,1,0,0:0:0:0:
160,132,192852,1,0,0:0:0:0:
160,132,192931,6,0,P|220:104|284:132,1,140,2|8,0:0|0:0,0:0:0:0:
344,192,193404,1,0,0:0:0:0:
376,268,193562,2,0,P|344:296|316:304,1,70,2|0,0:0|0:0,0:0:0:0:
256,248,193878,2,0,P|216:248|183:255,1,70,8|0,0:0|0:0,0:0:0:0:
108,284,194194,2,0,P|107:320|115:356,2,70,2|0|8,0:0|0:0|0:0,0:0:0:0:
112,200,194667,1,0,0:0:0:0:
160,132,194825,2,0,P|212:116|260:132,1,105,2|0,0:0|0:0,0:0:0:0:
280,144,195141,2,0,L|352:144,1,70,8|0,0:0|0:0,0:0:0:0:
428,172,195457,6,0,P|403:199|373:219,1,70,2|0,0:0|0:0,0:0:0:0:
292,224,195773,2,0,P|259:231|227:247,1,70,8|0,0:0|0:0,0:0:0:0:
156,292,196088,2,0,P|164:328|164:360,2,70,2|0|8,0:0|0:0|0:0,0:0:0:0:
64,152,196720,6,0,L|96:132,3,35,8|0|0|0,0:0|0:0|0:0|0:0,0:0:0:0:
109,101,197036,2,0,L|141:81,3,35,8|0|0|0,0:0|0:0|0:0|0:0,0:0:0:0:
168,64,197352,2,0,L|240:72,1,70,8|0,0:0|0:0,0:0:0:0:
304,120,197667,2,0,L|373:109,1,70,8|0,0:0|0:0,0:0:0:0:
456,100,197983,6,0,P|492:156|456:212,1,140,4|8,0:0|0:0,0:0:0:0:
380,244,198457,1,0,0:0:0:0:
304,284,198615,2,0,P|316:316|316:352,2,70,2|0|8,0:0|0:0|0:0,0:0:0:0:
236,232,199088,1,0,0:0:0:0:
180,172,199246,2,0,P|146:161|111:161,1,70,2|0,0:0|0:0,0:0:0:0:
44,112,199562,2,0,P|72:92|105:79,1,70,8|0,0:0|0:0,0:0:0:0:
188,60,199878,2,0,P|256:37|318:59,1,140,2|8,0:0|0:0,0:0:0:0:
384,112,200352,1,0,0:0:0:0:
436,180,200510,6,0,P|367:202|305:180,1,140,2|8,0:0|0:0,0:0:0:0:
256,112,200983,1,0,0:0:0:0:
188,60,201141,2,0,P|168:112|184:160,1,105,2|0,0:0|0:0,0:0:0:0:
204,176,201457,2,0,L|156:228,1,70,8|0,0:0|0:0,0:0:0:0:
108,296,201773,2,0,P|72:284|48:260,2,70,2|0|8,0:0|0:0|0:0,0:0:0:0:
192,304,202246,1,0,0:0:0:0:
248,244,202404,2,0,P|312:212|368:243,1,140,2|8,0:0|0:0,0:0:0:0:
420,308,202878,1,0,0:0:0:0:
420,308,202957,1,0,0:0:0:0:
420,308,203036,6,0,P|444:244|420:180,1,140,2|8,0:0|0:0,0:0:0:0:
356,120,203510,1,0,0:0:0:0:
292,68,203667,2,0,P|252:60|220:60,1,70,2|0,0:0|0:0,0:0:0:0:
216,144,203983,2,0,P|184:144|144:136,1,70,8|0,0:0|0:0,0:0:0:0:
72,100,204299,6,0,P|79:60|80:28,2,70,2|0|8,0:0|0:0|0:0,0:0:0:0:
36,176,204773,1,0,0:0:0:0:
72,252,204931,2,0,P|84:288|108:312,1,70,2|0,0:0|0:0,0:0:0:0:
188,308,205246,2,0,P|196:276|220:248,1,70,8|0,0:0|0:0,0:0:0:0:
288,200,205562,5,2,0:0:0:0:
288,200,205720,1,0,0:0:0:0:
364,160,205878,1,8,0:0:0:0:
364,160,206036,1,0,0:0:0:0:
448,148,206194,2,0,P|480:168|512:176,2,70,2|0|8,0:0|0:0|0:0,0:0:0:0:
316,44,206825,6,0,P|244:28|180:44,1,140,8|8,0:0|0:0,0:0:0:0:
112,88,207299,1,0,0:0:0:0:
56,152,207457,2,0,L|75:190,3,35,8|0|0|0,0:0|0:0|0:0|0:0,0:0:0:0:
95,211,207773,2,0,P|122:227|159:234,1,70,8|0,0:0|0:0,0:0:0:0:
244,236,208088,6,0,P|264:260|300:276,2,70,10|0|8,0:0|0:0|0:0,0:0:0:0:
210,156,208562,1,0,0:0:0:0:
256,84,208720,2,0,P|256:52|268:16,2,70,10|0|12,0:0|0:0|0:0,0:0:0:0:
302,156,209194,1,0,0:0:0:0:
348,236,209352,5,12,0:0:0:0:
302,315,209510,1,0,0:0:0:0:
210,315,209667,1,10,0:0:0:0:
164,236,209825,1,0,0:0:0:0:
210,156,209983,2,0,P|256:112|302:156,1,140,8|8,0:0|0:0,0:0:0:0:
256,236,210457,1,4,0:0:0:0:
256,192,210536,12,0,215667,0:0:0:0:
