osu file format v12

[General]
AudioFilename: Uchouten Vivace.mp3
AudioLeadIn: 0
PreviewTime: 111742
Countdown: 0
SampleSet: Soft
StackLeniency: 0.7
Mode: 0
LetterboxInBreaks: 0
WidescreenStoryboard: 0

[Editor]
Bookmarks: 79035,143320,190914,204899
DistanceSpacing: 0.7
BeatDivisor: 2
GridSize: 4
TimelineZoom: 1

[Metadata]
Title:Uchouten Vivace
TitleUnicode:有頂天ビバーチェ
Artist:yuikonnu
ArtistUnicode:ゆいこんぬ
Creator:Guy
Version:Hard
Source:
Tags:Last Note. vocaloid gumi helloscv h-728 Nijiiro chocolatier nico douga
BeatmapID:354959
BeatmapSetID:107232

[Difficulty]
HPDrainRate:5
CircleSize:4
OverallDifficulty:5
ApproachRate:8
SliderMultiplier:1.2
SliderTickRate:2

[Events]
//Background and Video events
0,0,"bg.jpg",0,0
Video,-1100,"video_.avi"
//Break Periods
2,83746,90014
2,130663,140540
2,159335,161743
//Storyboard Layer 0 (Background)
//Storyboard Layer 1 (Fail)
//Storyboard Layer 2 (Pass)
//Storyboard Layer 3 (Foreground)
//Storyboard Sound Samples
//Background Colour Transformations
3,100,163,162,255

[TimingPoints]
539,225.563909774436,4,2,1,80,1,0
39561,-100,4,2,2,70,0,0
39787,-100,4,2,1,80,0,0
46779,-100,4,2,2,70,0,0
47005,-100,4,2,1,80,0,0
48584,-100,4,2,2,70,0,0
48809,-100,4,2,1,80,0,0
51065,-100,4,2,1,70,0,0
58283,-100,4,2,1,80,0,0
65275,-100,4,2,2,70,0,0
65388,-100,4,2,1,80,0,0
65501,-100,4,2,1,100,0,1
70238,-100,4,2,2,90,0,1
70463,-100,4,2,1,100,0,1
74072,-100,4,2,2,90,0,1
74185,-100,4,2,1,100,0,1
75538,-100,4,2,2,90,0,1
75651,-100,4,2,1,100,0,1
77456,-100,4,2,2,100,0,1
77681,-100,4,2,1,100,0,1
83546,-100,4,2,1,80,0,0
93696,-100,4,2,2,70,0,0
93922,-100,4,2,1,80,0,0
97982,-100,4,2,1,70,0,0
105200,-100,4,2,1,80,0,0
112193,-100,4,2,2,70,0,0
112305,-100,4,2,1,80,0,0
112418,-100,4,2,1,100,0,1
115351,-100,4,2,2,90,0,1
115576,-100,4,2,1,100,0,1
120651,-100,4,2,2,90,0,1
120764,-100,4,2,1,100,0,1
126178,-100,4,2,2,90,0,1
126403,-100,4,2,1,100,0,1
130463,-100,4,2,1,80,0,0
151328,-100,4,2,2,70,0,0
151441,-100,4,2,1,80,0,0
162945,-100,4,2,1,100,0,1
167569,-100,4,2,2,90,0,1
167681,-100,4,2,1,100,0,1
167907,-100,4,2,2,90,0,1
168020,-100,4,2,1,100,0,1
169373,-100,4,2,2,90,0,1
169486,-100,4,2,1,100,0,1
169711,-100,4,2,2,90,0,1
169937,-100,4,2,1,100,0,1
173095,-100,4,2,2,90,0,1
173546,-100,4,2,1,80,0,1
173772,-100,4,2,1,100,0,1
178508,-100,4,2,2,90,0,1
178734,-100,4,2,1,100,0,1
182005,-100,4,2,2,90,0,1
182117,-100,4,2,1,100,0,1
183753,-100,4,2,2,90,0,1
183866,-100,4,2,1,100,0,1
191817,-100,4,2,1,80,0,0

[Colours]
Combo1 : 255,0,204
Combo2 : 39,231,124
Combo3 : 232,139,0
Combo4 : 1,197,254
Combo5 : 170,201,48

[HitObjects]
132,112,7757,6,0,P|92:168|92:232,1,120,4|8,0:0|0:0,0:0:0:0:
144,304,8208,2,0,P|184:248|184:184,1,120,0|8,0:0|0:0,0:0:0:0:
187,198,8546,2,0,P|256:216|344:148,1,180,0|8,0:0|0:0,0:0:0:0:
316,64,9110,1,0,0:0:0:0:
248,128,9335,1,8,0:0:0:0:
160,96,9561,6,0,P|100:104|36:104,1,120,4|8,0:0|0:0,0:0:0:0:
16,252,10012,2,0,P|76:244|140:244,1,120,0|8,0:0|0:0,0:0:0:0:
180,248,10351,2,0,P|256:256|352:208,1,180,0|8,0:0|0:0,0:0:0:0:
412,140,10914,1,0,0:0:0:0:
440,232,11140,1,8,0:0:0:0:
440,232,11253,1,8,0:0:0:0:
440,232,11366,6,0,L|432:364,1,120,4|8,0:0|0:0,0:0:0:0:
352,296,11817,2,0,P|300:320|228:328,1,120,0|8,0:0|0:0,0:0:0:0:
196,320,12155,2,0,P|152:256|56:240,1,180,0|8,0:0|0:0,0:0:0:0:
0,164,12719,1,0,0:0:0:0:
76,104,12945,1,8,0:0:0:0:
256,192,13170,12,4,14523,0:0:0:0:
328,76,14975,6,0,L|192:64,1,120,4|8,0:0|0:0,0:0:0:0:
276,156,15426,2,0,L|140:144,1,120,0|8,0:0|0:0,0:0:0:0:
120,140,15764,2,0,P|64:188|84:304,1,180,0|8,0:0|0:0,0:0:0:0:
160,324,16328,1,0,0:0:0:0:
144,232,16554,1,8,0:0:0:0:
236,264,16779,6,0,P|296:256|356:300,1,120,4|8,0:0|0:0,0:0:0:0:
436,328,17230,2,0,L|424:184,1,120,0|8,0:0|0:0,0:0:0:0:
424,172,17569,2,0,B|392:120|392:120|324:124|284:52,1,180,0|8,0:0|0:0,0:0:0:0:
212,116,18132,1,0,0:0:0:0:
136,56,18358,1,8,0:0:0:0:
136,56,18471,1,8,0:0:0:0:
136,56,18584,6,0,P|120:124|116:208,1,120,4|8,0:0|0:0,0:0:0:0:
180,324,19035,2,0,P|196:256|200:172,1,120,0|8,0:0|0:0,0:0:0:0:
204,168,19373,2,0,P|280:224|368:200,1,180,0|8,0:0|0:0,0:0:0:0:
384,76,19937,2,0,P|336:32|264:36,1,120,0|8,0:0|0:0,0:0:0:0:
88,72,20388,6,0,L|96:204,1,120,4|8,0:0|0:0,0:0:0:0:
176,104,20839,2,0,L|184:236,1,120,4|8,0:0|0:0,0:0:0:0:
260,128,21290,2,0,L|268:260,1,120,4|8,0:0|0:0,0:0:0:0:
344,152,21742,2,0,L|352:284,1,120,4|8,0:0|0:0,0:0:0:0:
420,336,22193,5,4,0:0:0:0:
508,296,22418,1,8,0:0:0:0:
432,240,22644,1,0,0:0:0:0:
420,336,22869,1,8,0:0:0:0:
508,296,23095,2,0,P|516:228|500:176,1,120,0|8,0:0|0:0,0:0:0:0:
472,152,23433,2,0,P|376:140|344:64,1,180,0|8,0:0|0:0,0:0:0:0:
252,32,23997,6,0,L|132:40,1,120,0|8,0:0|0:0,0:0:0:0:
32,140,24448,2,0,L|152:132,1,120,0|8,0:0|0:0,0:0:0:0:
252,120,24899,2,0,P|244:196|228:248,1,120,0|8,0:0|0:0,0:0:0:0:
224,276,25238,2,0,P|240:340|340:328,1,180,0|8,0:0|0:0,0:0:0:0:
352,304,25689,1,8,0:0:0:0:
364,272,25802,6,0,P|404:244|476:256,1,120,4|8,0:0|0:0,0:0:0:0:
376,152,26253,2,0,P|336:180|264:168,1,120,0|8,0:0|0:0,0:0:0:0:
172,28,26704,2,0,P|140:80|128:152,1,120,0|8,0:0|0:0,0:0:0:0:
136,180,27042,2,0,B|114:215|114:215|184:272|157:361,1,180,0|8,0:0|0:0,0:0:0:0:
64,304,27606,5,0,0:0:0:0:
28,209,27832,1,8,0:0:0:0:
64,304,28057,2,0,L|195:251,1,120,0|8,0:0|0:0,0:0:0:0:
209,243,28396,2,0,B|236:164|317:166|317:166|313:127,1,180,0|8,0:0|0:0,0:0:0:0:
291,48,28960,1,4,0:0:0:0:
301,263,29185,1,4,0:0:0:0:
112,156,29411,6,0,P|124:88|152:32,1,120,4|8,0:0|0:0,0:0:0:0:
240,36,29862,2,0,P|312:44|364:44,1,120,0|8,0:0|0:0,0:0:0:0:
456,20,30313,2,0,P|468:84|472:156,1,120,0|8,0:0|0:0,0:0:0:0:
472,172,30651,2,0,P|468:248|484:352,1,180,0|8,0:0|0:0,0:0:0:0:
384,336,31215,5,0,0:0:0:0:
336,252,31441,1,8,0:0:0:0:
256,304,31666,2,0,P|184:296|132:328,1,120,0|8,0:0|0:0,0:0:0:0:
52,352,32117,2,0,B|40:292|40:292|56:264|68:212,1,120,0|8,0:0|0:0,0:0:0:0:
72,200,32456,2,0,B|84:144|48:72|48:72|84:24,1,180,0|8,0:0|0:0,0:0:0:0:
104,20,32907,1,8,0:0:0:0:
136,24,33020,6,0,P|200:36|276:36,1,120,4|8,0:0|0:0,0:0:0:0:
356,136,33471,2,0,P|292:124|216:124,1,120,0|8,0:0|0:0,0:0:0:0:
120,200,33922,2,0,P|184:212|260:212,1,120,0|8,0:0|0:0,0:0:0:0:
340,312,34373,2,0,P|276:300|200:300,1,120,0|8,0:0|0:0,0:0:0:0:
128,308,34824,5,4,0:0:0:0:
40,256,35050,1,8,0:0:0:0:
120,200,35275,1,4,0:0:0:0:
88,108,35501,1,8,0:0:0:0:
184,120,35726,1,8,0:0:0:0:
228,32,35952,1,8,0:0:0:0:
288,108,36178,2,0,P|344:116|392:80,1,120,8|8,0:0|0:0,0:0:0:0:
460,12,36629,6,0,B|476:52|476:52|460:92|472:148,1,120,4|8,0:0|0:0,0:0:0:0:
480,224,37080,2,0,P|396:248|360:232,1,120,0|8,0:0|0:0,0:0:0:0:
284,192,37531,2,0,P|232:172|168:184,1,120,0|8,0:0|0:0,0:0:0:0:
140,200,37869,2,0,P|60:216|-12:144,1,180,0|8,0:0|0:0,0:0:0:0:
40,32,38433,6,0,B|96:56|96:56|164:64,1,120,0|8,0:0|0:0,0:0:0:0:
248,32,38884,2,0,P|288:100|292:160,1,120,0|8,0:0|0:0,0:0:0:0:
260,232,39335,2,0,P|168:232|124:300,2,180,0|0|8,0:0|0:0|0:0,0:0:0:0:
292,248,40125,1,8,0:0:0:0:
324,260,40238,6,0,P|384:276|440:228,1,120,4|8,0:0|0:0,0:0:0:0:
416,144,40689,2,0,P|356:128|300:176,1,120,0|8,0:0|0:0,0:0:0:0:
260,232,41140,2,0,B|224:216|224:216|144:232,1,120,0|8,0:0|0:0,0:0:0:0:
108,240,41478,2,0,B|72:196|96:140|96:140|84:52,1,180,0|8,0:0|0:0,0:0:0:0:
184,68,42042,5,0,0:0:0:0:
268,12,42268,1,8,0:0:0:0:
272,112,42493,2,0,P|260:188|260:236,1,120,0|8,0:0|0:0,0:0:0:0:
264,288,42832,2,0,P|328:272|408:356,1,180,0|8,0:0|0:0,0:0:0:0:
316,364,43396,1,4,0:0:0:0:
364,200,43621,1,4,0:0:0:0:
184,264,43847,6,0,P|112:248|56:232,1,120,4|8,0:0|0:0,0:0:0:0:
28,136,44298,2,0,P|100:152|156:168,1,120,0|8,0:0|0:0,0:0:0:0:
244,176,44749,2,0,P|324:160|384:132,1,120,0|8,0:0|0:0,0:0:0:0:
392,128,45087,2,0,P|420:56|336:8,1,180,0|8,0:0|0:0,0:0:0:0:
252,24,45651,5,0,0:0:0:0:
355,73,45877,1,8,0:0:0:0:
272,152,46102,2,0,L|296:300,1,120,0|8,0:0|0:0,0:0:0:0:
188,192,46554,2,0,L|216:376,2,180,0|0|8,0:0|0:0|0:0,0:0:0:0:
184,160,47343,1,8,0:0:0:0:
180,128,47456,6,0,P|108:148|60:148,1,120,4|8,0:0|0:0,0:0:0:0:
116,48,47907,2,0,P|188:28|236:28,1,120,0|8,0:0|0:0,0:0:0:0:
288,112,48358,2,0,P|268:236|272:300,1,180
296,320,48809,2,0,P|348:348|428:344,1,120,0|8,0:0|0:0,0:0:0:0:
496,316,49260,5,4,0:0:0:0:
428,236,49486,2,0,L|444:156,2,60,8|0|4,0:0|0:0|0:0,0:0:0:0:
340,192,49937,2,0,L|332:132,1,60,8|0,0:0|0:0,0:0:0:0:
328,84,50163,1,8,0:0:0:0:
200,40,50388,1,8,0:0:0:0:
140,160,50614,2,0,L|72:172,3,60,8|8|8|8,0:0|0:0|0:0|0:0,0:0:0:0:
44,176,51065,6,0,P|16:256|24:300,1,120,4|0,0:0|0:0,0:0:0:0:
36,320,51403,1,0,0:0:0:0:
64,336,51516,2,0,P|128:348|192:316,1,120,8|0,0:0|0:0,0:0:0:0:
204,304,51854,2,0,P|260:264|368:288,1,180,8|0,0:0|0:0,0:0:0:0:
440,344,52418,5,8,0:0:0:0:
452,168,52869,2,0,L|320:176,1,120,8|0,0:0|0:0,0:0:0:0:
232,176,53320,2,0,B|172:168|172:168|140:180|100:180,1,120,8|0,0:0|0:0,0:0:0:0:
80,168,53659,1,8,0:0:0:0:
64,140,53772,6,0,L|72:56,1,60,0|8,0:0|0:0,0:0:0:0:
145,47,53997,2,0,L|137:131,1,60,8|0,0:0|0:0,0:0:0:0:
152,176,54223,2,0,P|144:252|152:320,1,120,8|8,0:0|0:0,0:0:0:0:
284,340,54674,6,0,P|384:332|408:260,1,180,4|0,0:0|0:0,0:0:0:0:
408,232,55125,2,0,P|388:172|396:116,1,120,8|0,0:0|0:0,0:0:0:0:
408,80,55463,1,8,0:0:0:0:
288,24,55689,2,0,P|276:48|272:88,1,60,8|0,0:0|0:0,0:0:0:0:
272,176,56027,5,8,0:0:0:0:
108,352,56478,2,0,L|120:224,1,120
88,140,56929,2,0,P|128:84|152:24,1,120,8|0,0:0|0:0,0:0:0:0:
160,0,57268,2,0,P|224:64|304:44,1,180,8|8,0:0|0:0,0:0:0:0:
404,28,57832,2,0,L|408:96,1,60,8|8,0:0|0:0,0:0:0:0:
336,116,58057,2,0,L|340:184,1,60,8|8,0:0|0:0,0:0:0:0:
408,208,58283,6,0,P|352:252|300:240,1,120,4|8,0:0|0:0,0:0:0:0:
280,224,58621,2,0,P|220:196|132:252,1,180,0|8,0:0|0:0,0:0:0:0:
216,288,59185,1,0,0:0:0:0:
144,344,59411,1,8,0:0:0:0:
132,252,59636,2,0,B|72:260|72:260|16:224,1,120,0|8,0:0|0:0,0:0:0:0:
8,136,60087,6,0,P|48:84|104:80,1,120,4|8,0:0|0:0,0:0:0:0:
192,104,60538,2,0,P|240:144|304:128,1,120,0|8,0:0|0:0,0:0:0:0:
324,116,60877,2,0,P|412:92|476:180,1,180,0|8,0:0|0:0,0:0:0:0:
460,244,61441,1,0,0:0:0:0:
388,184,61666,5,8,0:0:0:0:
388,184,61779,1,8,0:0:0:0:
388,184,61892,2,0,P|368:244|384:300,1,120,4|8,0:0|0:0,0:0:0:0:
300,344,62343,2,0,P|248:304|196:304,1,120,0|8,0:0|0:0,0:0:0:0:
108,348,62794,1,0,0:0:0:0:
40,276,63020,1,8,0:0:0:0:
128,232,63245,2,0,L|120:168,1,60,8|8,0:0|0:0,0:0:0:0:
196,168,63471,2,0,L|204:104,1,60,8|8,0:0|0:0,0:0:0:0:
276,128,63696,6,0,P|328:80|376:88,1,120,4|8,0:0|0:0,0:0:0:0:
460,144,64148,2,0,L|452:224,1,60
376,324,64486,2,0,B|336:280|276:264|276:264|216:344|112:312,1,300,4|8,0:0|0:0,0:0:0:0:
80,292,65163,2,0,P|52:236|60:176,1,120,8|8,0:0|0:0,0:0:0:0:
84,152,65501,6,0,P|144:152|196:104,1,120,4|8,0:0|0:0,0:0:0:0:
212,76,65839,2,0,P|284:24|372:56,1,180,0|8,0:0|0:0,0:0:0:0:
448,176,66403,2,0,L|304:168,1,120,0|8,0:0|0:0,0:0:0:0:
288,168,66742,2,0,P|248:236|280:336,1,180,0|8,0:0|0:0,0:0:0:0:
460,296,67305,6,0,L|448:176,1,120,4|8,0:0|0:0,0:0:0:0:
440,136,67644,2,0,P|384:48|296:56,1,180,0|8,0:0|0:0,0:0:0:0:
232,92,68208,1,0,0:0:0:0:
288,168,68433,1,8,0:0:0:0:
288,168,68546,2,0,L|268:300,1,120
264,324,68884,2,0,L|200:336,1,60,8|8,0:0|0:0,0:0:0:0:
168,336,69110,6,0,P|120:300|52:296,1,120,4|8,0:0|0:0,0:0:0:0:
24,300,69448,2,0,P|24:228|116:196,1,180,0|8,0:0|0:0,0:0:0:0:
208,224,70012,2,0,P|332:224|376:176,2,180,0|0|8,0:0|0:0|0:0,0:0:0:0:
188,124,70914,5,4,0:0:0:0:
132,296,71140,1,8,0:0:0:0:
188,124,71366,1,0,0:0:0:0:
300,264,71591,1,8,0:0:0:0:
188,124,71817,2,0,P|236:88|312:88,1,120,0|8,0:0|0:0,0:0:0:0:
444,108,72268,2,0,L|436:172,1,60,8|8,0:0|0:0,0:0:0:0:
360,144,72493,2,0,L|352:208,1,60,8|8,0:0|0:0,0:0:0:0:
348,240,72719,5,6,0:0:0:0:
256,328,72945,1,2,0:0:0:0:
224,204,73170,1,10,0:0:0:0:
348,240,73396,2,0,L|360:308,1,60
440,320,73621,2,0,L|428:252,1,60,8|0,0:0|0:0,0:0:0:0:
404,132,73960,2,0,P|316:148|256:84,1,180,0|0,0:0|0:0,0:0:0:0:
344,60,74523,5,6,0:0:0:0:
184,100,74749,1,2,0:0:0:0:
300,220,74975,1,10,0:0:0:0:
344,60,75200,2,0,L|364:124,1,60
372,152,75426,2,0,P|444:160|468:276,1,180
468,288,75877,6,0,P|440:304|404:316,1,60,8|8,0:0|0:0,0:0:0:0:
340,332,76102,2,0,P|304:316|264:308,1,60,8|8,0:0|0:0,0:0:0:0:
208,308,76328,6,0,L|220:164,1,120,4|8,0:0|0:0,0:0:0:0:
120,348,76779,2,0,L|132:204,1,120,0|8,0:0|0:0,0:0:0:0:
140,132,77230,2,0,P|199:69|288:84,2,180,0|0|8,0:0|0:0|0:0,0:0:0:0:
231,157,78132,6,0,P|251:225|251:293,1,120,4|8,0:0|0:0,0:0:0:0:
156,355,78584,1,0,0:0:0:0:
156,355,78696,1,0,0:0:0:0:
156,355,78809,2,0,L|97:335,1,60,8|0,0:0|0:0,0:0:0:0:
64,320,79035,6,0,P|44:252|44:184,1,120,0|8,0:0|0:0,0:0:0:0:
48,164,79373,2,0,P|80:104|128:64,1,120
156,56,79711,1,8,0:0:0:0:
240,84,79937,6,0,P|320:104|368:20,2,180,4|8|8,0:0|0:0|0:0,0:0:0:0:
268,208,80839,2,0,P|188:188|140:272,2,180,4|8|8,0:0|0:0|0:0,0:0:0:0:
368,288,81742,6,0,L|388:168,1,120,4|0,0:0|0:0,0:0:0:0:
460,152,82080,2,0,L|440:272,1,120,8|0,0:0|0:0,0:0:0:0:
368,288,82418,2,0,P|304:280|252:320,1,120,8|4,0:0|0:0,0:0:0:0:
176,356,82869,1,0,0:0:0:0:
84,308,83095,2,0,B|104:248|77:191|77:191|52:132|72:68,1,240,4|4,0:0|0:0,0:0:0:0:
148,264,90764,5,4,0:0:0:0:
200,184,90990,2,0,P|236:236|232:308,1,120,8|0,0:0|0:0,0:0:0:0:
168,356,91441,1,8,0:0:0:0:
76,328,91666,2,0,P|56:268|72:204,1,120,0|8,0:0|0:0,0:0:0:0:
80,184,92005,2,0,P|124:128|96:20,1,180,0|8,0:0|0:0,0:0:0:0:
36,96,92569,5,0,0:0:0:0:
80,184,92794,1,8,0:0:0:0:
176,212,93020,2,0,P|232:176|296:168,1,120,0|8,0:0|0:0,0:0:0:0:
380,180,93471,2,0,P|384:288|400:364,2,180,0|0|8,0:0|0:0|0:0,0:0:0:0:
384,148,94260,1,0,0:0:0:0:
392,116,94373,6,0,P|340:80|280:68,1,120,4|8,0:0|0:0,0:0:0:0:
168,120,94824,2,0,P|220:156|280:168,1,120,0|8,0:0|0:0,0:0:0:0:
384,148,95275,1,0,0:0:0:0:
352,252,95501,1,8,0:0:0:0:
275,168,95726,1,0,0:0:0:0:
248,276,95952,1,8,0:0:0:0:
248,276,96065,1,0,0:0:0:0:
248,276,96178,6,0,P|184:260|128:252,1,120,4|8,0:0|0:0,0:0:0:0:
0,196,96629,2,0,P|64:180|120:172,1,120,4|8,0:0|0:0,0:0:0:0:
224,188,97080,1,8,0:0:0:0:
184,88,97305,1,8,0:0:0:0:
292,104,97531,2,0,L|360:108,1,60,8|8,0:0|0:0,0:0:0:0:
384,40,97757,2,0,L|456:96,1,60,8|8,0:0|0:0,0:0:0:0:
488,124,97982,6,0,P|448:180|440:296,1,180,4|0,0:0|0:0,0:0:0:0:
444,324,98433,2,0,P|364:344|272:296,1,180,8|8,0:0|0:0,0:0:0:0:
280,196,98997,1,8,0:0:0:0:
280,196,99110,2,0,P|292:140|288:68,1,120,8|8,0:0|0:0,0:0:0:0:
172,20,99561,1,0,0:0:0:0:
96,120,99787,6,0,P|112:168|208:128,1,180,8|0,0:0|0:0,0:0:0:0:
212,96,100238,2,0,P|248:64|316:76,1,120,8|0,0:0|0:0,0:0:0:0:
340,104,100576,2,0,P|372:160|380:216,1,120,8|8,0:0|0:0,0:0:0:0:
376,252,100914,1,8,0:0:0:0:
260,340,101140,1,8,0:0:0:0:
240,196,101366,1,8,0:0:0:0:
240,196,101478,1,8,0:0:0:0:
240,196,101591,6,0,L|32:232,1,180,4|0,0:0|0:0,0:0:0:0:
24,232,102042,2,0,P|36:168|40:96,1,120,8|0,0:0|0:0,0:0:0:0:
40,72,102381,1,8,0:0:0:0:
152,32,102606,2,0,P|228:24|288:104,1,180,8|8,0:0|0:0,0:0:0:0:
256,228,103170,1,0,0:0:0:0:
256,228,103283,1,0,0:0:0:0:
256,228,103396,6,0,L|384:224,1,120,8|0,0:0|0:0,0:0:0:0:
480,128,103847,2,0,L|352:132,1,120,8|0,0:0|0:0,0:0:0:0:
324,132,104185,2,0,B|250:134|250:134|208:88|148:96,1,180,8|8,0:0|0:0,0:0:0:0:
60,172,104749,2,0,L|84:228,1,60,8|8,0:0|0:0,0:0:0:0:
20,268,104975,2,0,L|76:312,1,60,8|8,0:0|0:0,0:0:0:0:
140,316,105200,6,0,P|192:280|268:288,1,120,4|8,0:0|0:0,0:0:0:0:
284,288,105538,2,0,P|344:324|456:304,1,180,0|8,0:0|0:0,0:0:0:0:
496,196,106102,1,0,0:0:0:0:
376,208,106328,1,8,0:0:0:0:
272,144,106554,2,0,L|144:168,1,120,0|8,0:0|0:0,0:0:0:0:
80,88,107005,6,0,P|52:144|56:208,1,120,4|8,0:0|0:0,0:0:0:0:
48,304,107456,2,0,L|172:328,1,120,0|8,0:0|0:0,0:0:0:0:
204,336,107794,2,0,P|284:284|364:312,1,180,0|8,0:0|0:0,0:0:0:0:
456,288,108358,1,0,0:0:0:0:
388,208,108584,1,8,0:0:0:0:
488,192,108809,6,0,L|472:56,1,120,4|8,0:0|0:0,0:0:0:0:
364,4,109260,2,0,L|380:140,1,120,0|8,0:0|0:0,0:0:0:0:
296,212,109711,1,0,0:0:0:0:
264,96,109937,1,8,0:0:0:0:
184,184,110163,1,8,0:0:0:0:
184,184,110275,1,8,0:0:0:0:
184,184,110388,1,8,0:0:0:0:
152,68,110614,6,0,P|84:76|12:72,1,120,4|8,0:0|0:0,0:0:0:0:
0,180,111065,2,0,L|4:244,1,60,0|8,0:0|0:0,0:0:0:0:
96,352,111403,2,0,B|132:308|132:308|180:320|180:320|264:248|364:288,1,300,4|8,0:0|0:0,0:0:0:0:
396,300,112080,2,0,P|408:248|412:180,1,120,8|8,0:0|0:0,0:0:0:0:
408,144,112418,6,0,P|356:100|292:112,1,120,4|8,0:0|0:0,0:0:0:0:
272,120,112757,2,0,P|184:124|128:56,1,180,0|8,0:0|0:0,0:0:0:0:
48,156,113320,1,0,0:0:0:0:
144,232,113546,1,8,0:0:0:0:
144,232,113659,2,0,P|248:224|304:296,1,180,0|8,0:0|0:0,0:0:0:0:
384,352,114223,6,0,L|396:204,1,120,4|8,0:0|0:0,0:0:0:0:
396,196,114561,2,0,P|368:124|368:16,1,180,0|8,0:0|0:0,0:0:0:0:
272,80,115125,2,0,P|184:88|132:20,2,180,0|0|8,0:0|0:0|0:0,0:0:0:0:
296,184,116027,6,0,L|280:316,1,120,4|8,0:0|0:0,0:0:0:0:
256,332,116366,2,0,P|168:332|76:352,1,180,0|8,0:0|0:0,0:0:0:0:
12,276,116929,1,0,0:0:0:0:
60,184,117155,1,8,0:0:0:0:
60,184,117268,2,0,P|156:180|244:156,1,180,0|8,0:0|0:0,0:0:0:0:
292,80,117832,5,4,0:0:0:0:
284,240,118057,1,8,0:0:0:0:
428,168,118283,1,0,0:0:0:0:
292,80,118508,1,8,0:0:0:0:
284,240,118734,2,0,P|316:288|336:348,1,120,0|8,0:0|0:0,0:0:0:0:
200,280,119185,2,0,L|200:216,1,60,8|8,0:0|0:0,0:0:0:0:
128,248,119411,2,0,L|128:184,1,60,8|8,0:0|0:0,0:0:0:0:
128,112,119636,6,0,P|96:72|12:72,2,120,6|2|10,0:0|0:0|0:0,0:0:0:0:
200,184,120313,2,0,L|280:168,1,60,0|0,0:0|0:0,0:0:0:0:
296,164,120538,2,0,P|368:132|448:200,1,180
436,264,120990,2,0,P|364:296|284:228,1,180,8|0,0:0|0:0,0:0:0:0:
296,164,121441,6,0,B|272:116|272:116|284:76|280:40,2,120,6|2|10,0:0|0:0|0:0,0:0:0:0:
212,256,122117,2,0,L|144:244,1,60
104,312,122343,2,0,L|172:324,1,60,0|8,0:0|0:0,0:0:0:0:
328,340,122681,1,0,0:0:0:0:
328,340,122794,2,0,L|324:272,1,60,8|8,0:0|0:0,0:0:0:0:
400,296,123020,2,0,L|396:228,1,60,8|8,0:0|0:0,0:0:0:0:
472,248,123245,6,0,L|464:116,1,120,4|8,0:0|0:0,0:0:0:0:
312,64,123696,2,0,L|320:196,1,120,0|8,0:0|0:0,0:0:0:0:
264,296,124148,2,0,P|216:300|144:264,1,120,0|8,0:0|0:0,0:0:0:0:
132,240,124486,2,0,P|108:160|8:160,1,180,0|8,0:0|0:0,0:0:0:0:
8,288,125050,5,0,0:0:0:0:
84,360,125275,2,0,L|168:348,1,60,8|0,0:0|0:0,0:0:0:0:
180,352,125501,2,0,P|240:360|324:360,1,120,0|8,0:0|0:0,0:0:0:0:
396,344,125952,2,0,P|392:228|340:196,2,180,0|0|8,0:0|0:0|0:0,0:0:0:0:
272,256,126854,6,0,L|84:240,2,180,4|8|8,0:0|0:0|0:0,0:0:0:0:
224,160,127757,2,0,L|36:144,2,180,4|8|8,0:0|0:0|0:0,0:0:0:0:
320,144,128659,6,0,P|384:112|436:128,1,120,4|0,0:0|0:0,0:0:0:0:
464,136,128997,2,0,B|484:168|484:168|484:212|484:212|504:248,1,120,8|0,0:0|0:0,0:0:0:0:
504,284,129335,2,0,B|480:308|480:308|464:352|412:360,1,120,8|4,0:0|0:0,0:0:0:0:
284,364,129787,1,8,0:0:0:0:
284,364,129899,1,8,0:0:0:0:
284,364,130012,2,0,L|292:244,1,120,4|0,0:0|0:0,0:0:0:0:
300,136,130463,1,4,0:0:0:0:
256,192,141290,12,4,143997,0:0:0:0:
176,280,144899,6,0,P|232:296|308:304,1,120,4|0,0:0|0:0,0:0:0:0:
400,288,145351,2,0,L|392:152,1,120,8|0,0:0|0:0,0:0:0:0:
304,88,145802,1,0,0:0:0:0:
304,88,145914,1,8,0:0:0:0:
304,88,146027,2,0,L|312:224,1,120,0|8,0:0|0:0,0:0:0:0:
204,264,146478,1,0,0:0:0:0:
96,212,146704,6,0,P|112:156|148:104,1,120,4|0,0:0|0:0,0:0:0:0:
232,44,147155,2,0,P|296:48|360:20,1,120,8|0,0:0|0:0,0:0:0:0:
380,8,147493,2,0,L|388:76,1,60,8|0,0:0|0:0,0:0:0:0:
392,108,147719,2,0,P|416:168|416:296,1,180,8|8,0:0|0:0,0:0:0:0:
320,352,148283,1,0,0:0:0:0:
248,256,148508,6,0,L|116:264,1,120,4|0,0:0|0:0,0:0:0:0:
48,172,148960,2,0,L|180:164,1,120,8|0,0:0|0:0,0:0:0:0:
204,160,149298,2,0,P|276:108|368:136,1,180,8|0,0:0|0:0,0:0:0:0:
294,200,149862,1,8,0:0:0:0:
260,40,150087,1,0,0:0:0:0:
104,68,150313,6,0,L|92:196,1,120,4|0,0:0|0:0,0:0:0:0:
84,308,150764,2,0,P|136:276|216:288,1,120,8|0,0:0|0:0,0:0:0:0:
228,292,151102,2,0,P|288:332|396:300,1,180,8|0,0:0|0:0,0:0:0:0:
436,160,151666,2,0,L|360:164,3,60,8|8|8|8,0:0|0:0|0:0|0:0,0:0:0:0:
336,164,152117,6,0,L|344:44,1,120,4|8,0:0|0:0,0:0:0:0:
244,0,152569,2,0,L|236:120,1,120,0|8,0:0|0:0,0:0:0:0:
232,152,152907,2,0,P|164:96|72:116,1,180,0|8,0:0|0:0,0:0:0:0:
36,212,153471,1,0,0:0:0:0:
140,196,153696,1,8,0:0:0:0:
100,296,153922,6,0,P|160:300|216:344,1,120,4|8,0:0|0:0,0:0:0:0:
300,364,154373,2,0,P|368:364|428:328,1,120,0|8,0:0|0:0,0:0:0:0:
440,312,154711,2,0,L|420:132,1,180,0|8,0:0|0:0,0:0:0:0:
324,56,155275,1,0,0:0:0:0:
228,132,155501,1,8,0:0:0:0:
228,132,155614,1,8,0:0:0:0:
228,132,155726,6,0,P|156:120|96:104,1,120,4|0,0:0|0:0,0:0:0:0:
28,196,156178,2,0,P|100:208|160:224,1,120,0|8,0:0|0:0,0:0:0:0:
168,252,156516,2,0,P|256:212|360:244,1,180,0|8,0:0|0:0,0:0:0:0:
428,304,157080,1,0,0:0:0:0:
448,184,157305,1,8,0:0:0:0:
352,108,157531,6,0,P|280:104|248:68,1,120,4|8,0:0|0:0,0:0:0:0:
136,40,157982,2,0,L|124:108,1,60,8|8,0:0|0:0,0:0:0:0:
52,116,158208,2,0,L|64:48,1,60,8|8,0:0|0:0,0:0:0:0:
92,84,162493,6,0,L|164:88,1,60,8|8,0:0|0:0,0:0:0:0:
180,160,162719,2,0,L|108:156,1,60,8|8,0:0|0:0,0:0:0:0:
44,152,162945,6,0,P|52:212|64:280,1,120,4|8,0:0|0:0,0:0:0:0:
76,304,163283,2,0,P|160:272|260:284,1,180,0|8,0:0|0:0,0:0:0:0:
344,316,163847,1,0,0:0:0:0:
328,216,164072,1,8,0:0:0:0:
328,216,164185,2,0,P|304:124|308:32,1,180,0|8,0:0|0:0,0:0:0:0:
412,28,164749,6,0,P|432:88|432:152,1,120,4|8,0:0|0:0,0:0:0:0:
328,216,165200,2,0,L|184:208,1,120,0|8,0:0|0:0,0:0:0:0:
124,136,165651,1,0,0:0:0:0:
200,56,165877,1,8,0:0:0:0:
292,120,166102,2,0,P|324:124|368:136,1,60,8|8,0:0|0:0,0:0:0:0:
424,112,166328,2,0,P|432:144|436:176,1,60,8|8,0:0|0:0,0:0:0:0:
484,228,166554,6,0,P|432:260|360:264,1,120,6|2,0:0|0:0,0:0:0:0:
256,232,167005,1,10,0:0:0:0:
176,148,167230,2,0,P|152:184|144:212,1,60,0|8,0:0|0:0,0:0:0:0:
144,240,167456,2,0,P|100:304|0:280,2,180
256,148,168358,5,6,0:0:0:0:
300,284,168584,1,2,0:0:0:0:
408,192,168809,1,10,0:0:0:0:
256,148,169035,2,0,L|176:152,1,60,0|8,0:0|0:0,0:0:0:0:
160,152,169260,2,0,P|180:56|200:32,1,120
224,24,169599,2,0,P|288:40|368:120,1,180,0|8,0:0|0:0,0:0:0:0:
400,232,170163,6,0,P|408:296|408:360,1,120,4|8,0:0|0:0,0:0:0:0:
300,360,170614,2,0,P|292:296|292:232,1,120,0|8,0:0|0:0,0:0:0:0:
276,144,171065,2,0,P|208:144|152:176,1,120,0|8,0:0|0:0,0:0:0:0:
132,188,171403,2,0,P|76:188|8:88,1,180,0|8,0:0|0:0,0:0:0:0:
104,96,171967,5,4,0:0:0:0:
152,264,172193,1,8,0:0:0:0:
276,144,172418,2,0,L|288:216,1,60
292,240,172644,1,8,0:0:0:0:
424,296,172869,2,0,P|448:160|428:116,2,180,0|0|8,0:0|0:0|0:0,0:0:0:0:
400,316,173659,1,8,0:0:0:0:
368,320,173772,6,0,P|300:312|236:340,1,120,4|8,0:0|0:0,0:0:0:0:
220,344,174110,2,0,P|136:352|68:292,1,180,0|8,0:0|0:0,0:0:0:0:
152,128,174674,2,0,L|160:272,1,120,0|8,0:0|0:0,0:0:0:0:
160,272,175012,1,0,0:0:0:0:
288,220,175238,1,0,0:0:0:0:
288,220,175351,1,8,0:0:0:0:
392,312,175576,6,0,P|412:248|416:196,1,120,4|8,0:0|0:0,0:0:0:0:
416,156,175914,2,0,P|316:140|256:76,1,180,0|8,0:0|0:0,0:0:0:0:
148,48,176478,1,0,0:0:0:0:
100,156,176704,1,8,0:0:0:0:
100,156,176817,1,0,0:0:0:0:
212,200,177042,1,0,0:0:0:0:
212,200,177155,1,8,0:0:0:0:
120,280,177381,6,0,P|180:288|236:308,1,120,4|8,0:0|0:0,0:0:0:0:
272,312,177719,2,0,P|348:284|452:276,1,180,0|8,0:0|0:0,0:0:0:0:
460,152,178283,2,0,B|432:144|400:140|400:140|388:68|344:16,2,180,0|0|8,0:0|0:0|0:0,0:0:0:0:
344,204,179185,6,0,P|290:191|216:188,1,120,4|8,0:0|0:0,0:0:0:0:
88,284,179636,2,0,P|141:296|216:300,1,120,0|8,0:0|0:0,0:0:0:0:
312,292,180087,1,0,0:0:0:0:
120,204,180313,1,8,0:0:0:0:
280,80,180538,2,0,L|344:84,1,60,8|8,0:0|0:0,0:0:0:0:
376,160,180764,2,0,L|312:156,1,60,8|8,0:0|0:0,0:0:0:0:
240,152,180990,6,0,L|232:280,2,120,6|2|10,0:0|0:0|0:0,0:0:0:0:
192,52,181666,2,0,L|132:64,1,60,0|8,0:0|0:0,0:0:0:0:
96,72,181892,2,0,P|56:148|64:248,1,180
80,272,182343,2,0,P|132:308|208:312,1,120,8|0,0:0|0:0,0:0:0:0:
324,256,182794,5,6,0:0:0:0:
204,168,183020,1,2,0:0:0:0:
188,316,183245,1,10,0:0:0:0:
324,256,183471,2,0,L|336:184,1,60,0|8,0:0|0:0,0:0:0:0:
336,160,183696,2,0,P|312:88|224:32,1,180
192,28,184148,2,0,P|156:32|120:48,1,60,8|8,0:0|0:0,0:0:0:0:
168,108,184373,2,0,P|140:132|120:168,1,60,8|8,0:0|0:0,0:0:0:0:
196,184,184599,6,0,P|168:244|172:312,1,120,4|8,0:0|0:0,0:0:0:0:
256,360,185050,2,0,P|284:300|280:232,1,120,0|8,0:0|0:0,0:0:0:0:
196,184,185501,2,0,P|240:148|304:140,1,120,0|8,0:0|0:0,0:0:0:0:
340,144,185839,2,0,P|428:160|476:84,1,180,0|8,0:0|0:0,0:0:0:0:
444,0,186403,5,4,0:0:0:0:
396,88,186629,1,8,0:0:0:0:
304,48,186854,2,0,P|252:64|172:68,1,120,0|8,0:0|0:0,0:0:0:0:
64,100,187305,2,0,L|60:224,1,120,0|8,0:0|0:0,0:0:0:0:
100,192,187644,2,0,L|96:316,1,120,0|0,0:0|0:0,0:0:0:0:
96,348,187982,2,0,L|184:328,1,60,8|0,0:0|0:0,0:0:0:0:
192,328,188208,6,0,P|272:304|344:360,2,180,4|8|8,0:0|0:0|0:0,0:0:0:0:
212,216,189110,2,0,P|132:240|60:184,2,180,4|8|8,0:0|0:0|0:0,0:0:0:0:
272,120,190012,6,0,P|308:168|316:252,1,120,4|0,0:0|0:0,0:0:0:0:
308,264,190351,2,0,P|264:308|208:324,1,120,8|0,0:0|0:0,0:0:0:0:
172,320,190689,2,0,P|120:276|104:204,1,120,8|4,0:0|0:0,0:0:0:0:
152,116,191140,1,8,0:0:0:0:
272,120,191366,2,0,P|304:124|336:136,1,60,8|8,0:0|0:0,0:0:0:0:
392,92,191591,2,0,P|404:132|400:172,1,60,8|8,0:0|0:0,0:0:0:0:
356,208,191817,6,0,P|336:260|352:328,1,120,4|8,0:0|0:0,0:0:0:0:
472,332,192268,2,0,P|492:280|476:212,1,120,0|8,0:0|0:0,0:0:0:0:
464,184,192606,2,0,P|428:136|464:24,1,180,0|8,0:0|0:0,0:0:0:0:
352,56,193170,1,0,0:0:0:0:
260,8,193396,1,8,0:0:0:0:
160,44,193621,6,0,L|24:52,1,120,4|8,0:0|0:0,0:0:0:0:
0,152,194072,2,0,L|136:144,1,120,0|8,0:0|0:0,0:0:0:0:
156,144,194411,2,0,P|196:188|184:308,1,180,0|8,0:0|0:0,0:0:0:0:
100,238,194975,1,0,0:0:0:0:
88,348,195200,1,8,0:0:0:0:
88,348,195313,1,8,0:0:0:0:
88,348,195426,6,0,P|144:372|220:372,1,120,4|8,0:0|0:0,0:0:0:0:
300,332,195877,2,0,P|276:256|280:208,1,120,0|8,0:0|0:0,0:0:0:0:
288,180,196215,2,0,P|352:132|452:184,1,180,0|8,0:0|0:0,0:0:0:0:
468,280,196779,1,0,0:0:0:0:
369,215,197005,1,8,0:0:0:0:
256,192,197230,12,4,198584,0:0:0:0:
120,64,199035,6,0,P|144:116|136:188,1,120,4|8,0:0|0:0,0:0:0:0:
56,240,199486,2,0,P|104:272|176:276,1,120,0|8,0:0|0:0,0:0:0:0:
204,272,199824,2,0,P|272:224|372:248,1,180,0|8,0:0|0:0,0:0:0:0:
388,336,200388,1,0,0:0:0:0:
296,308,200614,1,8,0:0:0:0:
363,241,200839,6,0,L|379:117,1,120,4|8,0:0|0:0,0:0:0:0:
300,32,201290,2,0,L|284:156,1,120,0|8,0:0|0:0,0:0:0:0:
276,188,201629,2,0,P|192:148|92:156,1,180,0|8,0:0|0:0,0:0:0:0:
36,228,202193,1,0,0:0:0:0:
128,316,202418,1,8,0:0:0:0:
128,316,202531,1,8,0:0:0:0:
128,316,202644,6,0,P|192:304|248:272,1,120,4|8,0:0|0:0,0:0:0:0:
276,188,203095,2,0,L|264:68,1,120,0|8,0:0|0:0,0:0:0:0:
264,32,203433,2,0,P|336:36|388:148,1,180,0|8,0:0|0:0,0:0:0:0:
376,232,203997,1,0,0:0:0:0:
284,292,204223,1,8,0:0:0:0:
188,244,204448,6,0,L|128:228,3,60,4|0|8|0,0:0|0:0|0:0|0:0,0:0:0:0:
124,152,204899,2,0,L|184:168,3,60,0|0|8|0,0:0|0:0|0:0|0:0,0:0:0:0:
224,180,205351,1,8,0:0:0:0:
340,104,205576,1,8,0:0:0:0:
352,244,205802,1,8,0:0:0:0:
224,180,206027,2,0,L|216:108,1,60,8|8,0:0|0:0,0:0:0:0:
212,80,206253,6,0,P|128:88|24:32,2,180,4|8|8,0:0|0:0|0:0,0:0:0:0:
300,164,207155,2,0,P|384:156|488:212,2,180,4|8|8,0:0|0:0|0:0,0:0:0:0:
212,248,208057,6,0,P|152:276|96:280,1,120,4|0,0:0|0:0,0:0:0:0:
64,248,208396,2,0,P|69:182|94:131,1,120,8|0,0:0|0:0,0:0:0:0:
136,120,208734,2,0,P|190:157|221:204,1,120,8|4,0:0|0:0,0:0:0:0:
