osu file format v14

[General]
AudioFilename: Uchouten Vivace.mp3
AudioLeadIn: 0
PreviewTime: 111742
Countdown: 0
SampleSet: Soft
StackLeniency: 0.7
Mode: 0
LetterboxInBreaks: 0
WidescreenStoryboard: 0

[Editor]
Bookmarks: 143320,190914
DistanceSpacing: 1
BeatDivisor: 2
GridSize: 4
TimelineZoom: 1

[Metadata]
Title:Uchouten Vivace
TitleUnicode:有頂天ビバーチェ
Artist:yuikonnu
ArtistUnicode:ゆいこんぬ
Creator:Guy
Version:Easy
Source:
Tags:Last Note. vocaloid gumi helloscv h-728 Nijiiro chocolatier nico douga
BeatmapID:282140
BeatmapSetID:107232

[Difficulty]
HPDrainRate:2
CircleSize:3
OverallDifficulty:2
ApproachRate:3
SliderMultiplier:0.600000005960464
SliderTickRate:1

[Events]
//Background and Video events
0,0,"bg.jpg",0,0
Video,-1100,"video_.avi"
//Break Periods
2,83746,89324
2,130663,143459
2,159335,161505
//Storyboard Layer 0 (Background)
//Storyboard Layer 1 (Fail)
//Storyboard Layer 2 (Pass)
//Storyboard Layer 3 (Foreground)
//Storyboard Sound Samples

[TimingPoints]
539,225.563909774436,4,2,1,80,1,0
23320,-100,4,2,2,70,0,0
23546,-100,4,2,1,80,0,0
25125,-100,4,2,2,70,0,0
25351,-100,4,2,1,80,0,0
27832,-100,4,2,2,70,0,0
28057,-100,4,2,1,80,0,0
28283,-100,4,2,2,70,0,0
28508,-100,4,2,1,80,0,0
29185,-100,4,2,2,70,0,0
29411,-100,4,2,1,80,0,0
33245,-100,4,2,2,70,0,0
33922,-100,4,2,1,80,0,0
34148,-100,4,2,2,70,0,0
34824,-100,4,2,1,80,0,0
35050,-100,4,2,2,70,0,0
35275,-100,4,2,1,80,0,0
35501,-100,4,2,2,70,0,0
35726,-100,4,2,1,80,0,0
35952,-100,4,2,2,70,0,0
36347,-100,4,2,1,80,0,0
36403,-100,4,2,2,70,0,0
36629,-100,4,2,1,80,0,0
37305,-100,4,2,2,70,0,0
37700,-100,4,2,1,80,0,0
37757,-100,4,2,2,70,0,0
37982,-100,4,2,1,80,0,0
38659,-100,4,2,2,70,0,0
38884,-100,4,2,1,80,0,0
39561,-100,4,2,2,70,0,0
40012,-100,4,2,1,80,0,0
40463,-100,4,2,2,70,0,0
40689,-100,4,2,1,80,0,0
40914,-100,4,2,2,70,0,0
41309,-100,4,2,1,80,0,0
41366,-100,4,2,2,70,0,0
41591,-100,4,2,1,80,0,0
41817,-100,4,2,2,70,0,0
42268,-100,4,2,1,80,0,0
44523,-100,4,2,2,70,0,0
44749,-100,4,2,1,80,0,0
46328,-100,4,2,2,70,0,0
46554,-100,4,2,1,80,0,0
47569,-100,4,2,2,70,0,0
47794,-100,4,2,1,80,0,0
48020,-100,4,2,2,70,0,0
48245,-100,4,2,1,80,0,0
49035,-100,4,2,2,70,0,0
49260,-100,4,2,1,80,0,0
51065,-100,4,2,1,70,0,0
51516,-100,4,2,2,60,0,0
51742,-100,4,2,1,70,0,0
52418,-100,4,2,2,60,0,0
52644,-100,4,2,1,70,0,0
55125,-100,4,2,2,60,0,0
55351,-100,4,2,1,70,0,0
56027,-100,4,2,2,60,0,0
56253,-100,4,2,1,70,0,0
58283,-100,4,2,1,80,0,0
58960,-100,4,2,2,70,0,0
59354,-100,4,2,1,80,0,0
59411,-100,4,2,2,70,0,0
59636,-100,4,2,1,80,0,0
60313,-100,4,2,2,70,0,0
60538,-100,4,2,1,80,0,0
60764,-100,4,2,2,70,0,0
60990,-100,4,2,1,80,0,0
61666,-100,4,2,2,70,0,0
61892,-100,4,2,1,80,0,0
63020,-100,4,2,2,70,0,0
63245,-100,4,2,1,80,0,0
63922,-100,4,2,2,70,0,0
64148,-100,4,2,1,80,0,0
64373,-100,4,2,2,70,0,0
64486,-100,4,2,1,80,0,0
65501,-100,4,2,1,100,0,1
65726,-100,4,2,2,90,0,1
65952,-100,4,2,1,100,0,1
66178,-100,4,2,2,90,0,1
66572,-100,4,2,1,100,0,1
66629,-100,4,2,2,90,0,1
66854,-100,4,2,1,100,0,1
67080,-100,4,2,2,90,0,1
67305,-100,4,2,1,100,0,1
69787,-100,4,2,2,90,0,1
70012,-100,4,2,1,100,0,1
70238,-100,4,2,2,90,0,1
70463,-100,4,2,1,100,0,1
71140,-100,4,2,2,90,0,1
71366,-100,4,2,1,100,0,1
72042,-100,4,2,2,90,0,1
72268,-100,4,2,1,100,0,1
72493,-100,4,2,2,90,0,1
72719,-100,4,2,1,100,0,1
74072,-100,4,2,2,90,0,1
74298,-100,4,2,1,100,0,1
75877,-100,4,2,2,90,0,1
76328,-100,4,2,1,100,0,1
77456,-100,4,2,2,90,0,1
77681,-100,4,2,1,100,0,1
77907,-100,4,2,2,90,0,1
78302,-100,4,2,1,100,0,1
78358,-100,4,2,2,90,0,1
78584,-100,4,2,1,100,0,1
78809,-100,4,2,2,90,0,1
79035,-100,4,2,1,100,0,1
79711,-100,4,2,2,90,0,1
79937,-100,4,2,1,100,0,1
83546,-100,4,2,1,80,0,0
90990,-100,4,2,2,70,0,0
91215,-100,4,2,1,80,0,0
91892,-100,4,2,2,70,0,0
92117,-100,4,2,1,80,0,0
93696,-100,4,2,2,70,0,0
93922,-100,4,2,1,80,0,0
94148,-100,4,2,2,70,0,0
94373,-100,4,2,1,80,0,0
96403,-100,4,2,2,70,0,0
96629,-100,4,2,1,80,0,0
97305,-100,4,2,2,70,0,0
97700,-100,4,2,1,80,0,0
97757,-100,4,2,2,70,0,0
97982,-100,4,2,1,70,0,0
102042,-100,4,2,2,60,0,0
102268,-100,4,2,1,70,0,0
105200,-100,4,2,1,80,0,0
105426,-100,4,2,2,70,0,0
105651,-100,4,2,1,80,0,0
106328,-100,4,2,2,70,0,0
106554,-100,4,2,1,80,0,0
107230,-100,4,2,2,70,0,0
107625,-100,4,2,1,80,0,0
107681,-100,4,2,2,70,0,0
107907,-100,4,2,1,80,0,0
109035,-100,4,2,2,70,0,0
109260,-100,4,2,1,80,0,0
109486,-100,4,2,2,70,0,0
109711,-100,4,2,1,80,0,0
110839,-100,4,2,2,70,0,0
111065,-100,4,2,1,80,0,0
111290,-100,4,2,2,70,0,0
111403,-100,4,2,1,80,0,0
112418,-100,4,2,1,100,0,1
112644,-100,4,2,2,90,0,1
112869,-100,4,2,1,100,0,1
113095,-100,4,2,2,90,0,1
113320,-100,4,2,1,100,0,1
114448,-100,4,2,2,90,0,1
114674,-100,4,2,1,100,0,1
115351,-100,4,2,2,90,0,1
115576,-100,4,2,1,100,0,1
116253,-100,4,2,2,90,0,1
116478,-100,4,2,1,100,0,1
117155,-100,4,2,2,90,0,1
117381,-100,4,2,1,100,0,1
118057,-100,4,2,2,90,0,1
118283,-100,4,2,1,100,0,1
118960,-100,4,2,2,90,0,1
119185,-100,4,2,1,100,0,1
119411,-100,4,2,2,90,0,1
119636,-100,4,2,1,100,0,1
120990,-100,4,2,2,90,0,1
121215,-100,4,2,1,100,0,1
122794,-100,4,2,2,90,0,1
123245,-100,4,2,1,100,0,1
124373,-100,4,2,2,90,0,1
124599,-100,4,2,1,100,0,1
124824,-100,4,2,2,90,0,1
125050,-100,4,2,1,100,0,1
126178,-100,4,2,2,90,0,1
126629,-100,4,2,1,100,0,1
130238,-100,4,2,2,90,0,1
130463,-100,4,2,1,80,0,0
145351,-100,4,2,2,70,0,0
145576,-100,4,2,1,80,0,0
147155,-100,4,2,2,70,0,0
147381,-100,4,2,1,80,0,0
148960,-100,4,2,2,70,0,0
149185,-100,4,2,1,80,0,0
150764,-100,4,2,2,70,0,0
150990,-100,4,2,1,80,0,0
151666,-100,4,2,2,70,0,0
152117,-100,4,2,1,80,0,0
152794,-100,4,2,2,70,0,0
153020,-100,4,2,1,80,0,0
154148,-100,4,2,2,70,0,0
154373,-100,4,2,1,80,0,0
154599,-100,4,2,2,70,0,0
154824,-100,4,2,1,80,0,0
155952,-100,4,2,2,70,0,0
156178,-100,4,2,1,80,0,0
156403,-100,4,2,2,70,0,0
156629,-100,4,2,1,80,0,0
157757,-100,4,2,2,70,0,0
158151,-100,4,2,1,80,0,0
158208,-100,4,2,2,70,0,0
158320,-100,4,2,1,80,0,0
162945,-100,4,2,1,100,0,1
163170,-100,4,2,2,90,0,1
163396,-100,4,2,1,100,0,1
164072,-100,4,2,2,90,0,1
164298,-100,4,2,1,100,0,1
164975,-100,4,2,2,90,0,1
165200,-100,4,2,1,100,0,1
165877,-100,4,2,2,90,0,1
166102,-100,4,2,1,100,0,1
166328,-100,4,2,2,90,0,1
166554,-100,4,2,1,100,0,1
167907,-100,4,2,2,90,0,1
168132,-100,4,2,1,100,0,1
169711,-100,4,2,2,90,0,1
170163,-100,4,2,1,100,0,1
171290,-100,4,2,2,90,0,1
171516,-100,4,2,1,100,0,1
172193,-100,4,2,2,90,0,1
172418,-100,4,2,1,100,0,1
173095,-100,4,2,2,90,0,1
173320,-100,4,2,1,80,0,1
173772,-100,4,2,1,100,0,1
173997,-100,4,2,2,90,0,1
174223,-100,4,2,1,100,0,1
174899,-100,4,2,2,90,0,1
175125,-100,4,2,1,100,0,1
175802,-100,4,2,2,90,0,1
176027,-100,4,2,1,100,0,1
176704,-100,4,2,2,90,0,1
176929,-100,4,2,1,100,0,1
177606,-100,4,2,2,90,0,1
177832,-100,4,2,1,100,0,1
178508,-100,4,2,2,90,0,1
178734,-100,4,2,1,100,0,1
180313,-100,4,2,2,90,0,1
180538,-100,4,2,1,100,0,1
180764,-100,4,2,2,90,0,1
180990,-100,4,2,1,100,0,1
182343,-100,4,2,2,90,0,1
182569,-100,4,2,1,100,0,1
184148,-100,4,2,2,90,0,1
184599,-100,4,2,1,100,0,1
185726,-100,4,2,2,90,0,1
185952,-100,4,2,1,100,0,1
186629,-100,4,2,2,90,0,1
186854,-100,4,2,1,100,0,1
187080,-100,4,2,2,90,0,1
187475,-100,4,2,1,100,0,1
187531,-100,4,2,2,90,0,1
187757,-100,4,2,1,100,0,1
187982,-100,4,2,2,90,0,1
188208,-100,4,2,1,100,0,1
189110,-100,4,2,1,100,0,1
190012,-100,4,2,1,100,0,1
190689,-100,4,2,1,100,0,1
191817,-100,4,2,1,80,0,0
204674,-100,4,2,2,70,0,0
204899,-100,4,2,1,80,0,0
205125,-100,4,2,2,70,0,0
205520,-100,4,2,1,80,0,0
205576,-100,4,2,2,70,0,0
205802,-100,4,2,1,80,0,0

[Colours]
Combo1 : 255,0,204
Combo2 : 39,231,124
Combo3 : 232,139,0
Combo4 : 1,197,254
Combo5 : 170,201,48

[HitObjects]
96,276,7757,5,4,0:0:0:0:
148,308,7982,2,0,P|212:336|268:340,1,120.000001192093,8|8,0:0|0:0,0:0:0:0:
344,252,8884,2,0,P|280:224|224:220,1,120.000001192093,8|8,0:0|0:0,0:0:0:0:
172,220,9561,5,4,0:0:0:0:
152,164,9787,2,0,B|160:120|160:120|188:96|200:44,1,120.000001192093,8|8,0:0|0:0,0:0:0:0:
316,56,10689,2,0,B|325:96|353:120|353:120|361:164,1,120.000001192093,8|8,0:0|0:0,0:0:0:0:
340,220,11366,5,4,0:0:0:0:
280,232,11591,2,0,L|152:256,2,120.000001192093,8|8|8,0:0|0:0|0:0,0:0:0:0:
400,208,12945,1,8,0:0:0:0:
256,192,13170,12,4,14975,0:0:0:0:
197,14,16102,6,0,P|190:92|180:138,1,120.000001192093,8|8,0:0|0:0,0:0:0:0:
128,236,17005,2,0,B|88:240|88:240|44:224|4:224,2,120.000001192093,8|8|8,0:0|0:0|0:0,0:0:0:0:
248,220,18358,2,0,L|308:208,1,60.0000005960464,8|4,0:0|0:0,0:0:0:0:
364,196,18809,6,0,P|348:136|356:80,2,120.000001192093,8|8|8,0:0|0:0|0:0,0:0:0:0:
428,300,20163,1,8,0:0:0:0:
256,192,20388,12,4,21742,0:0:0:0:
340,264,23095,2,0,P|328:172|304:80,1,180.000001788139,0|8,0:0|0:0,0:0:0:0:
192,56,24223,2,0,B|136:68|136:68|112:104|96:120,1,120.000001192093,8|8,0:0|0:0,0:0:0:0:
88,176,24899,2,0,P|120:256|172:340,1,180.000001788139,0|8,0:0|0:0,0:0:0:0:
292,336,26027,6,0,L|420:300,2,120.000001192093,8|8|8,0:0|0:0|0:0,0:0:0:0:
176,328,27381,1,8,0:0:0:0:
160,272,27606,2,0,P|152:180|280:120,1,240.000002384186,4|0,0:0|0:0,0:0:0:0:
356,200,28960,2,0,P|312:220|236:208,1,120.000001192093,0|4,0:0|0:0,0:0:0:0:
192,180,29636,6,0,P|144:140|84:136,2,120.000001192093,8|8|8,0:0|0:0|0:0,0:0:0:0:
256,280,30990,1,8,0:0:0:0:
320,180,31441,2,0,P|368:140|428:136,2,120.000001192093,8|8|8,0:0|0:0|0:0,0:0:0:0:
256,280,32794,1,8,0:0:0:0:
196,280,33020,6,0,P|136:224|112:184,1,120.000001192093,4|0,0:0|0:0,0:0:0:0:
152,76,33922,2,0,P|212:132|236:172,1,120.000001192093
260,280,34824,6,0,P|344:228|480:240,2,240.000002384186,4|4|4,0:0|0:0|0:0,0:0:0:0:
228,328,36854,6,0,P|180:316|92:224,2,180.000001788139,0|0|8,0:0|0:0|0:0,0:0:0:0:
284,328,38433,2,0,P|332:316|420:224,2,180.000001788139,0|8|0,0:0|0:0|0:0,0:0:0:0:
256,276,40012,1,8,0:0:0:0:
236,220,40238,6,0,P|168:136|48:160,2,240.000002384186,4|0|0,0:0|0:0|0:0,0:0:0:0:
256,276,42268,1,8,0:0:0:0:
356,344,42719,1,8,0:0:0:0:
404,236,43170,1,8,0:0:0:0:
396,176,43396,2,0,P|384:100|368:40,1,120.000001192093,4|4,0:0|0:0,0:0:0:0:
316,48,44072,6,0,P|200:92|80:68,1,240.000002384186,8|8,0:0|0:0,0:0:0:0:
16,168,45426,1,8,0:0:0:0:
28,288,45877,2,0,B|64:284|100:256|100:256|180:276|276:260,1,240.000002384186,8|8,0:0|0:0,0:0:0:0:
328,164,47230,1,8,0:0:0:0:
344,104,47456,6,0,P|308:56|252:8,2,120.000001192093,4|0|0,0:0|0:0|0:0,0:0:0:0:
464,104,48809,2,0,P|488:160|484:236,1,120.000001192093,0|4,0:0|0:0,0:0:0:0:
400,296,49711,2,0,P|344:328|280:340,1,120.000001192093,4|4,0:0|0:0,0:0:0:0:
176,308,50614,1,8,0:0:0:0:
260,220,51065,6,0,P|148:192|56:284,2,240.000002384186,4|2|2,0:0|0:0|0:0,0:0:0:0:
344,308,53320,1,8,0:0:0:0:
452,256,53772,1,2,0:0:0:0:
436,136,54223,1,8,0:0:0:0:
320,112,54674,6,0,P|208:128|120:36,2,240.000002384186,4|2|2,0:0|0:0|0:0,0:0:0:0:
416,184,56929,2,0,P|428:252|428:320,1,120.000001192093,8|2,0:0|0:0,0:0:0:0:
328,368,57832,2,0,P|316:300|316:232,1,120.000001192093,8|4,0:0|0:0,0:0:0:0:
308,128,58734,6,0,P|244:144|180:144,2,120.000001192093,0|0|0,0:0|0:0|0:0,0:0:0:0:
424,100,60087,2,0,B|432:220|452:260|452:260|416:280|384:304,1,240.000002384186,4|0,0:0|0:0,0:0:0:0:
268,316,61441,2,0,P|216:312|144:296,1,120.000001192093,0|4,0:0|0:0,0:0:0:0:
244,68,62794,6,0,P|296:72|368:88,1,120.000001192093,0|8,0:0|0:0,0:0:0:0:
424,192,63696,2,0,B|368:216|368:216|392:260|384:340|328:352,1,210.000002086162,4|4,0:0|0:0,0:0:0:0:
76,284,65501,6,0,P|68:228|208:100,2,240.000002384186,4|0|4,0:0|0:0|0:0,0:0:0:0:
112,332,67531,2,0,P|172:356|224:380,2,120.000001192093,8|8|8,0:0|0:0|0:0,0:0:0:0:
168,228,68884,2,0,P|212:196|224:180,1,60.0000005960464,8|4,0:0|0:0,0:0:0:0:
256,148,69335,6,0,P|380:96|468:268,1,360.000003576278,8|8,0:0|0:0,0:0:0:0:
424,300,70914,2,0,B|368:340|333:318|300:296|240:332,1,180.000001788139,4|8,0:0|0:0,0:0:0:0:
192,344,71817,2,0,P|144:332|128:152,1,240.000002384186,0|4,0:0|0:0,0:0:0:0:
200,92,73170,5,2,0:0:0:0:
220,212,73621,2,0,B|276:196|328:172|328:172|396:184|452:184,1,240.000002384186,0|4,0:0|0:0,0:0:0:0:
488,300,74975,1,2,0:0:0:0:
372,336,75426,2,0,B|304:384|220:356|220:356|192:324|152:312,1,240.000002384186,0|4,0:0|0:0,0:0:0:0:
84,216,76779,5,0,0:0:0:0:
128,104,77230,2,0,P|216:28|336:40,2,240.000002384186,0|4|0,0:0|0:0|0:0,0:0:0:0:
196,204,79486,2,0,L|268:328,1,120.000001192093,0|4,0:0|0:0,0:0:0:0:
468,192,80839,5,4,0:0:0:0:
256,76,81742,1,4,0:0:0:0:
44,192,82644,2,0,P|144:256|232:192,1,240.000002384186,4|4,0:0|0:0,0:0:0:0:
412,304,90764,6,0,L|376:108,1,180.000001788139,4|8,0:0|0:0,0:0:0:0:
328,96,91666,2,0,P|260:96|152:56,1,180.000001788139,0|8,0:0|0:0,0:0:0:0:
68,144,92794,2,0,B|48:188|48:188|72:224|84:268,1,120.000001192093,8|8,0:0|0:0,0:0:0:0:
116,300,93471,2,0,B|188:304|232:240|232:240|272:276|324:288,1,240.000002384186,0|4,0:0|0:0,0:0:0:0:
440,316,94824,5,0,0:0:0:0:
404,200,95275,1,0,0:0:0:0:
288,168,95726,1,0,0:0:0:0:
200,248,96178,2,0,P|140:228|96:192,1,120.000001192093,4|0,0:0|0:0,0:0:0:0:
108,72,97080,2,0,P|200:36|340:108,1,240.000002384186,4|4,0:0|0:0,0:0:0:0:
380,192,98433,6,0,P|368:264|388:336,2,120.000001192093,8|2|8,0:0|0:0|0:0,0:0:0:0:
260,200,99787,1,2,0:0:0:0:
236,316,100238,1,8,0:0:0:0:
148,236,100689,2,0,P|160:164|140:92,1,120.000001192093,2|8,0:0|0:0,0:0:0:0:
236,32,101591,6,0,P|312:128|444:132,1,240.000002384186,4|0,0:0|0:0,0:0:0:0:
484,244,102945,2,0,P|452:296|404:344,1,120.000001192093,8|2,0:0|0:0,0:0:0:0:
292,340,103847,2,0,P|228:324|152:324,2,120.000001192093,8|2|8,0:0|0:0|0:0,0:0:0:0:
308,220,105200,6,0,B|288:160|288:160|336:104|308:32,1,180.000001788139,4|8,0:0|0:0,0:0:0:0:
256,60,106102,2,0,P|184:76|124:60,1,120.000001192093,0|0,0:0|0:0,0:0:0:0:
60,152,107005,2,0,L|44:284,2,120.000001192093,4|0|0,0:0|0:0|0:0,0:0:0:0:
180,168,108358,1,8,0:0:0:0:
300,184,108809,6,0,P|396:168|488:268,1,240.000002384186,4|0,0:0|0:0,0:0:0:0:
368,284,110163,1,8,0:0:0:0:
248,288,110614,2,0,P|200:244|236:92,1,210.000002086162,4|4,0:0|0:0,0:0:0:0:
484,140,112418,6,0,P|384:204|248:184,1,240.000002384186,4|0,0:0|0:0,0:0:0:0:
176,116,113772,1,2,0:0:0:0:
152,232,114223,2,0,P|84:288|32:368,1,180.000001788139,4|8,0:0|0:0,0:0:0:0:
0,316,115125,2,0,L|0:112,1,180.000001788139,0|8,0:0|0:0,0:0:0:0:
52,108,116027,6,0,P|140:108|228:68,1,180.000001788139,4|8,0:0|0:0,0:0:0:0:
264,116,116929,2,0,P|260:208|300:292,1,180.000001788139,0|8,0:0|0:0,0:0:0:0:
348,312,117832,2,0,P|412:312|472:284,1,120.000001192093
384,200,118734,2,0,P|352:84|248:8,1,240.000002384186,0|4,0:0|0:0,0:0:0:0:
148,52,120087,5,2,0:0:0:0:
72,148,120538,2,0,P|180:188|252:100,1,240.000002384186,0|4,0:0|0:0,0:0:0:0:
324,200,121892,1,2,0:0:0:0:
316,320,122343,2,0,P|208:280|136:368,1,240.000002384186,0|4,0:0|0:0,0:0:0:0:
36,300,123696,5,0,0:0:0:0:
52,180,124148,2,0,B|124:132|128:48|128:48|152:80|204:96,1,240.000002384186
188,212,125501,1,2,0:0:0:0:
308,216,125952,2,0,B|344:164|332:88|332:88|368:72|404:84,1,180.000001788139,0|8,0:0|0:0,0:0:0:0:
436,80,126854,6,0,P|504:172|436:264,3,240.000002384186,4|4|4|4,0:0|0:0|0:0|0:0,0:0:0:0:
360,176,130012,2,0,B|304:168|292:180|228:176,1,120.000001192093,0|4,0:0|0:0,0:0:0:0:
68,256,144899,6,0,P|168:220|272:320,1,240.000002384186,4|0,0:0|0:0,0:0:0:0:
316,332,146027,2,0,P|360:320|388:304,1,60.0000005960464,0|8,0:0|0:0,0:0:0:0:
452,224,146704,2,0,P|408:104|340:12,1,240.000002384186,4|0,0:0|0:0,0:0:0:0:
284,24,147832,2,0,P|244:48|220:68,1,60.0000005960464,0|8,0:0|0:0,0:0:0:0:
140,132,148508,6,0,P|184:252|252:344,1,240.000002384186,4|0,0:0|0:0,0:0:0:0:
308,332,149636,2,0,P|348:308|372:288,1,60.0000005960464,0|8,0:0|0:0,0:0:0:0:
432,204,150313,6,0,B|380:168|308:180|268:216|268:216|248:192|236:148,2,240.000002384186,4|0|4,0:0|0:0|0:0,0:0:0:0:
428,324,152569,2,0,P|352:332|284:356,1,120.000001192093,0|0,0:0|0:0,0:0:0:0:
252,360,153245,2,0,P|228:332|208:292,1,60.0000005960464,8|0,0:0|0:0,0:0:0:0:
180,196,153922,6,0,P|276:196|404:128,1,240.000002384186,4|0,0:0|0:0,0:0:0:0:
380,76,155050,2,0,L|348:16,1,60.0000005960464,8|0,0:0|0:0,0:0:0:0:
232,24,155726,2,0,B|144:16|80:80|80:80|80:132|56:164,1,240.000002384186,4|0,0:0|0:0,0:0:0:0:
40,204,156854,2,0,L|64:272,1,60.0000005960464,8|0,0:0|0:0,0:0:0:0:
148,344,157531,6,0,P|232:280|360:280,1,210.000002086162,4|4,0:0|0:0,0:0:0:0:
428,224,162945,6,0,P|348:260|252:260,1,180.000001788139,4|8,0:0|0:0,0:0:0:0:
228,208,163847,2,0,P|220:140|168:36,1,180.000001788139,0|8,0:0|0:0,0:0:0:0:
112,44,164749,2,0,P|80:92|60:156,1,120.000001192093
60,212,165426,1,8,0:0:0:0:
60,272,165651,2,0,P|116:320|288:328,1,240.000002384186,0|4,0:0|0:0,0:0:0:0:
356,244,167005,5,2,0:0:0:0:
276,156,167456,2,0,P|392:132|472:224,1,240.000002384186,0|4,0:0|0:0,0:0:0:0:
356,244,168809,1,2,0:0:0:0:
240,276,169260,2,0,P|124:300|44:208,1,240.000002384186,0|4,0:0|0:0,0:0:0:0:
60,100,170614,5,2,0:0:0:0:
168,52,171065,2,0,B|232:76|232:76|284:48|348:56,1,180.000001788139,0|8,0:0|0:0,0:0:0:0:
396,80,171967,2,0,P|436:160|444:200,1,120.000001192093
440,248,172644,1,8,0:0:0:0:
384,268,172869,2,0,B|328:288|264:276,1,120.000001192093,0|8,0:0|0:0,0:0:0:0:
212,248,173546,1,8,0:0:0:0:
184,196,173772,6,0,P|144:120|64:68,1,180.000001788139,4|8,0:0|0:0,0:0:0:0:
12,96,174674,2,0,P|0:176|32:272,1,180.000001788139,0|8,0:0|0:0,0:0:0:0:
64,316,175576,2,0,P|140:312|236:360,1,180.000001788139,4|8,0:0|0:0,0:0:0:0:
292,364,176478,2,0,P|384:360|464:300,1,180.000001788139,0|8,0:0|0:0,0:0:0:0:
448,252,177381,6,0,P|432:208|396:136,1,120.000001192093,4|0,0:0|0:0,0:0:0:0:
372,88,178057,1,8,0:0:0:0:
312,100,178283,2,0,P|204:124|136:124,1,180.000001788139,0|8,0:0|0:0,0:0:0:0:
76,116,179185,1,0,0:0:0:0:
16,220,179636,1,0,0:0:0:0:
72,328,180087,2,0,B|116:308|168:320|168:320|192:244|280:216,1,240.000002384186,0|4,0:0|0:0,0:0:0:0:
376,180,181441,5,2,0:0:0:0:
492,216,181892,2,0,P|456:104|344:64,1,240.000002384186,0|4,0:0|0:0,0:0:0:0:
260,148,183245,1,2,0:0:0:0:
376,180,183696,2,0,P|284:252|160:220,1,240.000002384186,0|4,0:0|0:0,0:0:0:0:
96,136,185050,6,0,L|56:184,1,60.0000005960464,0|8,0:0|0:0,0:0:0:0:
48,240,185501,2,0,B|48:304|72:376|72:376|104:352|128:344,1,180.000001788139,0|8,0:0|0:0,0:0:0:0:
152,316,186403,2,0,P|260:272|384:276,2,240.000002384186,0|0|4,0:0|0:0|0:0,0:0:0:0:
232,88,189110,5,4,0:0:0:0:
384,276,190012,1,4,0:0:0:0:
152,316,190914,1,4,0:0:0:0:
232,88,191817,5,4,0:0:0:0:
268,136,192042,2,0,P|308:176|356:236,1,120.000001192093,8|8,0:0|0:0,0:0:0:0:
328,344,192945,2,0,P|288:304|240:244,1,120.000001192093,8|8,0:0|0:0,0:0:0:0:
216,204,193621,5,4,0:0:0:0:
196,148,193847,2,0,B|192:108|192:108|212:68|196:24,1,120.000001192093,8|8,0:0|0:0,0:0:0:0:
313,30,194749,2,0,B|300:68|320:108|320:108|316:148,1,120.000001192093,8|8,0:0|0:0,0:0:0:0:
296,204,195426,5,4,0:0:0:0:
280,260,195651,2,0,P|296:308|328:376,2,120.000001192093,8|8|8,0:0|0:0|0:0,0:0:0:0:
256,144,197005,1,8,0:0:0:0:
256,192,197230,12,4,199035,0:0:0:0:
268,344,200163,2,0,P|260:280|248:208,1,120.000001192093,8|8,0:0|0:0,0:0:0:0:
244,164,200839,5,4,0:0:0:0:
240,104,201065,2,0,P|312:68|372:68,2,120.000001192093,8|8|8,0:0|0:0|0:0,0:0:0:0:
184,128,202193,2,0,P|144:124|108:116,1,60.0000005960464,0|8,0:0|0:0,0:0:0:0:
64,108,202644,5,4,0:0:0:0:
52,168,202869,2,0,P|40:232|36:292,1,120.000001192093,8|8,0:0|0:0,0:0:0:0:
132,360,203772,2,0,P|192:372|256:380,1,120.000001192093,8|8,0:0|0:0,0:0:0:0:
304,356,204448,6,0,P|260:296|448:160,1,360.000003576278,0|8,0:0|0:0,0:0:0:0:
380,260,206253,5,4,0:0:0:0:
164,152,207155,1,4,0:0:0:0:
372,32,208057,2,0,B|320:92|320:92|296:164|248:236,1,240.000002384186,4|4,0:0|0:0,0:0:0:0:
