osu file format v14

[General]
AudioFilename: Uchouten Vivace.mp3
AudioLeadIn: 0
PreviewTime: 111742
Countdown: 0
SampleSet: Soft
StackLeniency: 0.7
Mode: 0
LetterboxInBreaks: 0
WidescreenStoryboard: 0

[Editor]
Bookmarks: 143320,190914
DistanceSpacing: 0.7
BeatDivisor: 2
GridSize: 4
TimelineZoom: 1

[Metadata]
Title:Uchouten Vivace
TitleUnicode:有頂天ビバーチェ
Artist:yuikonnu
ArtistUnicode:ゆいこんぬ
Creator:Guy
Version:Vivace!
Source:
Tags:Last Note. vocaloid gumi helloscv h-728 Nijiiro chocolatier nico douga
BeatmapID:281069
BeatmapSetID:107232

[Difficulty]
HPDrainRate:7
CircleSize:4
OverallDifficulty:7
ApproachRate:9.3
SliderMultiplier:1.9
SliderTickRate:2

[Events]
//Background and Video events
0,0,"bg.jpg",0,0
Video,-1100,"video_.avi"
//Break Periods
2,83746,89308
2,159335,161939
//Storyboard Layer 0 (Background)
//Storyboard Layer 1 (Fail)
//Storyboard Layer 2 (Pass)
//Storyboard Layer 3 (Foreground)
//Storyboard Sound Samples

[TimingPoints]
539,225.563909774436,4,2,1,80,1,0
51065,-100,4,2,1,70,0,0
58283,-100,4,2,1,80,0,0
65501,-100,4,2,1,100,0,1
78358,-100,4,2,2,90,0,1
78471,-100,4,2,1,100,0,1
78809,-100,4,2,2,90,0,1
78922,-100,4,2,1,100,0,1
79937,-83.3333333333333,4,2,1,100,0,1
80839,-76.9230769230769,4,2,1,100,0,1
81742,-66.6666666666667,4,2,1,100,0,1
83546,-100,4,2,1,80,0,0
97982,-100,4,2,1,70,0,0
105200,-100,4,2,1,80,0,0
112418,-100,4,2,1,100,0,1
125275,-100,4,2,2,90,0,1
125388,-100,4,2,1,100,0,1
125726,-100,4,2,2,90,0,1
125839,-100,4,2,1,100,0,1
126854,-83.3333333333333,4,2,1,100,0,1
127757,-76.9230769230769,4,2,1,100,0,1
128659,-66.6666666666667,4,2,1,100,0,1
129561,-100,4,2,1,100,0,1
130463,-100,4,2,1,80,0,0
132493,-100,4,2,2,80,0,0
132719,-100,4,2,1,80,0,0
162945,-100,4,2,1,100,0,1
172193,-100,4,2,2,90,0,1
172305,-100,4,2,1,100,0,1
172644,-100,4,2,2,90,0,1
172757,-100,4,2,1,100,0,1
173320,-100,4,2,1,80,0,1
173772,-100,4,2,1,100,0,1
186629,-100,4,2,2,90,0,1
186742,-100,4,2,1,100,0,1
187080,-100,4,2,2,90,0,1
187193,-100,4,2,1,100,0,1
188208,-83.3333333333333,4,2,1,100,0,1
189110,-76.9230769230769,4,2,1,100,0,1
190012,-66.6666666666667,4,2,1,100,0,1
190689,-100,4,2,1,100,0,1
191817,-100,4,2,1,80,0,0

[Colours]
Combo1 : 255,0,204
Combo2 : 39,231,124
Combo3 : 232,139,0
Combo4 : 1,197,254
Combo5 : 170,201,48

[HitObjects]
112,96,6854,6,0,L|128:196,1,95,4|0,0:0|0:0,0:0:0:0:
152,292,7080,1,2,0:0:0:0:
152,292,7193,1,2,0:0:0:0:
152,292,7305,2,0,P|252:224|332:244,1,190,4|0,0:0|0:0,0:0:0:0:
484,64,7757,6,0,P|440:44|392:16,1,95,4|0,0:0|0:0,0:0:0:0:
264,52,7982,2,0,P|308:72|356:100,1,95,8|0,0:0|0:0,0:0:0:0:
432,148,8208,2,0,P|384:188|384:312,1,190,0|8,0:0|0:0,0:0:0:0:
381,307,8546,2,0,P|288:256|204:264,1,190
128,268,8884,1,8,0:0:0:0:
88,204,8997,1,0,0:0:0:0:
56,136,9110,2,0,B|100:108|100:108|134:103|160:88,1,95
236,60,9335,2,0,B|238:112|238:112|225:143|225:174,1,95,8|0,0:0|0:0,0:0:0:0:
212,256,9561,6,0,B|165:231|165:231|144:204|118:189,1,95,4|0,0:0|0:0,0:0:0:0:
304,216,9787,2,0,P|348:196|396:196,1,95,8|0,0:0|0:0,0:0:0:0:
472,296,10012,2,0,P|384:336|268:340,1,190,0|8,0:0|0:0,0:0:0:0:
291,343,10351,2,0,P|272:244|280:156,1,190
344,88,10689,2,0,P|364:136|364:188,1,95,8|0,0:0|0:0,0:0:0:0:
212,220,10914,2,0,P|192:172|192:120,1,95
288,252,11140,1,8,0:0:0:0:
288,252,11253,1,8,0:0:0:0:
236,308,11366,6,0,B|188:300|188:300|136:272,1,95,4|0,0:0|0:0,0:0:0:0:
48,168,11591,2,0,B|96:176|96:176|148:204,1,95,8|0,0:0|0:0,0:0:0:0:
212,220,11817,1,0,0:0:0:0:
288,252,11929,1,0,0:0:0:0:
348,200,12042,1,8,0:0:0:0:
348,116,12155,2,0,B|260:80|260:80|180:148,1,190
188,140,12493,2,0,P|152:190|116:218,1,95,8|0,0:0|0:0,0:0:0:0:
40,188,12719,2,0,P|76:138|112:110,1,95,0|0,0:0|0:0,0:0:0:0:
220,232,12945,2,0,P|183:281|147:309,1,95,8|0,0:0|0:0,0:0:0:0:
256,192,13170,12,4,14523,0:0:0:0:
120,312,14975,6,0,L|224:300,1,95,4|0,0:0|0:0,0:0:0:0:
264,228,15200,2,0,P|248:176|248:136,1,95,8|0,0:0|0:0,0:0:0:0:
320,76,15426,2,0,P|336:128|336:168,2,95,0|0|8,0:0|0:0|0:0,0:0:0:0:
232,44,15764,2,0,P|160:36|84:132,1,190
168,252,16102,2,0,P|184:204|188:136,1,95,8|0,0:0|0:0,0:0:0:0:
84,288,16328,1,0,0:0:0:0:
164,344,16441,1,0,0:0:0:0:
248,292,16554,2,0,P|280:256|324:228,1,95,8|0,0:0|0:0,0:0:0:0:
400,220,16779,5,4,0:0:0:0:
424,144,16892,1,0,0:0:0:0:
348,156,17005,1,8,0:0:0:0:
372,80,17117,1,0,0:0:0:0:
292,96,17230,2,0,P|252:48|236:12,2,95,0|0|8,0:0|0:0|0:0,0:0:0:0:
268,172,17569,2,0,P|248:252|296:356,1,190
396,236,17907,2,0,P|380:192|348:156,1,95,8|0,0:0|0:0,0:0:0:0:
268,172,18132,1,0,0:0:0:0:
164,224,18245,1,0,0:0:0:0:
164,104,18358,1,8,0:0:0:0:
164,104,18471,1,8,0:0:0:0:
164,104,18584,6,0,P|104:120|60:124,1,95,4|0,0:0|0:0,0:0:0:0:
252,80,18809,2,0,P|312:64|356:60,1,95,8|0,0:0|0:0,0:0:0:0:
436,92,19035,2,0,B|472:136|472:136|436:208|464:280,1,190,0|8,0:0|0:0,0:0:0:0:
418,342,19373,2,0,P|385:242|395:146,1,190
348,89,19711,2,0,P|328:133|317:204,1,95,8|0,0:0|0:0,0:0:0:0:
312,256,19937,1,0,0:0:0:0:
236,276,20050,1,0,0:0:0:0:
160,296,20163,2,0,P|144:244|136:200,1,95,8|0,0:0|0:0,0:0:0:0:
272,44,20388,5,4,0:0:0:0:
272,44,20501,1,0,0:0:0:0:
272,44,20614,2,0,P|252:96|232:136,1,95,8|0,0:0|0:0,0:0:0:0:
272,300,20839,5,4,0:0:0:0:
272,300,20952,1,0,0:0:0:0:
272,300,21065,2,0,P|236:256|212:219,1,95,8|0,0:0|0:0,0:0:0:0:
52,168,21290,5,12,0:0:0:0:
52,168,21403,1,0,0:0:0:0:
52,168,21516,2,0,P|107:159|151:156,1,95,8|0,0:0|0:0,0:0:0:0:
224,212,21742,1,8,0:0:0:0:
264,224,21854,1,8,0:0:0:0:
308,220,21967,1,8,0:0:0:0:
340,196,22080,1,8,0:0:0:0:
356,160,22193,6,0,P|404:180|440:208,1,95,4|0,0:0|0:0,0:0:0:0:
460,284,22418,1,8,0:0:0:0:
400,340,22531,1,0,0:0:0:0:
376,264,22644,2,0,B|348:264|312:292|308:336|320:364|320:364|288:340|248:344,1,190,0|8,0:0|0:0,0:0:0:0:
184,292,22982,1,0,0:0:0:0:
184,292,23095,2,0,P|172:340|180:384,2,95,0|0|8,0:0|0:0|0:0,0:0:0:0:
260,256,23433,2,0,P|280:192|232:56,1,190
72,112,23772,2,0,P|120:116|168:96,1,95,8|0,0:0|0:0,0:0:0:0:
248,76,23997,6,0,P|346:52|418:108,1,190,0|8,0:0|0:0,0:0:0:0:
424,176,24335,1,0,0:0:0:0:
400,248,24448,2,0,P|352:244|288:224,1,95
224,140,24674,2,0,P|272:144|336:164,1,95,8|0,0:0|0:0,0:0:0:0:
308,232,24899,2,0,P|292:284|292:332,2,95,0|0|8,0:0|0:0|0:0,0:0:0:0:
216,268,25238,2,0,P|168:296|68:212,1,190
172,112,25576,1,8,0:0:0:0:
172,112,25689,1,8,0:0:0:0:
172,112,25802,6,0,L|152:212,1,95,4|0,0:0|0:0,0:0:0:0:
254,354,26027,2,0,P|230:306|214:262,1,95,8|0,0:0|0:0,0:0:0:0:
252,176,26253,2,0,P|304:108|408:132,1,190,0|8,0:0|0:0,0:0:0:0:
456,280,26591,1,0,0:0:0:0:
456,280,26704,2,0,P|408:296|360:324,1,95
296,348,26929,1,8,0:0:0:0:
220,336,27042,2,0,B|172:304|124:324|124:324|88:320|88:284|88:284|96:268|112:264,1,190
224,140,27381,2,0,P|204:188|188:236,1,95,8|0,0:0|0:0,0:0:0:0:
296,212,27606,6,0,P|316:164|332:116,1,95,4|0,0:0|0:0,0:0:0:0:
160,64,27832,1,8,0:0:0:0:
160,64,27945,1,0,0:0:0:0:
160,64,28057,2,0,P|116:136|168:216,1,190,0|8,0:0|0:0,0:0:0:0:
232,292,28396,2,0,P|276:220|224:140,1,190
144,312,28734,2,0,P|172:356|212:384,1,95,8|0,0:0|0:0,0:0:0:0:
308,364,28960,6,0,B|304:324|288:296|288:296|300:280|300:280|304:296,1,95,4|0,0:0|0:0,0:0:0:0:
204,20,29185,2,0,B|208:60|224:88|224:88|212:104|212:104|208:88,1,95,12|0,0:0|0:0,0:0:0:0:
76,192,29411,5,4,0:0:0:0:
436,192,29636,1,8,0:0:0:0:
436,192,29749,1,0,0:0:0:0:
436,192,29862,2,0,P|384:264|296:244,1,190,0|8,0:0|0:0,0:0:0:0:
272,64,30200,1,0,0:0:0:0:
272,64,30313,2,0,B|308:88|344:84|344:84|324:144|360:200,1,190,0|8,0:0|0:0,0:0:0:0:
156,296,30651,2,0,P|208:224|296:244,1,190,0|0,0:0|0:0,0:0:0:0:
372,260,30990,1,8,0:0:0:0:
444,232,31102,1,0,0:0:0:0:
480,164,31215,6,0,P|476:112|464:56,1,95
444,232,31441,2,0,B|448:280|448:280|464:308|472:344,1,95,8|0,0:0|0:0,0:0:0:0:
384,188,31666,2,0,B|384:132|368:80|368:80|328:108|288:92,1,190,0|8,0:0|0:0,0:0:0:0:
220,48,32005,1,0,0:0:0:0:
300,20,32117,2,0,B|280:92|312:156|312:156|316:228,1,190,0|8,0:0|0:0,0:0:0:0:
348,328,32456,2,0,P|280:268|188:284,1,190
20,248,32794,1,8,0:0:0:0:
20,248,32907,1,8,0:0:0:0:
20,248,33020,6,0,P|64:232|112:196,1,95,4|0,0:0|0:0,0:0:0:0:
152,32,33245,2,0,P|143:78|151:137,1,95,8|0,0:0|0:0,0:0:0:0:
272,256,33471,2,0,P|236:225|180:202,1,95,0|0,0:0|0:0,0:0:0:0:
52,120,33696,1,8,0:0:0:0:
52,120,33809,1,0,0:0:0:0:
52,120,33922,2,0,B|100:108|100:108|144:92,1,95
216,68,34148,1,8,0:0:0:0:
288,44,34260,2,0,P|248:128|316:220,1,190
472,288,34599,1,8,0:0:0:0:
464,208,34711,1,8,0:0:0:0:
456,128,34824,6,0,P|408:136|348:128,1,95,4|0,0:0|0:0,0:0:0:0:
56,256,35050,2,0,P|104:248|164:256,1,95,8|0,0:0|0:0,0:0:0:0:
456,128,35275,2,0,P|407:123|351:100,1,95,4|0,0:0|0:0,0:0:0:0:
56,256,35501,2,0,P|104:260|160:283,1,95,8|8,0:0|0:0,0:0:0:0:
256,348,35726,1,8,0:0:0:0:
256,36,35952,1,8,0:0:0:0:
448,236,36178,5,8,0:0:0:0:
372,252,36290,1,8,0:0:0:0:
296,268,36403,1,8,0:0:0:0:
220,284,36516,1,8,0:0:0:0:
144,300,36629,6,0,L|112:196,1,95,4|0,0:0|0:0,0:0:0:0:
100,116,36854,2,0,P|144:136|192:152,1,95,8|0,0:0|0:0,0:0:0:0:
272,112,37080,2,0,B|296:168|264:216|264:216|312:232|312:232|284:256,1,190,0|8,0:0|0:0,0:0:0:0:
220,284,37418,1,0,0:0:0:0:
256,348,37531,2,0,P|300:352|352:372,2,95,0|0|8,0:0|0:0|0:0,0:0:0:0:
144,300,37869,2,0,P|168:224|276:232,1,190
328,268,38208,1,8,0:0:0:0:
328,268,38320,1,0,0:0:0:0:
384,216,38433,6,0,P|388:168|408:124,2,95,0|0|8,0:0|0:0|0:0,0:0:0:0:
404,292,38772,1,0,0:0:0:0:
344,344,38884,2,0,B|280:328|280:328|216:360|152:348,1,190,0|8,0:0|0:0,0:0:0:0:
96,304,39223,1,0,0:0:0:0:
72,232,39335,2,0,P|64:176|120:52,1,190,0|8,0:0|0:0,0:0:0:0:
137,211,39674,2,0,P|134:160|230:75,1,190
203,191,40012,2,0,P|208:157|262:156,1,95,8|8,0:0|0:0,0:0:0:0:
272,232,40238,6,0,B|248:272|248:272|324:292|344:372,1,190,4|8,0:0|0:0,0:0:0:0:
343,369,40576,1,0,0:0:0:0:
343,369,40689,2,0,P|424:360|488:276,1,190,0|8,0:0|0:0,0:0:0:0:
488,200,41027,1,0,0:0:0:0:
448,132,41140,2,0,B|424:60|464:16|464:16|432:32|396:32,1,190,0|8,0:0|0:0,0:0:0:0:
312,80,41478,2,0,B|288:148|336:236|336:236|288:264,1,190
240,280,41817,1,8,0:0:0:0:
164,264,41929,1,0,0:0:0:0:
152,188,42042,6,0,P|140:136|136:92,1,95,4|0,0:0|0:0,0:0:0:0:
212,28,42268,2,0,P|224:80|228:124,1,95,8|0,0:0|0:0,0:0:0:0:
76,256,42493,2,0,P|64:204|60:160,2,95,0|0|8,0:0|0:0|0:0,0:0:0:0:
120,340,42832,2,0,P|204:300|312:316,1,190
408,356,43170,2,0,P|384:312|376:260,1,95,8|0,0:0|0:0,0:0:0:0:
384,68,43396,6,0,L|332:164,1,95,4|0,0:0|0:0,0:0:0:0:
128,320,43621,2,0,L|180:224,1,95,12|0,0:0|0:0,0:0:0:0:
256,64,43847,6,0,B|240:136|256:156|256:156|272:176|256:252,1,190,4|8,0:0|0:0,0:0:0:0:
204,308,44185,1,0,0:0:0:0:
244,372,44298,2,0,P|304:380|352:380,2,95,0|0|8,0:0|0:0|0:0,0:0:0:0:
168,376,44636,1,0,0:0:0:0:
132,308,44749,2,0,B|100:248|128:176|128:176|104:152|104:116,1,190,0|8,0:0|0:0,0:0:0:0:
176,24,45087,2,0,B|192:80|176:120|176:120|224:104|224:104|216:132|220:156,1,190
192,216,45426,1,8,0:0:0:0:
440,136,45651,5,4,0:0:0:0:
184,312,45877,2,0,L|192:212,1,95,8|0,0:0|0:0,0:0:0:0:
200,108,46102,2,0,P|248:188|336:184,1,190,0|8,0:0|0:0,0:0:0:0:
436,272,46441,1,0,0:0:0:0:
436,272,46554,2,0,P|424:332|424:376,2,95,0|0|8,0:0|0:0|0:0,0:0:0:0:
340,280,46892,2,0,B|288:296|232:280|232:280|208:320|164:324,1,190
140,160,47230,1,8,0:0:0:0:
140,160,47343,1,8,0:0:0:0:
140,160,47456,6,0,B|148:196|136:228|136:228|160:248,1,95,4|0,0:0|0:0,0:0:0:0:
372,224,47681,2,0,B|364:188|376:156|376:156|352:136,1,95,8|0,0:0|0:0,0:0:0:0:
140,160,47907,2,0,B|128:195|102:216|102:216|113:246,1,95,0|0,0:0|0:0,0:0:0:0:
372,224,48132,2,0,B|383:188|409:167|409:167|398:137,1,95,8|0,0:0|0:0,0:0:0:0:
124,72,48358,2,0,P|164:64|220:40,1,95
388,72,48584,2,0,P|348:64|292:40,1,95,8|0,0:0|0:0,0:0:0:0:
256,108,48809,1,8,0:0:0:0:
244,172,48922,1,8,0:0:0:0:
264,236,49035,1,8,0:0:0:0:
244,300,49148,1,8,0:0:0:0:
256,364,49260,6,0,P|308:364|364:356,1,95,4|0,0:0|0:0,0:0:0:0:
468,232,49486,1,8,0:0:0:0:
468,232,49599,1,0,0:0:0:0:
468,232,49711,2,0,P|416:232|360:240,1,95,4|0,0:0|0:0,0:0:0:0:
184,252,49937,1,8,0:0:0:0:
184,252,50050,1,0,0:0:0:0:
184,252,50163,6,0,P|180:204|188:144,1,95,4|0,0:0|0:0,0:0:0:0:
328,132,50388,2,0,P|332:180|324:240,1,95,4|0,0:0|0:0,0:0:0:0:
256,344,50614,1,8,0:0:0:0:
256,268,50726,1,8,0:0:0:0:
256,192,50839,1,8,0:0:0:0:
256,116,50952,1,8,0:0:0:0:
256,40,51065,6,0,P|160:40|80:116,1,190,4|0,0:0|0:0,0:0:0:0:
89,97,51403,1,0,0:0:0:0:
89,97,51516,2,0,B|76:132|64:152|64:152|84:172|84:172|64:216|88:272,1,190,8|0,0:0|0:0,0:0:0:0:
200,352,51854,2,0,B|208:276|152:276|148:212|148:212|164:200|176:184,1,190,8|2,0:0|0:0,0:0:0:0:
236,140,52193,2,0,P|280:120|324:76,1,95,2|0,0:0|0:0,0:0:0:0:
384,8,52418,2,0,P|380:64|500:120,1,190,8|0,0:0|0:0,0:0:0:0:
460,340,52869,6,0,P|408:340|368:356,1,95,8|0,0:0|0:0,0:0:0:0:
264,276,53095,2,0,P|316:276|356:260,1,95
292,168,53320,2,0,P|196:168|116:224,1,190,8|8,0:0|0:0,0:0:0:0:
120,218,53659,1,0,0:0:0:0:
120,218,53772,2,0,P|84:160|76:120,1,95,8|2,0:0|0:0,0:0:0:0:
240,60,53997,2,0,P|204:84|148:104,1,95
120,220,54223,2,0,P|199:169|323:149,1,190,8|8,0:0|0:0,0:0:0:0:
368,164,54561,1,8,0:0:0:0:
332,232,54674,6,0,P|428:212|360:88,1,285,4|0,0:0|0:0,0:0:0:0:
361,87,55125,2,0,B|368:168|368:168|340:156|308:158|280:172|269:200,1,190,8|0,0:0|0:0,0:0:0:0:
268,268,55463,2,0,P|340:304|404:228,1,190,8|2,0:0|0:0,0:0:0:0:
361,87,55802,2,0,B|317:103|317:103|265:99,1,95,2|0,0:0|0:0,0:0:0:0:
176,76,56027,1,8,0:0:0:0:
448,44,56253,1,0,0:0:0:0:
228,184,56478,6,0,P|176:192|120:188,2,95,8|0|0,0:0|0:0|0:0,0:0:0:0:
300,156,56817,1,0,0:0:0:0:
372,132,56929,2,0,P|372:240|384:328,1,190,8|0,0:0|0:0,0:0:0:0:
382,321,57268,2,0,B|320:336|320:336|256:332|256:332|192:348,1,190,8|8,0:0|0:0,0:0:0:0:
72,276,57606,2,0,P|120:260|176:248,1,95,8|0,0:0|0:0,0:0:0:0:
260,232,57832,1,8,0:0:0:0:
248,188,57945,1,8,0:0:0:0:
272,148,58057,1,8,0:0:0:0:
316,128,58170,1,8,0:0:0:0:
356,152,58283,6,0,P|408:152|464:144,1,95,4|8,0:0|0:0,0:0:0:0:
392,64,58508,1,8,0:0:0:0:
296,72,58621,2,0,P|260:116|304:240,1,190,8|8,0:0|0:0,0:0:0:0:
464,288,58960,2,0,P|404:296|372:308,1,95,8|8,0:0|0:0,0:0:0:0:
268,340,59185,2,0,P|220:328|168:304,2,95,8|8|8,0:0|0:0|0:0,0:0:0:0:
294,234,59523,2,0,B|298:178|298:178|258:162|258:162|270:114|234:66,1,190,8|8,0:0|0:0,0:0:0:0:
84,156,59862,2,0,P|140:144|196:136,1,95,8|8,0:0|0:0,0:0:0:0:
188,228,60087,6,0,B|196:276|196:276|216:324,1,95,4|0,0:0|0:0,0:0:0:0:
280,252,60313,2,0,B|272:204|272:204|252:156,1,95,8|0,0:0|0:0,0:0:0:0:
104,256,60538,2,0,B|112:304|112:304|132:352,2,95,0|0|8,0:0|0:0|0:0,0:0:0:0:
188,228,60877,2,0,P|256:232|324:136,1,190,8|0,0:0|0:0,0:0:0:0:
204,48,61215,2,0,P|216:108|236:156,1,95,8|0,0:0|0:0,0:0:0:0:
324,142,61441,1,8,0:0:0:0:
400,140,61554,1,8,0:0:0:0:
452,196,61666,1,8,0:0:0:0:
452,272,61779,1,8,0:0:0:0:
400,328,61892,6,0,P|348:352|296:356,2,95,4|0|8,0:0|0:0|0:0,0:0:0:0:
328,264,62230,2,0,B|300:208|324:144|324:144|284:152|244:136,1,190,8|0,0:0|0:0,0:0:0:0:
228,228,62569,2,0,P|236:276|260:340,1,95,8|8,0:0|0:0,0:0:0:0:
172,156,62794,1,8,0:0:0:0:
172,156,62907,1,8,0:0:0:0:
172,156,63020,2,0,P|152:104|148:52,1,95,8|0,0:0|0:0,0:0:0:0:
368,68,63245,1,8,0:0:0:0:
368,68,63358,1,8,0:0:0:0:
368,68,63471,1,8,0:0:0:0:
368,68,63584,1,8,0:0:0:0:
368,68,63696,6,0,P|380:116|404:168,1,95,4|0,0:0|0:0,0:0:0:0:
320,308,63922,2,0,P|308:260|284:208,1,95,8|0,0:0|0:0,0:0:0:0:
256,148,64148,1,8,0:0:0:0:
184,120,64260,1,8,0:0:0:0:
108,132,64373,1,8,0:0:0:0:
56,188,64486,2,0,P|80:320|208:304,1,285,4|2,0:0|0:0,0:0:0:0:
236,236,64937,1,2,0:0:0:0:
276,172,65050,1,8,0:0:0:0:
352,160,65163,1,8,0:0:0:0:
412,208,65275,1,8,0:0:0:0:
420,284,65388,1,8,0:0:0:0:
372,340,65501,6,0,P|340:288|332:256,1,95,4|0,0:0|0:0,0:0:0:0:
464,132,65726,2,0,P|496:184|504:216,1,95,8|0,0:0|0:0,0:0:0:0:
468,320,65952,2,0,P|400:252|284:292,1,190,0|8,0:0|0:0,0:0:0:0:
252,308,66290,1,0,0:0:0:0:
204,248,66403,2,0,P|184:160|208:48,1,190,0|8,0:0|0:0,0:0:0:0:
380,84,66742,2,0,P|288:100|188:52,1,190,0|0,0:0|0:0,0:0:0:0:
108,84,67080,2,0,P|100:132|104:200,1,95,8|0,0:0|0:0,0:0:0:0:
116,356,67305,6,0,P|168:272|264:280,1,190,4|8,0:0|0:0,0:0:0:0:
386,188,67644,2,0,P|334:272|238:264,1,190,0|0,0:0|0:0,0:0:0:0:
256,108,67982,1,8,0:0:0:0:
256,108,68095,1,0,0:0:0:0:
152,112,68208,2,0,B|160:176|216:200|216:200|176:224|172:264,1,190,0|8,0:0|0:0,0:0:0:0:
360,112,68546,2,0,B|352:176|296:200|296:200|336:224|340:264,1,190
256,300,68884,1,8,0:0:0:0:
256,300,68997,1,8,0:0:0:0:
184,348,69110,6,0,B|132:352|120:304|120:304|164:252|128:204,1,190,4|8,0:0|0:0,0:0:0:0:
4,108,69448,2,0,B|56:104|68:152|68:152|24:204|60:252,1,190,0|0,0:0|0:0,0:0:0:0:
132,208,69787,2,0,P|176:184|228:148,1,95,8|0,0:0|0:0,0:0:0:0:
328,80,70012,1,0,0:0:0:0:
328,80,70125,1,0,0:0:0:0:
328,80,70238,1,8,0:0:0:0:
328,80,70351,2,0,P|300:156|356:240,1,190
488,196,70689,2,0,P|428:160|384:148,1,95,8|0,0:0|0:0,0:0:0:0:
304,308,70914,6,0,B|300:332|300:332|332:352|356:396,1,95,4|0,0:0|0:0,0:0:0:0:
208,236,71140,2,0,B|212:260|212:260|180:280|156:324,1,95,8|0,0:0|0:0,0:0:0:0:
304,164,71366,2,0,B|300:188|300:188|332:208|356:252,1,95,0|0,0:0|0:0,0:0:0:0:
208,96,71591,2,0,B|212:120|212:120|180:140|156:184,1,95,8|0,0:0|0:0,0:0:0:0:
304,24,71817,2,0,P|400:44|424:144,1,190,0|8,0:0|0:0,0:0:0:0:
420,200,72155,1,8,0:0:0:0:
348,168,72268,5,8,0:0:0:0:
292,164,72381,1,8,0:0:0:0:
240,188,72493,1,8,0:0:0:0:
220,240,72606,1,8,0:0:0:0:
232,296,72719,6,0,P|172:296|112:220,1,142.5,6|0,0:0|0:0,0:0:0:0:
104,204,72945,2,0,B|88:168|88:168|104:96|104:96|88:60,1,142.5,10|0,0:0|0:0,0:0:0:0:
80,32,73170,2,0,B|100:0|100:0|164:40|252:8,1,190,2|8,0:0|0:0,0:0:0:0:
324,0,73508,1,8,0:0:0:0:
292,68,73621,2,0,P|276:116|268:184,2,95,8|8|8,0:0|0:0|0:0,0:0:0:0:
408,108,73960,2,0,B|356:132|356:132|340:184|344:264,1,190,8|0,0:0|0:0,0:0:0:0:
384,360,74298,2,0,P|284:340|244:356,1,142.5,8|0,0:0|0:0,0:0:0:0:
212,360,74523,6,0,L|232:216,1,142.5,6|0,0:0|0:0,0:0:0:0:
160,168,74749,2,0,L|140:312,1,142.5,2|0,0:0|0:0,0:0:0:0:
292,332,74975,2,0,L|320:140,1,190,2|8,0:0|0:0,0:0:0:0:
336,68,75313,1,0,0:0:0:0:
336,68,75426,2,0,P|388:64|456:56,2,95,8|0|8,0:0|0:0|0:0,0:0:0:0:
260,88,75764,2,0,P|160:96|64:100,1,190,8|0,0:0|0:0,0:0:0:0:
8,296,76102,1,8,0:0:0:0:
8,296,76215,1,8,0:0:0:0:
8,296,76328,6,0,P|72:292|132:292,1,95,4|0,0:0|0:0,0:0:0:0:
188,356,76554,2,0,P|184:292|184:232,1,95,8|0,0:0|0:0,0:0:0:0:
108,104,76779,2,0,P|112:168|112:228,1,95,0|0,0:0|0:0,0:0:0:0:
292,172,77005,2,0,P|228:168|168:168,1,95,8|0,0:0|0:0,0:0:0:0:
312,264,77230,2,0,P|376:268|436:268,2,95,0|0|8,0:0|0:0|0:0,0:0:0:0:
216,264,77569,2,0,P|216:148|232:64,1,190
396,140,77907,2,0,P|348:156|296:168,1,95,8|0,0:0|0:0,0:0:0:0:
100,184,78132,6,0,B|44:228|68:332|119:344|119:344|168:330|208:360,1,285,4|0,0:0|0:0,0:0:0:0:
412,184,78584,2,0,B|468:228|444:332|392:344|392:344|343:330|304:360,1,285,0|0,0:0|0:0,0:0:0:0:
256,264,79035,5,0,0:0:0:0:
256,188,79148,1,0,0:0:0:0:
256,112,79260,1,8,0:0:0:0:
256,36,79373,2,0,P|212:52|180:112,1,95,0|8,0:0|0:0,0:0:0:0:
256,264,79599,2,0,P|300:248|332:188,1,95,0|8,0:0|0:0,0:0:0:0:
336,112,79824,1,0,0:0:0:0:
176,192,79937,6,0,B|168:236|148:280|148:280|176:300|180:340|180:340|216:352|228:380,1,227.999993041992,4|0,0:0|0:0,0:0:0:0:
336,192,80275,2,0,B|344:148|364:104|364:104|336:84|332:44|332:44|296:32|284:4,1,227.999993041992,8|0,0:0|0:0,0:0:0:0:
200,12,80614,5,8,0:0:0:0:
136,64,80726,1,8,0:0:0:0:
76,120,80839,2,0,B|64:128|48:148|48:148|56:176|84:192|84:192|56:236|80:308|120:324,1,246.999988693238,4|0,0:0|0:0,0:0:0:0:
436,264,81178,2,0,B|448:256|464:236|464:236|456:208|428:192|428:192|456:148|432:76|392:60,1,246.999988693238,8|0,0:0|0:0,0:0:0:0:
256,104,81516,5,8,0:0:0:0:
256,192,81629,1,8,0:0:0:0:
256,280,81742,2,0,B|204:296|168:276|164:244|164:244|136:248|136:248|120:224|120:224|84:280|16:272,1,285.000010871888,4|0,0:0|0:0,0:0:0:0:
256,104,82080,2,0,B|308:120|344:100|348:68|348:68|376:72|376:72|392:48|392:48|428:104|496:96,1,285.000010871888,8|0,0:0|0:0,0:0:0:0:
328,332,82418,5,8,0:0:0:0:
256,364,82531,1,8,0:0:0:0:
184,332,82644,2,0,B|140:312|156:280|156:280|136:248|136:248|148:224|148:224|132:204|132:204|144:188|108:192|144:160|160:156|160:156|144:144|144:144|164:124|164:124|172:88|152:24|64:-12|-8:48|-8:112|8:144|32:164,1,570.000021743775,4|6,0:0|0:0,0:0:0:0:
64,296,83320,5,8,0:0:0:0:
448,88,83546,1,4,0:0:0:0:
256,240,89862,6,0,L|256:344,2,95,8|8|8,0:0|0:0|0:0,0:0:0:0:
256,144,90200,1,8,0:0:0:0:
336,192,90313,2,0,P|380:176|428:152,1,95,4|0,0:0|0:0,0:0:0:0:
176,192,90538,2,0,P|132:208|84:232,1,95,8|8,0:0|0:0,0:0:0:0:
336,192,90764,6,0,P|316:80|252:48,1,190,4|8,0:0|0:0,0:0:0:0:
176,52,91102,1,0,0:0:0:0:
112,100,91215,2,0,P|84:144|68:200,2,95,0|0|8,0:0|0:0|0:0,0:0:0:0:
184,132,91554,1,0,0:0:0:0:
256,160,91666,2,0,P|336:224|420:220,1,190,0|8,0:0|0:0,0:0:0:0:
392,20,92005,2,0,B|356:32|320:32|320:32|376:80|352:144,1,190
240,200,92343,2,0,B|252:152|252:152|272:108,1,95,8|0,0:0|0:0,0:0:0:0:
320,248,92569,6,0,P|232:288|152:232,1,190,0|8,0:0|0:0,0:0:0:0:
164,164,92907,1,0,0:0:0:0:
128,96,93020,2,0,P|112:44|88:4,1,95
36,84,93245,2,0,P|52:136|76:176,1,95,8|0,0:0|0:0,0:0:0:0:
112,256,93471,2,0,P|92:308|88:360,2,95,0|0|8,0:0|0:0|0:0,0:0:0:0:
164,164,93809,2,0,P|208:208|336:208,1,190,0|0,0:0|0:0,0:0:0:0:
448,152,94148,1,8,0:0:0:0:
448,152,94260,1,8,0:0:0:0:
448,152,94373,6,0,P|420:200|416:264,1,95,4|0,0:0|0:0,0:0:0:0:
320,364,94599,2,0,P|348:316|352:252,1,95,8|0,0:0|0:0,0:0:0:0:
404,136,94824,2,0,P|376:184|372:248,1,95,0|0,0:0|0:0,0:0:0:0:
276,348,95050,2,0,P|304:300|308:236,1,95,8|0,0:0|0:0,0:0:0:0:
336,64,95275,1,0,0:0:0:0:
336,64,95388,1,0,0:0:0:0:
336,64,95501,2,0,P|288:72|236:68,1,95,8|0,0:0|0:0,0:0:0:0:
76,44,95726,1,0,0:0:0:0:
80,112,95839,1,0,0:0:0:0:
84,180,95952,1,8,0:0:0:0:
88,248,96065,1,0,0:0:0:0:
92,316,96178,6,0,P|168:248|268:256,1,190,4|8,0:0|0:0,0:0:0:0:
332,256,96516,1,0,0:0:0:0:
384,196,96629,2,0,P|388:104|324:24,1,190,0|8,0:0|0:0,0:0:0:0:
331,28,96967,1,0,0:0:0:0:
331,28,97080,2,0,B|292:32|292:32|268:52|236:60,1,95,8|0,0:0|0:0,0:0:0:0:
68,212,97305,2,0,B|107:208|107:208|131:188|163:180,1,95,8|0,0:0|0:0,0:0:0:0:
296,124,97531,1,8,0:0:0:0:
344,184,97644,1,8,0:0:0:0:
340,260,97757,1,8,0:0:0:0:
284,308,97869,1,8,0:0:0:0:
208,304,97982,6,0,B|168:256|128:228|128:228|156:188|140:144,1,190,4|0,0:0|0:0,0:0:0:0:
68,176,98320,1,0,0:0:0:0:
56,252,98433,2,0,B|72:280|72:280|120:304|156:360|156:360|192:384|220:376,1,190,8|0,0:0|0:0,0:0:0:0:
208,304,98772,2,0,P|228:208|288:136,1,190,8|8,0:0|0:0,0:0:0:0:
356,28,99110,2,0,P|356:76|368:140,1,95,8|0,0:0|0:0,0:0:0:0:
396,212,99335,1,8,0:0:0:0:
112,56,99561,5,0,0:0:0:0:
112,56,99674,1,0,0:0:0:0:
112,56,99787,2,0,P|168:72|204:84,1,95,8|0,0:0|0:0,0:0:0:0:
268,128,100012,1,0,0:0:0:0:
280,204,100125,1,0,0:0:0:0:
240,272,100238,2,0,P|184:300|68:244,1,190,8|0,0:0|0:0,0:0:0:0:
240,272,100576,2,0,B|296:248|296:248|364:268|364:268|424:248,1,190,8|8,0:0|0:0,0:0:0:0:
380,80,100914,2,0,P|364:128|364:184,1,95,8|0,0:0|0:0,0:0:0:0:
488,312,101140,2,0,P|504:264|504:208,1,95,8|0,0:0|0:0,0:0:0:0:
288,24,101366,1,8,0:0:0:0:
288,24,101478,1,8,0:0:0:0:
288,24,101591,6,0,P|264:104|260:232,1,190,4|0,0:0|0:0,0:0:0:0:
268,288,101929,1,0,0:0:0:0:
216,344,102042,2,0,B|172:356|172:356|116:292|48:292,1,190,8|0,0:0|0:0,0:0:0:0:
0,168,102381,2,0,P|60:164|140:184,1,142.5,8|0,0:0|0:0,0:0:0:0:
164,200,102606,2,0,B|188:208|208:228|208:228|228:192|228:192|272:208|320:180,1,190,8|0,0:0|0:0,0:0:0:0:
464,56,102945,2,0,B|416:64|392:28|392:28|344:64|272:40|272:40|280:96|256:136,1,285,8|0,0:0|0:0,0:0:0:0:
256,328,103396,5,4,0:0:0:0:
256,56,103621,1,0,0:0:0:0:
256,328,103847,2,0,B|276:244|244:184|244:184|256:140,1,190,8|0,0:0|0:0,0:0:0:0:
356,56,104185,2,0,B|336:140|368:200|368:200|356:244,1,190,8|8,0:0|0:0,0:0:0:0:
320,284,104523,1,0,0:0:0:0:
264,288,104636,1,0,0:0:0:0:
220,252,104749,1,8,0:0:0:0:
212,196,104862,1,8,0:0:0:0:
168,160,104975,1,8,0:0:0:0:
112,168,105087,1,8,0:0:0:0:
76,212,105200,6,0,P|64:264|64:316,2,95,4|8|8,0:0|0:0|0:0,0:0:0:0:
220,252,105538,2,0,P|240:156|228:56,1,190,8|8,0:0|0:0,0:0:0:0:
76,88,105877,2,0,P|116:128|152:156,1,95,8|8,0:0|0:0,0:0:0:0:
328,184,106102,2,0,P|324:244|332:296,1,95,8|0,0:0|0:0,0:0:0:0:
420,232,106328,2,0,P|424:172|416:120,1,95,8|8,0:0|0:0,0:0:0:0:
404,312,106554,2,0,P|448:320|512:320,1,95,8|0,0:0|0:0,0:0:0:0:
344,100,106779,2,0,P|300:92|236:92,1,95,8|0,0:0|0:0,0:0:0:0:
72,136,107005,5,8,0:0:0:0:
72,136,107117,1,8,0:0:0:0:
72,136,107230,1,8,0:0:0:0:
72,136,107343,1,8,0:0:0:0:
72,136,107456,2,0,B|72:244|72:244|60:292|76:336,1,190,8|8,0:0|0:0,0:0:0:0:
296,348,107794,2,0,B|240:308|176:336|176:336|168:296|136:280,1,190,8|0,0:0|0:0,0:0:0:0:
224,240,108132,2,0,P|272:244|328:268,1,95,8|0,0:0|0:0,0:0:0:0:
248,152,108358,2,0,P|200:156|144:180,1,95,8|8,0:0|0:0,0:0:0:0:
224,64,108584,2,0,P|272:68|328:92,1,95,8|8,0:0|0:0,0:0:0:0:
336,164,108809,5,4,0:0:0:0:
348,220,108922,1,8,0:0:0:0:
360,276,109035,1,8,0:0:0:0:
372,332,109148,2,0,L|276:360,2,95,8|0|8,0:0|0:0|0:0,0:0:0:0:
448,260,109486,2,0,P|432:220|420:144,1,95,8|8,0:0|0:0,0:0:0:0:
408,92,109711,1,8,0:0:0:0:
348,44,109824,1,8,0:0:0:0:
272,48,109937,2,0,P|216:72|180:104,1,95,8|0,0:0|0:0,0:0:0:0:
148,156,110163,1,8,0:0:0:0:
196,224,110275,1,8,0:0:0:0:
164,300,110388,1,8,0:0:0:0:
84,316,110501,1,8,0:0:0:0:
24,264,110614,6,0,B|56:232|104:236|104:236|184:224,1,142.5,4|0,0:0|0:0,0:0:0:0:
196,224,110839,2,0,P|200:152|280:104,1,142.5,8|0,0:0|0:0,0:0:0:0:
292,104,111065,2,0,B|332:120|332:120|396:120,2,95,0|8|8,0:0|0:0|0:0,0:0:0:0:
304,200,111403,2,0,B|292:268|356:328|356:328|316:320|316:320|280:332|280:332|244:328|244:328|220:340|196:336,1,285,12|2,0:0|0:0,0:0:0:0:
144,328,111854,1,2,0:0:0:0:
88,276,111967,1,8,0:0:0:0:
80,200,112080,1,8,0:0:0:0:
120,132,112193,1,8,0:0:0:0:
200,128,112305,1,8,0:0:0:0:
276,96,112418,6,0,B|316:128|368:116|368:116|412:164|396:212,1,190,4|8,0:0|0:0,0:0:0:0:
320,360,112757,2,0,B|276:328|276:328|320:272|304:200,1,190
384,300,113095,2,0,P|432:316|484:324,1,95,8|0,0:0|0:0,0:0:0:0:
512,228,113320,2,0,P|500:108|464:36,1,190,0|8,0:0|0:0,0:0:0:0:
264,96,113659,2,0,P|276:216|312:288,1,190,0|0,0:0|0:0,0:0:0:0:
392,168,113997,1,8,0:0:0:0:
392,168,114110,1,0,0:0:0:0:
392,168,114223,6,0,B|380:132|352:108|352:108|356:36|292:12,1,190,4|8,0:0|0:0,0:0:0:0:
116,148,114561,2,0,P|216:160|264:88,1,190
116,12,114899,2,0,B|140:44|164:56|164:56|176:88,1,95,8|0,0:0|0:0,0:0:0:0:
196,240,115125,2,0,B|212:256|212:256|152:312|164:376|164:376|140:392|124:380,1,190,0|8,0:0|0:0,0:0:0:0:
316,240,115463,2,0,B|300:256|300:256|360:312|348:376|348:376|372:392|388:380,1,190,0|0,0:0|0:0,0:0:0:0:
256,340,115802,1,8,0:0:0:0:
256,340,115914,1,0,0:0:0:0:
256,340,116027,6,0,P|192:272|96:296,1,190,4|8,0:0|0:0,0:0:0:0:
164,360,116366,2,0,L|228:176,1,190
252,96,116704,1,8,0:0:0:0:
304,156,116817,1,0,0:0:0:0:
384,156,116929,2,0,B|376:96|328:80|328:80|308:44|308:44|320:8|348:28,1,190,0|8,0:0|0:0,0:0:0:0:
304,156,117268,2,0,B|312:216|360:232|360:232|380:268|380:268|368:304|340:284,1,190,0|0,0:0|0:0,0:0:0:0:
268,304,117606,1,8,0:0:0:0:
192,280,117719,1,0,0:0:0:0:
160,208,117832,6,0,P|176:164|188:104,1,95,4|0,0:0|0:0,0:0:0:0:
352,176,118057,2,0,P|336:220|324:280,1,95,8|0,0:0|0:0,0:0:0:0:
160,208,118283,2,0,P|116:188|72:156,1,95
352,176,118508,2,0,P|396:196|440:228,1,95,8|0,0:0|0:0,0:0:0:0:
256,348,118734,1,8,0:0:0:0:
256,348,118847,1,8,0:0:0:0:
256,348,118960,2,0,B|256:308|280:280|280:280|268:248,1,95,8|0,0:0|0:0,0:0:0:0:
264,180,119185,1,8,0:0:0:0:
228,112,119298,1,8,0:0:0:0:
160,72,119411,1,8,0:0:0:0:
84,84,119523,1,8,0:0:0:0:
24,136,119636,6,0,B|0:204|72:224|36:288,1,142.5,6|0,0:0|0:0,0:0:0:0:
36,312,119862,2,0,B|84:356|84:356|124:344|164:344,1,142.5,10|0,0:0|0:0,0:0:0:0:
200,336,120087,2,0,P|296:288|376:304,1,190,2|8,0:0|0:0,0:0:0:0:
456,320,120426,1,8,0:0:0:0:
456,240,120538,2,0,P|472:188|496:144,2,95,8|8|8,0:0|0:0|0:0,0:0:0:0:
376,220,120877,2,0,B|352:148|352:148|352:104|352:104|328:24,1,190,8|0,0:0|0:0,0:0:0:0:
176,148,121215,2,0,L|272:120,1,95,8|0,0:0|0:0,0:0:0:0:
292,224,121441,6,0,B|224:232|224:232|152:268,1,142.5,6|0,0:0|0:0,0:0:0:0:
184,340,121666,2,0,B|252:332|252:332|324:296,1,142.5,10|0,0:0|0:0,0:0:0:0:
288,136,121892,2,0,B|197:146|197:146|101:194,1,190,2|8,0:0|0:0,0:0:0:0:
56,256,122230,1,0,0:0:0:0:
12,192,122343,2,0,P|0:132|-4:84,2,95,8|8|8,0:0|0:0|0:0,0:0:0:0:
56,256,122681,1,8,0:0:0:0:
144,288,122794,1,8,0:0:0:0:
144,288,122907,1,8,0:0:0:0:
144,288,123020,1,8,0:0:0:0:
144,288,123132,1,8,0:0:0:0:
144,288,123245,6,0,P|200:324|228:360,1,95,4|0,0:0|0:0,0:0:0:0:
380,108,123471,2,0,P|324:72|296:36,1,95,8|0,0:0|0:0,0:0:0:0:
232,68,123696,1,0,0:0:0:0:
160,92,123809,1,0,0:0:0:0:
88,116,123922,2,0,B|100:136|100:136|88:184|108:208,1,95,8|0,0:0|0:0,0:0:0:0:
240,336,124148,6,0,P|228:232|172:168,1,190,0|8,0:0|0:0,0:0:0:0:
240,336,124486,2,0,P|336:340|428:292,1,190
464,224,124824,2,0,P|432:188|412:136,1,95,8|0,0:0|0:0,0:0:0:0:
472,68,125050,6,0,B|424:40|360:44|316:96|320:156|320:156|280:136|304:96,1,285,4|0,0:0|0:0,0:0:0:0:
40,68,125501,2,0,B|88:40|152:44|196:96|192:156|192:156|232:136|208:96,1,285,0|0,0:0|0:0,0:0:0:0:
256,36,125952,1,8,0:0:0:0:
300,72,126065,1,0,0:0:0:0:
328,120,126178,1,8,0:0:0:0:
336,176,126290,1,0,0:0:0:0:
336,232,126403,5,8,0:0:0:0:
276,260,126516,1,8,0:0:0:0:
212,252,126629,1,8,0:0:0:0:
152,276,126742,1,8,0:0:0:0:
88,268,126854,6,0,B|80:184|156:144|156:144|188:180|236:160,1,227.999993041992,4|0,0:0|0:0,0:0:0:0:
424,116,127193,2,0,B|432:200|356:240|356:240|324:204|276:224,1,227.999993041992,8|0,0:0|0:0,0:0:0:0:
256,36,127531,1,8,0:0:0:0:
256,36,127644,1,8,0:0:0:0:
200,108,127757,6,0,B|204:136|188:160|188:160|208:208|200:248|152:292|104:284|80:260,1,246.999988693238,4|0,0:0|0:0,0:0:0:0:
312,108,128095,2,0,B|308:136|324:160|324:160|304:208|312:248|360:292|408:284|432:260,1,246.999988693238,8|0,0:0|0:0,0:0:0:0:
396,192,128433,5,8,0:0:0:0:
396,192,128546,1,8,0:0:0:0:
396,192,128659,2,0,B|416:156|440:148|440:148|380:132|384:56|384:56|440:64|480:24,1,285.000010871888,4|0,0:0|0:0,0:0:0:0:
116,192,128997,2,0,B|96:156|72:148|72:148|132:132|128:56|128:56|72:64|32:24,1,285.000010871888,8|0,0:0|0:0,0:0:0:0:
256,36,129335,5,8,0:0:0:0:
256,36,129448,1,8,0:0:0:0:
256,36,129561,2,0,B|240:64|276:88|256:128,1,95,4|0,0:0|0:0,0:0:0:0:
168,288,129787,2,0,P|196:224|220:192,1,95,8|8,0:0|0:0,0:0:0:0:
296,220,130012,1,8,0:0:0:0:
376,192,130125,1,8,0:0:0:0:
388,108,130238,1,8,0:0:0:0:
344,36,130351,1,8,0:0:0:0:
256,36,130463,6,0,P|152:64|60:52,1,190,6|8,0:0|0:0,0:0:0:0:
48,148,130802,2,0,B|36:196|36:196|76:256|64:344,1,190
192,284,131140,2,0,P|184:224|164:172,1,95,8|0,0:0|0:0,0:0:0:0:
240,120,131366,2,0,P|336:108|424:68,1,190,2|8,0:0|0:0,0:0:0:0:
452,192,131704,2,0,P|356:204|268:244,1,190,2|0,0:0|0:0,0:0:0:0:
192,284,132042,2,0,P|144:288|88:276,1,95,10|0,0:0|0:0,0:0:0:0:
32,208,132268,6,0,P|68:112|236:84,2,285,2|2|10,0:0|0:0|0:0,0:0:0:0:
44,288,133057,1,0,0:0:0:0:
96,348,133170,2,0,P|144:352|196:352,1,95,2|2,0:0|0:0,0:0:0:0:
240,272,133396,2,0,P|192:268|140:268,1,95,8|2,0:0|0:0,0:0:0:0:
112,192,133621,1,0,0:0:0:0:
176,184,133734,1,2,0:0:0:0:
228,144,133847,1,8,0:0:0:0:
260,88,133960,1,10,0:0:0:0:
256,24,134072,6,0,P|284:96|400:104,1,190,6|8,0:0|0:0,0:0:0:0:
386,112,134411,2,0,P|336:196|324:296,1,190
436,380,134749,2,0,P|460:328|464:288,1,95,8|0,0:0|0:0,0:0:0:0:
323,285,134975,2,0,P|224:280|152:208,1,190,2|10,0:0|0:0,0:0:0:0:
132,148,135313,1,0,0:0:0:0:
112,72,135426,2,0,P|80:36|32:24,1,95,2|0,0:0|0:0,0:0:0:0:
24,188,135651,2,0,P|20:136|48:92,1,95,10|0,0:0|0:0,0:0:0:0:
92,228,135877,6,0,P|56:260|8:268,2,95,2|0|10,0:0|0:0|0:0,0:0:0:0:
132,148,136215,2,0,P|172:192|172:248,1,95,2|0,0:0|0:0,0:0:0:0:
300,264,136441,2,0,P|260:220|260:164,1,95,2|8,0:0|0:0,0:0:0:0:
276,112,136666,1,0,0:0:0:0:
352,100,136779,2,0,P|352:120|328:200,1,95,2|0,0:0|0:0,0:0:0:0:
160,284,137005,2,0,P|160:264|184:184,1,95,2|0,0:0|0:0,0:0:0:0:
256,36,137230,1,8,0:0:0:0:
256,36,137343,2,0,B|248:72|220:100|220:100|240:128|240:128|244:160|244:160|272:196|280:260|256:296,1,285,8|6,0:0|0:0,0:0:0:0:
204,352,137794,5,0,0:0:0:0:
128,336,137907,2,0,P|80:312|32:260,1,95,10|0,0:0|0:0,0:0:0:0:
16,196,138132,2,0,P|32:148|40:100,2,95,2|0|10,0:0|0:0|0:0,0:0:0:0:
88,220,138471,1,0,0:0:0:0:
164,204,138584,2,0,P|216:192|276:176,1,95,2|2,0:0|0:0,0:0:0:0:
384,152,138809,1,8,0:0:0:0:
384,152,138922,1,2,0:0:0:0:
384,152,139035,2,0,P|356:184|336:236,1,95,2|0,0:0|0:0,0:0:0:0:
376,312,139260,2,0,P|404:280|424:228,1,95,10|0,0:0|0:0,0:0:0:0:
304,112,139486,5,6,0:0:0:0:
304,112,139599,1,0,0:0:0:0:
304,112,139711,2,0,P|276:144|256:196,1,95,10|0,0:0|0:0,0:0:0:0:
228,284,139937,2,0,P|172:264|132:228,1,95,2|0,0:0|0:0,0:0:0:0:
304,260,140163,2,0,P|360:280|400:316,1,95,10|0,0:0|0:0,0:0:0:0:
464,292,140388,1,2,0:0:0:0:
448,216,140501,1,2,0:0:0:0:
408,148,140614,1,8,0:0:0:0:
344,104,140726,2,0,B|316:136|284:132|284:132|236:76|172:80|120:108|108:164,1,285,2|8,0:0|0:0,0:0:0:0:
256,192,141290,12,8,142869,0:0:0:0:
136,312,143095,6,0,L|120:216,1,95,2|0,0:0|0:0,0:0:0:0:
168,72,143320,2,0,L|184:168,1,95,8|0,0:0|0:0,0:0:0:0:
296,224,143546,2,0,L|200:240,1,95,2|0,0:0|0:0,0:0:0:0:
12,160,143772,2,0,L|108:144,1,95,8|0,0:0|0:0,0:0:0:0:
184,166,143997,1,4,0:0:0:0:
248,124,144110,1,0,0:0:0:0:
324,116,144223,1,8,0:0:0:0:
396,140,144335,1,0,0:0:0:0:
440,204,144448,1,10,0:0:0:0:
432,280,144561,1,10,0:0:0:0:
372,328,144674,1,10,0:0:0:0:
296,340,144787,1,10,0:0:0:0:
220,332,144899,6,0,P|164:320|48:256,1,190,4|8,0:0|0:0,0:0:0:0:
48,160,145238,1,0,0:0:0:0:
48,160,145351,2,0,B|72:104|72:104|140:104|204:60,1,190,8|8,0:0|0:0,0:0:0:0:
300,16,145689,2,0,P|268:92|276:208,1,190,8|0,0:0|0:0,0:0:0:0:
384,272,146027,2,0,P|396:216|392:164,1,95,8|0,0:0|0:0,0:0:0:0:
160,232,146253,1,8,0:0:0:0:
388,80,146478,1,8,0:0:0:0:
84,176,146704,6,0,P|76:276|160:328,1,190,4|8,0:0|0:0,0:0:0:0:
216,304,147042,1,0,0:0:0:0:
288,276,147155,2,0,P|336:256|384:252,1,95,8|0,0:0|0:0,0:0:0:0:
368,168,147381,2,0,P|364:96|356:68,1,95,0|8,0:0|0:0,0:0:0:0:
284,32,147606,1,0,0:0:0:0:
284,32,147719,1,0,0:0:0:0:
284,32,147832,2,0,P|202:26|170:2,1,95,8|0,0:0|0:0,0:0:0:0:
112,48,148057,1,8,0:0:0:0:
152,352,148283,1,8,0:0:0:0:
176,120,148508,6,0,P|120:140|16:56,1,190,4|8,0:0|0:0,0:0:0:0:
20,71,148847,1,0,0:0:0:0:
20,71,148960,2,0,B|16:168|16:168|24:272,1,190,8|0,0:0|0:0,0:0:0:0:
148,308,149298,2,0,P|148:244|144:200,2,95,8|0|8,0:0|0:0|0:0,0:0:0:0:
232,356,149636,2,0,P|280:364|332:368,1,95,8|0,0:0|0:0,0:0:0:0:
424,364,149862,1,8,0:0:0:0:
384,48,150087,1,8,0:0:0:0:
348,276,150313,6,0,B|328:212|356:136|356:136|332:136|316:164,1,190,4|8,0:0|0:0,0:0:0:0:
260,212,150651,1,0,0:0:0:0:
188,240,150764,2,0,P|104:240|48:156,1,190,8|8,0:0|0:0,0:0:0:0:
216,56,151102,2,0,B|190:54|160:44|160:44|108:100|140:168,1,190,8|8,0:0|0:0,0:0:0:0:
220,140,151441,2,0,P|272:132|316:156,1,95,8|0,0:0|0:0,0:0:0:0:
444,312,151666,1,8,0:0:0:0:
444,312,151779,1,8,0:0:0:0:
444,312,151892,1,8,0:0:0:0:
444,312,152005,1,8,0:0:0:0:
444,312,152117,6,0,L|348:328,1,95,4|0,0:0|0:0,0:0:0:0:
252,336,152343,2,0,P|264:284|268:232,1,95,8|0,0:0|0:0,0:0:0:0:
264,144,152569,2,0,P|208:160|104:88,1,190,0|8,0:0|0:0,0:0:0:0:
208,56,152907,2,0,P|264:40|368:112,1,190,0|0,0:0|0:0,0:0:0:0:
380,272,153245,2,0,P|352:232|336:188,1,95,8|0,0:0|0:0,0:0:0:0:
328,92,153471,1,8,0:0:0:0:
40,192,153696,1,8,0:0:0:0:
260,24,153922,6,0,P|236:92|312:184,1,190,4|8,0:0|0:0,0:0:0:0:
376,204,154260,1,0,0:0:0:0:
392,280,154373,2,0,B|368:332|368:332|296:320|232:372,1,190,0|8,0:0|0:0,0:0:0:0:
136,348,154711,2,0,P|168:292|180:260,1,95
108,196,154937,1,0,0:0:0:0:
108,196,155050,2,0,P|101:132|93:96,1,95,8|0,0:0|0:0,0:0:0:0:
160,28,155275,1,8,0:0:0:0:
456,96,155501,1,8,0:0:0:0:
232,100,155726,6,0,P|144:120|60:56,1,190,4|8,0:0|0:0,0:0:0:0:
248,12,156065,1,0,0:0:0:0:
248,12,156178,2,0,P|316:64|288:168,1,190,0|8,0:0|0:0,0:0:0:0:
224,216,156516,2,0,B|232:300|312:304|312:304|344:272|380:284,1,190
448,248,156854,2,0,P|436:188|420:144,1,95,8|0,0:0|0:0,0:0:0:0:
384,68,157080,1,8,0:0:0:0:
100,188,157305,1,8,0:0:0:0:
296,16,157531,6,0,P|296:88|324:208,1,190,4|8,0:0|0:0,0:0:0:0:
312,276,157869,1,0,0:0:0:0:
256,324,157982,1,8,0:0:0:0:
180,320,158095,1,8,0:0:0:0:
120,272,158208,1,8,0:0:0:0:
116,196,158320,1,12,0:0:0:0:
112,128,162493,5,8,0:0:0:0:
112,128,162606,1,8,0:0:0:0:
112,128,162719,1,8,0:0:0:0:
112,128,162832,1,8,0:0:0:0:
112,128,162945,6,0,P|176:136|276:60,1,190,4|8,0:0|0:0,0:0:0:0:
412,144,163283,2,0,P|348:136|248:212,1,190,0|0,0:0|0:0,0:0:0:0:
224,276,163621,1,8,0:0:0:0:
148,292,163734,1,0,0:0:0:0:
76,264,163847,2,0,B|64:212|64:212|120:156|84:76,1,190,0|8,0:0|0:0,0:0:0:0:
168,32,164185,2,0,L|276:12,1,95
356,32,164411,2,0,P|332:88|316:152,2,95,0|8|0,0:0|0:0|0:0,0:0:0:0:
420,104,164749,6,0,P|468:124|512:136,1,95,4|0,0:0|0:0,0:0:0:0:
322,121,164975,2,0,P|274:101|230:89,1,95,8|0,0:0|0:0,0:0:0:0:
384,192,165200,2,0,P|432:212|476:224,1,95,0|0,0:0|0:0,0:0:0:0:
292,216,165426,2,0,P|244:196|200:184,1,95,8|0,0:0|0:0,0:0:0:0:
80,160,165651,1,0,0:0:0:0:
80,160,165764,1,0,0:0:0:0:
80,160,165877,2,0,L|88:268,1,95,8|0,0:0|0:0,0:0:0:0:
192,360,166102,1,8,0:0:0:0:
256,340,166215,1,8,0:0:0:0:
324,344,166328,1,8,0:0:0:0:
388,324,166441,1,8,0:0:0:0:
456,328,166554,6,0,B|432:256|432:256|424:188,1,142.5,6|0,0:0|0:0,0:0:0:0:
424,152,166779,2,0,P|396:112|304:80,1,142.5,10|0,0:0|0:0,0:0:0:0:
272,80,167005,2,0,P|228:104|96:48,1,190,2|8,0:0|0:0,0:0:0:0:
48,112,167343,1,8,0:0:0:0:
56,188,167456,2,0,P|64:236|68:304,2,95,8|8|8,0:0|0:0|0:0,0:0:0:0:
136,176,167794,2,0,P|208:236|316:216,1,190,8|8,0:0|0:0,0:0:0:0:
352,168,168132,2,0,P|384:132|436:108,1,95,8|0,0:0|0:0,0:0:0:0:
436,200,168358,6,0,B|432:256|464:316|464:316|448:312|424:312,1,142.5,6|0,0:0|0:0,0:0:0:0:
284,288,168584,2,0,B|288:232|256:172|256:172|272:176|296:176,1,142.5,10|0,0:0|0:0,0:0:0:0:
348,76,168809,2,0,B|360:128|352:188|352:188|368:240|364:276,1,190,2|8,0:0|0:0,0:0:0:0:
348,340,169148,1,0,0:0:0:0:
276,368,169260,2,0,P|236:344|208:304,1,95,8|8,0:0|0:0,0:0:0:0:
292,208,169486,2,0,P|332:232|360:272,1,95,8|8,0:0|0:0,0:0:0:0:
284,288,169711,1,8,0:0:0:0:
288,292,169824,1,8,0:0:0:0:
292,296,169937,1,8,0:0:0:0:
296,300,170050,1,8,0:0:0:0:
300,304,170163,6,0,P|344:344|392:368,1,95,4|0,0:0|0:0,0:0:0:0:
384,256,170388,2,0,P|424:212|448:164,1,95,8|0,0:0|0:0,0:0:0:0:
336,164,170614,2,0,P|292:124|244:100,1,95,0|0,0:0|0:0,0:0:0:0:
248,212,170839,2,0,P|208:256|184:304,1,95,8|0,0:0|0:0,0:0:0:0:
128,356,171065,1,0,0:0:0:0:
72,320,171178,1,0,0:0:0:0:
60,256,171290,1,8,0:0:0:0:
92,200,171403,2,0,B|136:168|160:96|160:96|228:88,1,190
384,148,171742,2,0,L|288:160,1,95,8|0,0:0|0:0,0:0:0:0:
204,228,171967,6,0,B|212:288|192:344|192:344|152:328|152:328|112:364|60:372|24:344,1,285,4|0,0:0|0:0,0:0:0:0:
308,228,172418,2,0,B|300:288|320:344|320:344|360:328|360:328|400:364|452:372|488:344,1,285,0|0,0:0|0:0,0:0:0:0:
488,260,172869,2,0,P|444:216|420:184,1,95
380,104,173095,2,0,P|324:72|284:56,1,95,8|0,0:0|0:0,0:0:0:0:
220,40,173320,1,8,0:0:0:0:
144,56,173433,1,8,0:0:0:0:
80,104,173546,1,8,0:0:0:0:
60,180,173659,1,8,0:0:0:0:
72,256,173772,6,0,P|168:300|264:312,1,190,4|8,0:0|0:0,0:0:0:0:
440,288,174110,2,0,P|344:244|248:232,1,190,0|0,0:0|0:0,0:0:0:0:
168,204,174448,2,0,P|188:136|208:100,1,95,8|0,0:0|0:0,0:0:0:0:
240,24,174674,2,0,P|276:64|300:120,2,95,0|0|8,0:0|0:0|0:0,0:0:0:0:
148,32,175012,2,0,B|112:80|100:116|100:116|56:128|24:180,1,190,0|0,0:0|0:0,0:0:0:0:
72,324,175351,1,8,0:0:0:0:
72,324,175463,1,0,0:0:0:0:
72,324,175576,6,0,P|80:272|188:192,1,190,4|8,0:0|0:0,0:0:0:0:
280,196,175914,2,0,B|340:188|388:236|388:236|372:200|384:160,1,190
336,24,176253,2,0,P|320:72|320:132,1,95,8|0,0:0|0:0,0:0:0:0:
436,328,176478,2,0,P|460:244|464:140,1,190,0|8,0:0|0:0,0:0:0:0:
224,104,176817,2,0,P|200:188|196:292,1,190,0|0,0:0|0:0,0:0:0:0:
332,204,177155,1,8,0:0:0:0:
332,204,177268,1,8,0:0:0:0:
332,204,177381,6,0,B|332:160|316:124|316:124|372:116|412:68,1,190,4|8,0:0|0:0,0:0:0:0:
420,224,177719,2,0,P|340:292|268:268,1,190
240,188,178057,2,0,B|244:156|220:132|220:132|192:144|164:144,1,95,8|0,0:0|0:0,0:0:0:0:
100,176,178283,2,0,P|76:232|84:368,1,190,0|8,0:0|0:0,0:0:0:0:
160,368,178621,1,0,0:0:0:0:
224,324,178734,2,0,P|252:284|284:244,1,95
376,264,178960,2,0,P|348:304|316:344,1,95,8|0,0:0|0:0,0:0:0:0:
180,236,179185,6,0,P|208:196|240:156,1,95,4|0,0:0|0:0,0:0:0:0:
328,180,179411,2,0,P|356:140|388:100,1,95,8|0,0:0|0:0,0:0:0:0:
120,156,179636,2,0,P|148:116|180:76,1,95,0|0,0:0|0:0,0:0:0:0:
272,76,179862,2,0,P|300:36|332:-4,1,95,8|0,0:0|0:0,0:0:0:0:
496,124,180087,1,0,0:0:0:0:
496,124,180200,1,0,0:0:0:0:
496,124,180313,2,0,P|468:164|436:204,1,95,8|0,0:0|0:0,0:0:0:0:
392,260,180538,1,8,0:0:0:0:
324,292,180651,1,8,0:0:0:0:
252,268,180764,1,8,0:0:0:0:
224,196,180877,1,8,0:0:0:0:
252,124,180990,6,0,P|216:72|120:64,1,142.5,6|0,0:0|0:0,0:0:0:0:
104,64,181215,2,0,B|68:84|68:84|72:136|20:204,1,142.5,10|0,0:0|0:0,0:0:0:0:
32,216,181441,2,0,P|64:296|160:308,1,190,2|8,0:0|0:0,0:0:0:0:
224,272,181779,1,8,0:0:0:0:
300,268,181892,2,0,P|356:256|404:260,2,95,8|8|8,0:0|0:0|0:0,0:0:0:0:
260,204,182230,2,0,P|256:128|276:12,1,190,8|0,0:0|0:0,0:0:0:0:
428,48,182569,2,0,P|384:84|352:104,1,95,8|0,0:0|0:0,0:0:0:0:
364,200,182794,6,0,B|384:216|384:216|376:280|440:316,1,142.5,6|0,0:0|0:0,0:0:0:0:
308,256,183020,2,0,B|288:240|288:240|296:176|232:140,1,142.5,10|0,0:0|0:0,0:0:0:0:
264,316,183245,2,0,P|216:348|72:304,1,190,2|8,0:0|0:0,0:0:0:0:
60,256,183584,1,0,0:0:0:0:
72,180,183696,2,0,P|88:128|112:88,1,95,8|8,0:0|0:0,0:0:0:0:
236,224,183922,2,0,P|192:180|168:148,1,95,8|8,0:0|0:0,0:0:0:0:
200,60,184148,1,8,0:0:0:0:
200,60,184260,1,8,0:0:0:0:
200,60,184373,1,8,0:0:0:0:
200,60,184486,1,8,0:0:0:0:
200,60,184599,6,0,L|408:16,1,190,4|8,0:0|0:0,0:0:0:0:
440,80,184937,1,0,0:0:0:0:
404,152,185050,2,0,P|396:200|392:268,2,95,0|0|8,0:0|0:0|0:0,0:0:0:0:
316,220,185388,1,0,0:0:0:0:
316,220,185501,2,0,P|268:300|156:296,1,190,0|8,0:0|0:0,0:0:0:0:
76,304,185839,2,0,P|124:224|236:228,1,190,0|0,0:0|0:0,0:0:0:0:
256,132,186178,2,0,L|256:28,1,95,8|0,0:0|0:0,0:0:0:0:
344,60,186403,6,0,B|388:60|388:120|388:120|360:132|344:152|344:152|356:200|316:256|316:256|336:280|364:284,1,285,4|0,0:0|0:0,0:0:0:0:
168,324,186854,2,0,B|124:324|124:264|124:264|152:252|168:232|168:232|156:184|196:128|196:128|176:104|148:100,1,285,0|0,0:0|0:0,0:0:0:0:
256,200,187305,2,0,P|240:248|256:324,1,95
324,352,187531,2,0,P|340:304|324:228,1,95,8|0,0:0|0:0,0:0:0:0:
328,180,187757,1,8,0:0:0:0:
276,124,187869,1,8,0:0:0:0:
200,132,187982,1,8,0:0:0:0:
148,188,188095,1,8,0:0:0:0:
156,264,188208,6,0,B|116:256|80:280|80:280|28:220|64:136,1,227.999993041992,4|0,0:0|0:0,0:0:0:0:
356,120,188546,2,0,B|396:128|432:104|432:104|484:164|448:248,1,227.999993041992,8|0,0:0|0:0,0:0:0:0:
424,316,188884,1,8,0:0:0:0:
348,340,188997,1,8,0:0:0:0:
292,288,189110,6,0,B|296:268|316:256|316:256|328:212|376:188|376:188|392:160|380:132|380:132|396:96|436:108,1,246.999988693238,4|0,0:0|0:0,0:0:0:0:
220,288,189448,2,0,B|216:268|196:256|196:256|184:212|136:188|136:188|120:160|132:132|132:132|116:96|76:108,1,246.999988693238,8|0,0:0|0:0,0:0:0:0:
256,48,189787,1,8,0:0:0:0:
256,128,189899,1,8,0:0:0:0:
256,208,190012,6,0,B|188:220|168:296|168:296|132:252|132:252|116:296|116:296|92:272|92:272|80:296,1,285.000010871888,4|0,0:0|0:0,0:0:0:0:
256,208,190351,2,0,B|324:220|344:296|344:296|380:252|380:252|396:296|396:296|420:272|420:272|432:296,1,285.000010871888,8|0,0:0|0:0,0:0:0:0:
256,48,190689,1,8,0:0:0:0:
256,336,190914,1,12,0:0:0:0:
256,336,191140,2,0,L|256:232,1,95,8|8,0:0|0:0,0:0:0:0:
256,128,191366,2,0,P|296:172|336:200,1,95,8|8,0:0|0:0,0:0:0:0:
352,288,191591,2,0,P|392:244|432:216,1,95,8|8,0:0|0:0,0:0:0:0:
388,128,191817,6,0,L|384:24,1,95,4|0,0:0|0:0,0:0:0:0:
288,84,192042,2,0,L|292:188,1,95,8|0,0:0|0:0,0:0:0:0:
380,224,192268,2,0,P|288:276|208:240,1,190,0|8,0:0|0:0,0:0:0:0:
192,152,192606,2,0,P|140:96|32:108,1,190
36,264,192945,2,0,P|76:220|100:176,1,95,8|0,0:0|0:0,0:0:0:0:
136,276,193170,1,0,0:0:0:0:
136,276,193283,1,0,0:0:0:0:
136,276,193396,2,0,P|184:264|232:260,1,95,8|0,0:0|0:0,0:0:0:0:
316,304,193621,6,0,L|304:208,1,95,4|0,0:0|0:0,0:0:0:0:
408,140,193847,2,0,P|404:174|396:234,1,95,8|0,0:0|0:0,0:0:0:0:
316,112,194072,2,0,P|244:76|156:160,1,190,0|8,0:0|0:0,0:0:0:0:
152,240,194411,2,0,B|168:300|168:300|228:320|276:368,1,190
392,300,194749,2,0,P|344:252|296:220,1,95,8|0,0:0|0:0,0:0:0:0:
260,192,194975,1,0,0:0:0:0:
184,188,195087,1,0,0:0:0:0:
116,228,195200,2,0,P|96:184|84:140,1,95,8|8,0:0|0:0,0:0:0:0:
148,64,195426,6,0,P|200:56|248:40,1,95,4|0,0:0|0:0,0:0:0:0:
380,88,195651,2,0,P|328:96|280:112,1,95,8|0,0:0|0:0,0:0:0:0:
156,148,195877,2,0,P|124:200|144:332,1,190,0|8,0:0|0:0,0:0:0:0:
208,244,196215,2,0,L|-4:208,1,190
156,148,196554,2,0,L|272:168,1,95,8|0,0:0|0:0,0:0:0:0:
288,232,196779,1,0,0:0:0:0:
364,248,196892,1,0,0:0:0:0:
424,200,197005,2,0,P|436:156|440:100,1,95,8|0,0:0|0:0,0:0:0:0:
256,192,197230,12,4,198584,0:0:0:0:
112,288,199035,6,0,L|212:272,1,95,4|0,0:0|0:0,0:0:0:0:
145,201,199260,2,0,L|245:185,1,95,8|0,0:0|0:0,0:0:0:0:
296,256,199486,2,0,P|324:160|264:96,1,190,0|8,0:0|0:0,0:0:0:0:
86,130,199824,2,0,P|58:226|118:290,1,190,0|0,0:0|0:0,0:0:0:0:
176,112,200163,2,0,P|152:64|100:28,1,95,8|0,0:0|0:0,0:0:0:0:
145,201,200388,1,0,0:0:0:0:
145,201,200501,1,0,0:0:0:0:
145,201,200614,2,0,P|197:201|241:185,1,95,8|0,0:0|0:0,0:0:0:0:
264,100,200839,6,0,P|288:56|328:16,1,95,4|0,0:0|0:0,0:0:0:0:
424,32,201065,2,0,P|400:76|360:116,1,95,8|0,0:0|0:0,0:0:0:0:
320,188,201290,2,0,P|376:256|472:248,1,190,0|8,0:0|0:0,0:0:0:0:
412,176,201629,2,0,P|380:236|436:336,1,190
496,168,201967,2,0,L|480:72,1,95,8|0,0:0|0:0,0:0:0:0:
400,92,202193,2,0,P|344:104|288:112,1,95
148,84,202418,2,0,P|204:72|260:64,1,95,8|8,0:0|0:0,0:0:0:0:
236,144,202644,5,4,0:0:0:0:
228,220,202757,1,0,0:0:0:0:
280,272,202869,1,8,0:0:0:0:
356,264,202982,1,0,0:0:0:0:
400,204,203095,2,0,P|380:120|284:96,1,190,0|8,0:0|0:0,0:0:0:0:
164,176,203433,2,0,B|224:168|268:228|268:228|320:176,1,190
180,268,203772,2,0,P|152:312|140:372,1,95,8|0,0:0|0:0,0:0:0:0:
84,232,203997,1,0,0:0:0:0:
84,232,204110,1,0,0:0:0:0:
84,232,204223,2,0,P|72:176|80:124,1,95,8|0,0:0|0:0,0:0:0:0:
136,60,204448,6,0,P|192:80|224:100,1,95,4|0,0:0|0:0,0:0:0:0:
380,208,204674,2,0,P|324:188|292:168,1,95,8|0,0:0|0:0,0:0:0:0:
136,264,204899,2,0,P|192:244|224:224,1,95,0|0,0:0|0:0,0:0:0:0:
376,8,205125,2,0,P|320:28|288:48,1,95,8|0,0:0|0:0,0:0:0:0:
248,112,205351,1,8,0:0:0:0:
272,184,205463,1,8,0:0:0:0:
264,260,205576,1,8,0:0:0:0:
208,308,205689,1,8,0:0:0:0:
132,296,205802,1,8,0:0:0:0:
80,240,205914,1,8,0:0:0:0:
64,164,206027,1,8,0:0:0:0:
84,92,206140,1,8,0:0:0:0:
144,44,206253,6,0,P|240:8|376:120,2,285,4|8|8,0:0|0:0|0:0,0:0:0:0:
368,340,207155,2,0,P|272:376|136:264,2,285,4|8|8,0:0|0:0|0:0,0:0:0:0:
412,276,207945,1,0,0:0:0:0:
388,204,208057,2,0,P|368:136|428:32,1,190,4|8,0:0|0:0,0:0:0:0:
312,0,208396,2,0,P|263:51|149:54,1,190,4|8,0:0|0:0,0:0:0:0:
116,164,208734,2,0,P|184:180|244:277,1,190,4|12,0:0|0:0,0:0:0:0:
