osu file format v12

[General]
AudioFilename: Imagination Forest.mp3
AudioLeadIn: 0
PreviewTime: 65590
Countdown: 0
SampleSet: Normal
StackLeniency: 0.7
Mode: 3
LetterboxInBreaks: 0
SpecialStyle: 0
WidescreenStoryboard: 0

[Editor]
DistanceSpacing: 0.9
BeatDivisor: 4
GridSize: 8

[Metadata]
Title:Souzou Forest
TitleUnicode:想像フォレスト
Artist:yuikonnu
ArtistUnicode:ゆいこんぬ
Creator:indyinyou
Version:Basic Drum
Source:
Tags:Imagination Nico Nico Douga vocaloid3 IA vocaloid jin
BeatmapID:304889
BeatmapSetID:114599

[Difficulty]
HPDrainRate:7
CircleSize:7
OverallDifficulty:7
ApproachRate:5
SliderMultiplier:1.4
SliderTickRate:1

[Events]
//Background and Video events
0,0,"BG.jpg",0,0
Video,0,"PV.flv"
//Break Periods
//Storyboard Layer 0 (Background)
//Storyboard Layer 1 (Fail)
//Storyboard Layer 2 (Pass)
//Storyboard Layer 3 (Foreground)
//Storyboard Sound Samples
//Background Colour Transformations
3,100,163,162,255

[TimingPoints]
257,333.333333333333,4,1,1,65,1,0
65590,-100,4,1,1,70,0,1
86923,-100,4,1,1,65,0,0
130923,-100,4,1,1,70,0,1
152256,-100,4,1,1,65,0,0
196256,-100,4,1,1,70,0,1
217590,-100,4,1,1,65,0,0

[HitObjects]
109,192,22423,1,0,0:0:0:70:normal-hitwhistle.wav
256,192,22590,1,0,0:0:0:70:normal-hitclap.wav
402,192,22756,1,0,0:0:0:70:normal-hitwhistle.wav
36,192,22923,1,0,0:0:0:70:drum-hitfinish.wav
475,192,22923,1,0,0:0:0:70:normal-hitwhistle.wav
182,192,23256,1,0,0:0:0:70:normal-hitwhistle.wav
329,192,23590,1,0,0:0:0:70:normal-hitwhistle.wav
109,192,23923,1,0,0:0:0:70:normal-hitwhistle.wav
402,192,24256,1,0,0:0:0:70:normal-hitwhistle.wav
182,192,24590,1,0,0:0:0:70:normal-hitwhistle.wav
329,192,24923,1,0,0:0:0:70:normal-hitwhistle.wav
109,192,25256,1,0,0:0:0:70:normal-hitwhistle.wav
402,192,25590,1,0,0:0:0:70:normal-hitwhistle.wav
36,192,25923,1,0,0:0:0:70:normal-hitwhistle.wav
475,192,26256,1,0,0:0:0:70:normal-hitwhistle.wav
109,192,26590,1,0,0:0:0:70:normal-hitwhistle.wav
402,192,26923,1,0,0:0:0:70:normal-hitwhistle.wav
36,192,27256,1,0,0:0:0:70:normal-hitwhistle.wav
475,192,27590,1,0,0:0:0:70:normal-hitwhistle.wav
109,192,27923,1,0,0:0:0:70:normal-hitwhistle.wav
402,192,28256,1,0,0:0:0:70:normal-hitwhistle.wav
182,192,28590,1,0,0:0:0:70:normal-hitwhistle.wav
329,192,28923,1,0,0:0:0:70:normal-hitwhistle.wav
36,192,29256,1,0,0:0:0:70:normal-hitwhistle.wav
475,192,29590,1,0,0:0:0:70:normal-hitwhistle.wav
182,192,29923,1,0,0:0:0:70:normal-hitwhistle.wav
329,192,30256,1,0,0:0:0:70:normal-hitwhistle.wav
36,192,30590,1,0,0:0:0:70:normal-hitwhistle.wav
475,192,30923,1,0,0:0:0:70:normal-hitwhistle.wav
182,192,31256,1,0,0:0:0:70:normal-hitwhistle.wav
329,192,31590,1,0,0:0:0:70:normal-hitwhistle.wav
109,192,31923,1,0,0:0:0:70:normal-hitwhistle.wav
402,192,32256,1,0,0:0:0:70:normal-hitwhistle.wav
182,192,32590,1,0,0:0:0:70:normal-hitwhistle.wav
329,192,32923,1,0,0:0:0:70:normal-hitwhistle.wav
256,192,33256,1,0,0:0:0:70:normal-hitwhistle.wav
475,192,33590,1,0,0:0:0:70:normal-hitwhistle.wav
36,192,33590,1,0,0:0:0:60:drum-hitfinish.wav
329,192,33923,1,10,0:0:0:0:
109,192,34256,1,0,0:0:0:70:normal-hitwhistle.wav
329,192,34590,1,10,0:0:0:0:
36,192,34923,1,0,0:0:0:70:normal-hitwhistle.wav
475,192,35256,1,10,0:0:0:0:
109,192,35590,1,0,0:0:0:70:normal-hitwhistle.wav
475,192,35923,1,10,0:0:0:0:
256,192,36256,1,0,0:0:0:70:normal-hitwhistle.wav
182,192,36590,1,10,0:0:0:0:
402,192,36923,1,0,0:0:0:70:normal-hitwhistle.wav
182,192,37256,1,10,0:0:0:0:
475,192,37590,1,0,0:0:0:70:normal-hitwhistle.wav
36,192,37923,1,10,0:0:0:0:
402,192,38256,1,0,0:0:0:70:normal-hitwhistle.wav
36,192,38590,1,10,0:0:0:0:
256,192,38923,1,0,0:0:0:70:normal-hitwhistle.wav
402,192,39256,1,10,0:0:0:0:
36,192,39590,1,0,0:0:0:70:normal-hitwhistle.wav
402,192,39923,1,10,0:0:0:0:
182,192,40256,1,0,0:0:0:70:normal-hitwhistle.wav
402,192,40590,1,10,0:0:0:0:
109,192,40923,1,0,0:0:0:70:normal-hitwhistle.wav
402,192,41256,1,10,0:0:0:0:
256,192,41590,1,0,0:0:0:70:normal-hitwhistle.wav
109,192,41923,1,10,0:0:0:0:
402,192,42256,1,0,0:0:0:70:normal-hitwhistle.wav
256,192,42590,1,10,0:0:0:0:
475,192,42756,1,0,0:0:0:30:normal-hitfinish.wav
36,192,42756,1,0,0:0:0:70:normal-hitwhistle.wav
182,192,43256,1,0,0:0:0:70:normal-hitclap.wav
329,192,43590,1,0,0:0:0:70:normal-hitclap.wav
109,192,43756,1,0,0:0:0:70:normal-hitwhistle.wav
402,192,43923,1,0,0:0:0:70:normal-hitclap.wav
36,192,44090,1,0,0:0:0:60:drum-hitfinish.wav
475,192,44090,1,0,0:0:0:70:normal-hitwhistle.wav
109,192,44590,1,0,0:0:0:70:normal-hitclap.wav
402,192,44923,1,0,0:0:0:70:normal-hitclap.wav
256,192,45090,1,0,0:0:0:70:normal-hitwhistle.wav
109,192,45256,1,0,0:0:0:70:normal-hitclap.wav
475,192,45423,1,0,0:0:0:40:normal-hitfinish.wav
182,192,45423,1,0,0:0:0:70:normal-hitwhistle.wav
402,192,45923,1,0,0:0:0:70:normal-hitclap.wav
109,192,46256,1,0,0:0:0:70:normal-hitwhistle.wav
256,192,46423,1,0,0:0:0:70:normal-hitwhistle.wav
402,192,46590,1,0,0:0:0:70:normal-hitclap.wav
36,192,46756,1,0,0:0:0:40:drum-hitfinish2.wav
329,192,46756,1,0,0:0:0:70:normal-hitwhistle.wav
36,192,47256,1,0,0:0:0:70:normal-hitclap.wav
402,192,47590,1,0,0:0:0:70:normal-hitwhistle.wav
109,192,47756,1,0,0:0:0:70:normal-hitwhistle.wav
182,192,47923,1,0,0:0:0:70:normal-hitclap.wav
329,192,48090,1,0,0:0:0:70:normal-hitwhistle.wav
475,192,48090,1,0,0:0:0:30:normal-hitfinish.wav
475,192,48590,1,0,0:0:0:70:normal-hitclap.wav
109,192,48923,1,0,0:0:0:70:normal-hitwhistle.wav
402,192,49090,1,0,0:0:0:70:normal-hitwhistle.wav
329,192,49256,1,0,0:0:0:70:normal-hitclap.wav
182,192,49423,1,0,0:0:0:70:normal-hitclap.wav
36,192,49590,1,0,0:0:0:45:drum-hitfinish.wav
475,192,49590,1,0,0:0:0:70:normal-hitwhistle.wav
402,192,49923,1,12,0:0:0:0:
36,192,50256,1,6,0:0:0:0:
402,192,50590,1,12,0:0:0:0:
329,192,50923,1,0,0:0:0:50:normal-hitfinish.wav
109,192,51256,1,12,0:0:0:0:
475,192,51590,1,6,0:0:0:0:
109,192,51923,1,12,0:0:0:0:
182,192,52256,1,0,0:0:0:50:normal-hitfinish.wav
402,192,52590,1,12,0:0:0:0:
109,192,52923,1,6,0:0:0:0:
402,192,53090,1,0,0:0:0:70:normal-hitwhistle.wav
182,192,53256,1,0,0:0:0:70:normal-hitclap.wav
329,192,53423,1,0,0:0:0:70:normal-hitclap.wav
109,192,53756,1,0,0:0:0:70:normal-hitclap.wav
402,192,53923,1,0,0:0:0:70:normal-hitclap.wav
182,192,54256,1,0,0:0:0:70:normal-hitclap.wav
329,192,54423,1,0,0:0:0:70:normal-hitclap.wav
182,192,54590,1,0,0:0:0:70:normal-hitclap.wav
475,192,54756,1,0,0:0:0:70:normal-hitwhistle.wav
36,192,54756,1,0,0:0:0:50:drum-hitfinish.wav
109,192,55090,1,0,0:0:0:70:normal-hitclap.wav
402,192,55256,1,0,0:0:0:70:normal-hitclap.wav
475,192,55590,1,0,0:0:0:70:normal-hitwhistle.wav
329,192,55756,1,0,0:0:0:70:normal-hitwhistle.wav
256,192,55923,1,0,0:0:0:70:normal-hitclap.wav
36,192,56090,1,0,0:0:0:30:normal-hitfinish.wav
182,192,56090,1,0,0:0:0:70:normal-hitwhistle.wav
109,192,56590,1,0,0:0:0:70:normal-hitclap.wav
182,192,56923,1,0,0:0:0:70:normal-hitwhistle.wav
402,192,57090,1,0,0:0:0:70:normal-hitwhistle.wav
329,192,57256,1,0,0:0:0:70:normal-hitclap.wav
256,192,57423,1,0,0:0:0:40:drim-hitwhistle2.wav
109,192,57423,1,0,0:0:0:70:normal-hitwhistle.wav
36,192,57923,1,0,0:0:0:70:normal-hitclap.wav
402,192,58256,1,0,0:0:0:70:normal-hitwhistle.wav
182,192,58423,1,0,0:0:0:70:normal-hitwhistle.wav
256,192,58590,1,0,0:0:0:70:normal-hitclap.wav
475,192,58756,1,0,0:0:0:30:normal-hitfinish.wav
329,192,58756,1,0,0:0:0:70:normal-hitwhistle.wav
329,192,59256,1,0,0:0:0:70:normal-hitclap.wav
182,192,59256,1,0,0:0:0:70:normal-hitwhistle.wav
402,192,59590,1,0,0:0:0:70:normal-hitwhistle.wav
109,192,59756,1,0,0:0:0:70:normal-hitwhistle.wav
329,192,59923,1,0,0:0:0:70:normal-hitclap.wav
182,192,60090,1,0,0:0:0:70:normal-hitclap.wav
475,192,60256,1,0,0:0:0:70:normal-hitwhistle.wav
36,192,60256,1,0,0:0:0:50:drum-hitfinish.wav
402,192,60590,1,12,0:0:0:0:
109,192,60923,1,6,0:0:0:0:
402,192,61256,1,12,0:0:0:0:
256,192,61590,1,6,0:0:0:0:
109,192,61923,1,12,0:0:0:0:
402,192,62256,1,6,0:0:0:0:
256,192,62590,1,10,0:0:0:0:
36,192,62756,1,0,0:0:0:70:normal-hitwhistle.wav
475,192,62756,1,0,0:0:0:50:drum-hitfinish.wav
329,192,63090,1,0,0:0:0:70:normal-hitwhistle.wav
475,192,63256,1,0,0:0:0:70:normal-hitclap.wav
182,192,63423,1,0,0:0:0:70:normal-hitwhistle.wav
36,192,63590,1,0,0:0:0:70:normal-hitclap.wav
256,192,64090,1,0,0:0:0:70:normal-hitwhistle.wav
329,192,64256,1,0,0:0:0:70:normal-hitclap.wav
182,192,64423,1,0,0:0:0:60:normal-hitwhistle.wav
36,192,64590,1,0,0:0:0:45:drum-hitfinish.wav
475,192,64590,1,0,0:0:0:70:normal-hitwhistle.wav
109,192,65090,1,0,0:0:0:70:normal-hitwhistle.wav
402,192,65256,1,0,0:0:0:70:normal-hitclap.wav
475,192,65590,1,0,0:0:0:70:normal-hitwhistle.wav
36,192,65590,1,0,0:0:0:65:drum-hitfinish.wav
256,192,65923,1,12,0:0:0:0:
402,192,66256,1,6,0:0:0:0:
109,192,66590,1,12,0:0:0:0:
475,192,66923,1,0,0:0:0:60:normal-hitfinish.wav
182,192,67256,1,12,0:0:0:0:
402,192,67590,1,6,0:0:0:0:
109,192,67923,1,12,0:0:0:0:
256,192,68256,1,6,0:0:0:0:
475,192,68590,1,12,0:0:0:0:
109,192,68923,1,6,0:0:0:0:
475,192,69256,1,12,0:0:0:0:
329,192,69590,1,0,0:0:0:60:normal-hitfinish.wav
36,192,69923,1,12,0:0:0:0:
475,192,70256,1,6,0:0:0:0:
182,192,70590,1,12,0:0:0:0:
256,192,70923,1,6,0:0:0:0:
109,192,71256,1,12,0:0:0:0:
182,192,71590,1,6,0:0:0:0:
109,192,71923,1,12,0:0:0:0:
256,192,72256,1,0,0:0:0:60:normal-hitfinish.wav
402,192,72590,1,12,0:0:0:0:
329,192,72923,1,6,0:0:0:0:
402,192,73256,1,12,0:0:0:0:
256,192,73590,1,6,0:0:0:0:
475,192,73923,1,12,0:0:0:0:
36,192,74256,1,6,0:0:0:0:
329,192,74590,1,12,0:0:0:0:
182,192,74923,1,0,0:0:0:60:normal-hitfinish.wav
475,192,75256,1,12,0:0:0:0:
36,192,75590,1,6,0:0:0:0:
109,192,75923,1,0,0:0:0:30:drum-hitfinish.wav
402,192,75923,1,0,0:0:0:70:normal-hitclap.wav
256,192,76090,1,0,0:0:0:70:normal-hitclap.wav
36,192,76256,1,0,0:0:0:55:drum-hitfinish.wav
475,192,76256,1,0,0:0:0:30:normal-hitwhistle.wav
182,192,76590,1,12,0:0:0:0:
329,192,76923,1,6,0:0:0:0:
182,192,77256,1,12,0:0:0:0:
475,192,77590,1,0,0:0:0:60:normal-hitfinish.wav
329,192,77923,1,12,0:0:0:0:
182,192,78256,1,6,0:0:0:0:
329,192,78590,1,12,0:0:0:0:
256,192,78923,1,6,0:0:0:0:
402,192,79256,1,12,0:0:0:0:
109,192,79590,1,6,0:0:0:0:
402,192,79923,1,12,0:0:0:0:
36,192,80256,1,0,0:0:0:60:normal-hitfinish.wav
109,192,80590,1,12,0:0:0:0:
402,192,80923,1,6,0:0:0:0:
109,192,81256,1,12,0:0:0:0:
256,192,81590,1,6,0:0:0:0:
36,192,81923,1,12,0:0:0:0:
475,192,82256,1,6,0:0:0:0:
36,192,82590,1,12,0:0:0:0:
329,192,82923,1,0,0:0:0:60:normal-hitfinish.wav
36,192,83256,1,12,0:0:0:0:
475,192,83590,1,6,0:0:0:0:
182,192,83923,1,12,0:0:0:0:
256,192,84256,1,6,0:0:0:0:
329,192,84590,1,12,0:0:0:0:
182,192,84923,1,6,0:0:0:0:
329,192,85256,1,12,0:0:0:0:
402,192,85590,1,0,0:0:0:30:normal-hitwhistle.wav
109,192,85590,1,0,0:0:0:55:drum-hitfinish.wav
256,192,85756,1,0,0:0:0:70:normal-hitwhistle.wav
36,192,85923,1,0,0:0:0:50:drum-hitfinish.wav
475,192,85923,1,0,0:0:0:70:normal-hitwhistle.wav
109,192,87590,1,0,0:0:0:70:normal-hitclap.wav
402,192,87590,1,0,0:0:0:45:drum-hitfinish.wav
329,192,87923,1,0,0:0:0:70:normal-hitclap.wav
182,192,88090,1,0,0:0:0:45:drim-hitwhistle2.wav
475,192,88256,1,0,0:0:0:70:normal-hitwhistle.wav
36,192,88256,1,0,0:0:0:55:drum-hitfinish.wav
182,192,88590,1,0,0:0:0:70:normal-hitwhistle.wav
329,192,88923,1,0,0:0:0:70:normal-hitwhistle.wav
182,192,89256,1,0,0:0:0:70:normal-hitwhistle.wav
256,192,89590,1,0,0:0:0:70:normal-hitwhistle.wav
182,192,89923,1,0,0:0:0:70:normal-hitwhistle.wav
329,192,90256,1,0,0:0:0:70:normal-hitwhistle.wav
182,192,90590,1,0,0:0:0:70:normal-hitwhistle.wav
256,192,90923,1,0,0:0:0:70:normal-hitwhistle.wav
109,192,91256,1,0,0:0:0:70:normal-hitwhistle.wav
402,192,91590,1,0,0:0:0:70:normal-hitwhistle.wav
109,192,91923,1,0,0:0:0:70:normal-hitwhistle.wav
256,192,92256,1,0,0:0:0:70:normal-hitwhistle.wav
109,192,92590,1,0,0:0:0:70:normal-hitwhistle.wav
402,192,92923,1,0,0:0:0:70:normal-hitwhistle.wav
109,192,93256,1,0,0:0:0:70:normal-hitwhistle.wav
256,192,93590,1,0,0:0:0:70:normal-hitwhistle.wav
36,192,93923,1,0,0:0:0:70:normal-hitwhistle.wav
182,192,94256,1,0,0:0:0:70:normal-hitwhistle.wav
329,192,94590,1,0,0:0:0:70:normal-hitwhistle.wav
256,192,94923,1,0,0:0:0:70:normal-hitwhistle.wav
475,192,95256,1,0,0:0:0:70:normal-hitwhistle.wav
329,192,95590,1,0,0:0:0:70:normal-hitwhistle.wav
182,192,95923,1,0,0:0:0:70:normal-hitwhistle.wav
256,192,96256,1,0,0:0:0:70:normal-hitwhistle.wav
109,192,96590,1,0,0:0:0:70:normal-hitwhistle.wav
402,192,96923,1,0,0:0:0:70:normal-hitwhistle.wav
256,192,97256,1,0,0:0:0:70:normal-hitwhistle.wav
36,192,97590,1,0,0:0:0:70:normal-hitwhistle.wav
402,192,97923,1,0,0:0:0:70:normal-hitwhistle.wav
109,192,98256,1,0,0:0:0:70:normal-hitwhistle.wav
329,192,98590,1,0,0:0:0:70:normal-hitwhistle.wav
475,192,98923,1,0,0:0:0:50:drum-hitfinish.wav
36,192,98923,1,0,0:0:0:70:normal-hitwhistle.wav
329,192,99256,1,10,0:0:0:0:
109,192,99590,1,0,0:0:0:70:normal-hitwhistle.wav
329,192,99923,1,10,0:0:0:0:
36,192,100256,1,0,0:0:0:70:normal-hitwhistle.wav
402,192,100590,1,10,0:0:0:0:
109,192,100923,1,0,0:0:0:70:normal-hitwhistle.wav
475,192,101256,1,10,0:0:0:0:
256,192,101590,1,0,0:0:0:70:normal-hitwhistle.wav
182,192,101923,1,10,0:0:0:0:
402,192,102256,1,0,0:0:0:70:normal-hitwhistle.wav
182,192,102590,1,10,0:0:0:0:
475,192,102923,1,0,0:0:0:70:normal-hitwhistle.wav
36,192,103256,1,10,0:0:0:0:
402,192,103590,1,0,0:0:0:70:normal-hitwhistle.wav
36,192,103923,1,10,0:0:0:0:
475,192,104256,1,0,0:0:0:70:normal-hitwhistle.wav
109,192,104590,1,10,0:0:0:0:
256,192,104923,1,0,0:0:0:70:normal-hitwhistle.wav
402,192,105256,1,10,0:0:0:0:
36,192,105590,1,0,0:0:0:70:normal-hitwhistle.wav
402,192,105923,1,10,0:0:0:0:
256,192,106256,1,0,0:0:0:70:normal-hitwhistle.wav
109,192,106590,1,10,0:0:0:0:
475,192,106923,1,0,0:0:0:70:normal-hitwhistle.wav
36,192,107256,1,10,0:0:0:0:
256,192,107590,1,0,0:0:0:70:normal-hitwhistle.wav
475,192,107923,1,10,0:0:0:0:
329,192,108090,1,0,0:0:0:50:normal-hitfinish.wav
182,192,108090,1,0,0:0:0:70:normal-hitwhistle.wav
182,192,108590,1,0,0:0:0:70:normal-hitclap.wav
329,192,108923,1,0,0:0:0:70:normal-hitclap.wav
109,192,109090,1,0,0:0:0:70:normal-hitwhistle.wav
329,192,109256,1,0,0:0:0:70:normal-hitclap.wav
475,192,109423,1,0,0:0:0:70:normal-hitwhistle.wav
36,192,109423,1,0,0:0:0:55:drum-hitfinish.wav
329,192,109923,1,0,0:0:0:70:normal-hitclap.wav
36,192,110256,1,0,0:0:0:70:normal-hitwhistle.wav
109,192,110423,1,0,0:0:0:70:normal-hitwhistle.wav
182,192,110590,1,0,0:0:0:70:normal-hitclap.wav
329,192,110756,1,0,0:0:0:70:normal-hitwhistle.wav
475,192,110756,1,0,0:0:0:50:normal-hitfinish.wav
36,192,111256,1,0,0:0:0:70:normal-hitclap.wav
475,192,111590,1,0,0:0:0:70:normal-hitwhistle.wav
182,192,111756,1,0,0:0:0:70:normal-hitwhistle.wav
256,192,111923,1,0,0:0:0:70:normal-hitclap.wav
402,192,112090,1,0,0:0:0:30:drum-hitfinish2.wav
109,192,112090,1,0,0:0:0:40:drim-hitwhistle2.wav
329,192,112590,1,0,0:0:0:70:normal-hitclap.wav
109,192,112923,1,0,0:0:0:70:normal-hitwhistle.wav
402,192,113090,1,0,0:0:0:70:normal-hitwhistle.wav
256,192,113256,1,0,0:0:0:70:normal-hitclap.wav
182,192,113423,1,0,0:0:0:70:normal-hitwhistle.wav
36,192,113423,1,0,0:0:0:30:normal-hitfinish.wav
109,192,113923,1,0,0:0:0:70:normal-hitclap.wav
256,192,114256,1,0,0:0:0:70:normal-hitwhistle.wav
402,192,114423,1,0,0:0:0:70:normal-hitwhistle.wav
182,192,114590,1,0,0:0:0:70:normal-hitclap.wav
329,192,114756,1,0,0:0:0:70:normal-hitclap.wav
475,192,114923,1,0,0:0:0:70:normal-hitwhistle.wav
36,192,114923,1,0,0:0:0:50:drum-hitfinish.wav
256,192,115256,1,12,0:0:0:0:
36,192,115590,1,6,0:0:0:0:
475,192,115923,1,12,0:0:0:0:
329,192,116256,1,0,0:0:0:60:normal-hitfinish.wav
182,192,116590,1,12,0:0:0:0:
36,192,116923,1,6,0:0:0:0:
402,192,117256,1,12,0:0:0:0:
256,192,117590,1,0,0:0:0:60:normal-hitfinish.wav
109,192,117923,1,12,0:0:0:0:
256,192,118256,1,6,0:0:0:0:
329,192,118590,1,12,0:0:0:0:
182,192,118756,1,0,0:0:0:70:normal-hitclap.wav
402,192,119090,1,0,0:0:0:70:normal-hitclap.wav
109,192,119256,1,0,0:0:0:70:normal-hitclap.wav
475,192,119590,1,0,0:0:0:70:normal-hitclap.wav
36,192,119756,1,0,0:0:0:70:normal-hitclap.wav
256,192,119923,1,0,0:0:0:70:normal-hitclap.wav
402,192,120090,1,0,0:0:0:70:normal-hitwhistle.wav
109,192,120090,1,0,0:0:0:60:drum-hitfinish.wav
182,192,120423,1,0,0:0:0:70:normal-hitclap.wav
329,192,120590,1,0,0:0:0:70:normal-hitclap.wav
402,192,120923,1,0,0:0:0:70:normal-hitwhistle.wav
109,192,121090,1,0,0:0:0:70:normal-hitwhistle.wav
329,192,121256,1,0,0:0:0:70:normal-hitclap.wav
36,192,121423,1,0,0:0:0:50:normal-hitfinish.wav
182,192,121423,1,0,0:0:0:70:normal-hitwhistle.wav
329,192,121923,1,0,0:0:0:70:normal-hitclap.wav
109,192,122256,1,0,0:0:0:70:normal-hitwhistle.wav
402,192,122423,1,0,0:0:0:70:normal-hitwhistle.wav
182,192,122590,1,0,0:0:0:70:normal-hitclap.wav
329,192,122756,1,0,0:0:0:70:normal-hitclap.wav
475,192,122756,1,0,0:0:0:40:drum-hitfinish2.wav
36,192,123256,1,0,0:0:0:70:normal-hitclap.wav
402,192,123590,1,0,0:0:0:70:normal-hitwhistle.wav
109,192,123756,1,0,0:0:0:70:normal-hitwhistle.wav
182,192,123923,1,0,0:0:0:70:normal-hitclap.wav
329,192,124090,1,0,0:0:0:50:normal-hitfinish.wav
475,192,124090,1,0,0:0:0:70:normal-hitwhistle.wav
475,192,124590,1,0,0:0:0:70:normal-hitclap.wav
109,192,124923,1,0,0:0:0:70:normal-hitwhistle.wav
402,192,125090,1,0,0:0:0:70:normal-hitwhistle.wav
329,192,125256,1,0,0:0:0:70:normal-hitclap.wav
182,192,125423,1,0,0:0:0:70:normal-hitclap.wav
36,192,125589,1,0,0:0:0:45:drum-hitfinish.wav
475,192,125590,1,0,0:0:0:70:normal-hitwhistle.wav
182,192,125923,1,12,0:0:0:0:
329,192,126256,1,6,0:0:0:0:
182,192,126590,1,12,0:0:0:0:
256,192,126923,1,6,0:0:0:0:
109,192,127256,1,12,0:0:0:0:
402,192,127590,1,6,0:0:0:0:
256,192,127923,1,12,0:0:0:0:
475,192,128090,1,0,0:0:0:50:drum-hitfinish.wav
36,192,128090,1,0,0:0:0:70:normal-hitwhistle.wav
256,192,128423,1,0,0:0:0:70:normal-hitwhistle.wav
36,192,128590,1,0,0:0:0:70:normal-hitclap.wav
256,192,128756,1,0,0:0:0:70:normal-hitwhistle.wav
475,192,128923,1,0,0:0:0:70:normal-hitclap.wav
256,192,129423,1,0,0:0:0:70:normal-hitwhistle.wav
329,192,129590,1,0,0:0:0:50:normal-hitclap.wav
182,192,129756,1,0,0:0:0:60:normal-hitwhistle.wav
475,192,129923,1,0,0:0:0:70:normal-hitwhistle.wav
36,192,129923,1,0,0:0:0:60:drum-hitfinish.wav
109,192,130423,1,0,0:0:0:70:normal-hitwhistle.wav
402,192,130590,1,0,0:0:0:70:normal-hitclap.wav
475,192,130923,1,0,0:0:0:70:normal-hitwhistle.wav
36,192,130923,1,0,0:0:0:60:drum-hitfinish.wav
256,192,131256,1,12,0:0:0:0:
109,192,131590,1,6,0:0:0:0:
402,192,131923,1,12,0:0:0:0:
36,192,132256,1,0,0:0:0:60:normal-hitfinish.wav
256,192,132590,1,12,0:0:0:0:
402,192,132923,1,6,0:0:0:0:
109,192,133256,1,12,0:0:0:0:
256,192,133590,1,6,0:0:0:0:
475,192,133923,1,12,0:0:0:0:
109,192,134256,1,6,0:0:0:0:
329,192,134590,1,12,0:0:0:0:
36,192,134923,1,0,0:0:0:60:normal-hitfinish.wav
475,192,135256,1,12,0:0:0:0:
36,192,135590,1,6,0:0:0:0:
329,192,135923,1,12,0:0:0:0:
256,192,136256,1,6,0:0:0:0:
36,192,136590,1,12,0:0:0:0:
402,192,136923,1,6,0:0:0:0:
182,192,137256,1,12,0:0:0:0:
475,192,137590,1,0,0:0:0:60:normal-hitfinish.wav
36,192,137923,1,12,0:0:0:0:
475,192,138256,1,6,0:0:0:0:
109,192,138590,1,12,0:0:0:0:
256,192,138923,1,6,0:0:0:0:
402,192,139256,1,12,0:0:0:0:
182,192,139590,1,6,0:0:0:0:
329,192,139923,1,12,0:0:0:0:
36,192,140256,1,0,0:0:0:60:normal-hitfinish.wav
182,192,140590,1,0,0:0:0:70:normal-hitclap.wav
329,192,140756,1,0,0:0:0:50:normal-hitclap.wav
256,192,141090,1,0,0:0:0:50:normal-hitclap.wav
109,192,141256,1,0,0:0:0:70:normal-hitclap.wav
402,192,141256,1,0,0:0:0:45:drum-hitfinish.wav
475,192,141590,1,0,0:0:0:70:normal-hitwhistle.wav
36,192,141590,1,0,0:0:0:55:drum-hitfinish.wav
402,192,141923,1,12,0:0:0:0:
109,192,142256,1,6,0:0:0:0:
402,192,142590,1,12,0:0:0:0:
36,192,142923,1,0,0:0:0:60:normal-hitfinish.wav
402,192,143256,1,12,0:0:0:0:
109,192,143590,1,6,0:0:0:0:
402,192,143923,1,12,0:0:0:0:
256,192,144256,1,6,0:0:0:0:
36,192,144590,1,12,0:0:0:0:
475,192,144923,1,6,0:0:0:0:
36,192,145256,1,12,0:0:0:0:
256,192,145590,1,0,0:0:0:60:normal-hitfinish.wav
36,192,145923,1,12,0:0:0:0:
475,192,146256,1,6,0:0:0:0:
36,192,146590,1,12,0:0:0:0:
256,192,146923,1,6,0:0:0:0:
109,192,147256,1,12,0:0:0:0:
402,192,147590,1,6,0:0:0:0:
182,192,147923,1,12,0:0:0:0:
475,192,148256,1,0,0:0:0:60:normal-hitfinish.wav
109,192,148590,1,12,0:0:0:0:
402,192,148923,1,6,0:0:0:0:
182,192,149256,1,12,0:0:0:0:
256,192,149590,1,6,0:0:0:0:
36,192,149923,1,12,0:0:0:0:
256,192,150256,1,6,0:0:0:0:
475,192,150590,1,12,0:0:0:0:
109,192,150923,1,0,0:0:0:70:normal-hitwhistle.wav
402,192,150923,1,0,0:0:0:45:drum-hitfinish.wav
256,192,151090,1,0,0:0:0:70:normal-hitwhistle.wav
475,192,151256,1,0,0:0:0:70:normal-hitwhistle.wav
36,192,151256,1,0,0:0:0:45:drum-hitfinish.wav
256,192,151756,1,0,0:0:0:70:normal-hitwhistle.wav
329,192,151923,1,0,0:0:0:70:normal-hitclap.wav
182,192,152090,1,0,0:0:0:70:normal-hitclap.wav
36,192,152256,1,0,0:0:0:70:normal-hitwhistle.wav
475,192,152256,1,0,0:0:0:50:drum-hitfinish.wav
182,192,152590,1,12,0:0:0:0:
329,192,152923,1,12,0:0:0:0:
36,192,153256,1,12,0:0:0:0:
475,192,153590,1,12,0:0:0:0:
329,192,153923,1,12,0:0:0:0:
182,192,154256,1,12,0:0:0:0:
475,192,154590,1,0,0:0:0:50:normal-hitfinish.wav
182,192,154923,1,12,0:0:0:0:
402,192,155256,1,12,0:0:0:0:
109,192,155590,1,12,0:0:0:0:
256,192,155923,1,12,0:0:0:0:
475,192,156090,1,0,0:0:0:70:normal-hitwhistle.wav
36,192,156090,1,0,0:0:0:50:drum-hitfinish.wav
109,192,156590,1,12,0:0:0:0:
402,192,156923,1,12,0:0:0:0:
256,192,157256,1,6,0:0:0:0:
475,192,157590,1,0,0:0:0:70:normal-hitwhistle.wav
36,192,157590,1,0,0:0:0:50:drum-hitfinish.wav
329,192,157923,1,12,0:0:0:0:
182,192,158256,1,12,0:0:0:0:
36,192,158590,1,12,0:0:0:0:
402,192,158923,1,6,0:0:0:0:
109,192,159256,1,12,0:0:0:0:
256,192,159590,1,12,0:0:0:0:
402,192,159923,1,6,0:0:0:0:
329,192,160256,1,6,0:0:0:0:
475,192,160590,1,12,0:0:0:0:
36,192,160923,1,12,0:0:0:0:
256,192,161256,1,12,0:0:0:0:
402,192,161423,1,0,0:0:0:70:normal-hitwhistle.wav
109,192,161423,1,0,0:0:0:55:drum-hitfinish.wav
182,192,161923,1,0,0:0:0:70:normal-hitclap.wav
329,192,161923,1,0,0:0:0:50:drum-hitfinish.wav
402,192,162256,1,0,0:0:0:70:normal-hitwhistle.wav
109,192,162256,1,0,0:0:0:50:drum-hitfinish.wav
329,192,162590,1,0,0:0:0:70:normal-hitclap.wav
182,192,162756,1,0,0:0:0:70:normal-hitclap.wav
475,192,162923,1,0,0:0:0:55:drum-hitfinish.wav
36,192,162923,1,0,0:0:0:70:normal-hitwhistle.wav
329,192,163256,1,12,0:0:0:0:
36,192,163590,1,6,0:0:0:0:
182,192,163923,1,12,0:0:0:0:
475,192,164256,1,0,0:0:0:60:normal-hitfinish.wav
329,192,164590,1,12,0:0:0:0:
109,192,164923,1,6,0:0:0:0:
402,192,165256,1,12,0:0:0:0:
256,192,165590,1,6,0:0:0:0:
182,192,165923,1,12,0:0:0:0:
329,192,166256,1,6,0:0:0:0:
256,192,166590,1,12,0:0:0:0:
36,192,166923,1,0,0:0:0:60:normal-hitfinish.wav
182,192,167256,1,12,0:0:0:0:
475,192,167590,1,6,0:0:0:0:
329,192,167923,1,12,0:0:0:0:
256,192,168256,1,6,0:0:0:0:
36,192,168590,1,12,0:0:0:0:
182,192,168923,1,6,0:0:0:0:
475,192,169256,1,12,0:0:0:0:
329,192,169590,1,0,0:0:0:60:normal-hitfinish.wav
36,192,169923,1,12,0:0:0:0:
256,192,170256,1,6,0:0:0:0:
475,192,170590,1,12,0:0:0:0:
256,192,170923,1,6,0:0:0:0:
109,192,171256,1,12,0:0:0:0:
256,192,171590,1,6,0:0:0:0:
402,192,171923,1,12,0:0:0:0:
329,192,172256,1,0,0:0:0:60:normal-hitfinish.wav
109,192,172590,1,0,0:0:0:70:normal-hitclap.wav
402,192,172756,1,0,0:0:0:70:normal-hitclap.wav
182,192,173090,1,0,0:0:0:70:normal-hitclap.wav
329,192,173256,1,0,0:0:0:70:normal-hitclap.wav
256,192,173423,1,0,0:0:0:70:normal-hitclap.wav
36,192,173590,1,0,0:0:0:50:drum-hitfinish.wav
475,192,173590,1,0,0:0:0:70:normal-hitwhistle.wav
182,192,173923,1,0,0:0:0:70:normal-hitclap.wav
329,192,174256,1,0,0:0:0:70:normal-hitclap.wav
182,192,174590,1,0,0:0:0:70:normal-hitclap.wav
329,192,174923,1,0,0:0:0:70:normal-hitclap.wav
109,192,175256,1,0,0:0:0:70:normal-hitclap.wav
402,192,175590,1,0,0:0:0:70:normal-hitclap.wav
109,192,175923,1,0,0:0:0:70:normal-hitclap.wav
402,192,176256,1,0,0:0:0:70:normal-hitclap.wav
36,192,176590,1,0,0:0:0:70:normal-hitclap.wav
475,192,176923,1,0,0:0:0:70:normal-hitclap.wav
36,192,177256,1,0,0:0:0:70:normal-hitclap.wav
475,192,177590,1,0,0:0:0:70:normal-hitclap.wav
109,192,177923,1,0,0:0:0:70:normal-hitclap.wav
402,192,178256,1,0,0:0:0:70:normal-hitclap.wav
256,192,178590,1,0,0:0:0:70:normal-hitclap.wav
36,192,178923,1,0,0:0:0:50:drum-hitfinish.wav
475,192,178923,1,0,0:0:0:70:normal-hitwhistle.wav
182,192,179256,1,0,0:0:0:70:normal-hitclap.wav
329,192,179590,1,0,0:0:0:70:normal-hitclap.wav
182,192,179923,1,0,0:0:0:70:normal-hitclap.wav
402,192,180256,1,0,0:0:0:70:normal-hitclap.wav
109,192,180590,1,0,0:0:0:70:normal-hitclap.wav
475,192,180923,1,0,0:0:0:70:normal-hitclap.wav
36,192,181256,1,0,0:0:0:70:normal-hitclap.wav
402,192,181590,1,0,0:0:0:70:normal-hitclap.wav
109,192,181923,1,0,0:0:0:70:normal-hitclap.wav
256,192,182256,1,0,0:0:0:70:normal-hitclap.wav
402,192,182590,1,0,0:0:0:70:normal-hitclap.wav
36,192,182923,1,0,0:0:0:70:normal-hitclap.wav
475,192,183256,1,0,0:0:0:70:normal-hitclap.wav
109,192,183590,1,0,0:0:0:70:normal-hitclap.wav
402,192,183923,1,0,0:0:0:70:normal-hitclap.wav
36,192,184256,1,0,0:0:0:55:drum-hitfinish.wav
475,192,184256,1,0,0:0:0:70:normal-hitwhistle.wav
109,192,184590,1,0,0:0:0:70:normal-hitclap.wav
402,192,184923,1,0,0:0:0:70:normal-hitclap.wav
256,192,185256,1,0,0:0:0:70:normal-hitclap.wav
36,192,185590,1,0,0:0:0:70:normal-hitclap.wav
475,192,185923,1,0,0:0:0:70:normal-hitclap.wav
182,192,186256,1,0,0:0:0:70:normal-hitclap.wav
329,192,186590,1,0,0:0:0:70:normal-hitclap.wav
256,192,186923,1,0,0:0:0:70:normal-hitclap.wav
402,192,187256,1,0,0:0:0:70:normal-hitclap.wav
109,192,187590,1,0,0:0:0:70:normal-hitclap.wav
329,192,187923,1,0,0:0:0:70:normal-hitclap.wav
256,192,188256,1,0,0:0:0:70:normal-hitclap.wav
475,192,188590,1,0,0:0:0:70:normal-hitclap.wav
36,192,188923,1,0,0:0:0:70:normal-hitclap.wav
256,192,189256,1,0,0:0:0:70:normal-hitclap.wav
36,192,189590,1,0,0:0:0:50:drum-hitfinish.wav
475,192,189590,1,0,0:0:0:70:normal-hitwhistle.wav
182,192,189923,1,0,0:0:0:70:normal-hitclap.wav
329,192,190256,1,0,0:0:0:70:normal-hitclap.wav
182,192,190590,1,0,0:0:0:70:normal-hitclap.wav
256,192,190923,1,0,0:0:0:70:normal-hitclap.wav
402,192,191256,1,0,0:0:0:70:normal-hitclap.wav
109,192,191590,1,0,0:0:0:70:normal-hitclap.wav
256,192,191923,1,0,0:0:0:70:normal-hitclap.wav
475,192,192256,1,0,0:0:0:70:normal-hitwhistle.wav
36,192,192256,1,0,0:0:0:50:drum-hitfinish.wav
329,192,192590,1,0,0:0:0:50:normal-hitclap.wav
182,192,192923,1,0,0:0:0:50:normal-hitclap.wav
256,192,193256,1,0,0:0:0:50:normal-hitclap.wav
475,192,193423,1,0,0:0:0:30:normal-hitwhistle.wav
36,192,193423,1,0,0:0:0:55:drum-hitfinish.wav
109,192,193756,1,0,0:0:0:70:normal-hitclap.wav
402,192,193923,1,0,0:0:0:70:normal-hitclap.wav
36,192,194090,1,0,0:0:0:70:normal-hitclap.wav
329,192,194256,1,0,0:0:0:70:normal-hitclap.wav
475,192,194423,1,0,0:0:0:70:normal-hitclap.wav
182,192,194590,1,0,0:0:0:70:normal-hitclap.wav
402,192,194756,1,0,0:0:0:70:normal-hitclap.wav
329,192,195923,1,0,0:0:0:50:drim-hitwhistle2.wav
182,192,195923,1,0,0:0:0:50:drum-hitfinish2.wav
475,192,196256,1,0,0:0:0:70:normal-hitwhistle.wav
36,192,196256,1,0,0:0:0:55:drum-hitfinish.wav
402,192,196590,1,12,0:0:0:0:
36,192,196923,1,6,0:0:0:0:
402,192,197256,1,12,0:0:0:0:
182,192,197590,1,0,0:0:0:60:normal-hitfinish.wav
402,192,197923,1,12,0:0:0:0:
36,192,198256,1,6,0:0:0:0:
402,192,198590,1,12,0:0:0:0:
256,192,198923,1,6,0:0:0:0:
109,192,199256,1,12,0:0:0:0:
475,192,199590,1,6,0:0:0:0:
109,192,199923,1,12,0:0:0:0:
329,192,200256,1,0,0:0:0:60:normal-hitfinish.wav
109,192,200590,1,12,0:0:0:0:
475,192,200923,1,6,0:0:0:0:
109,192,201256,1,12,0:0:0:0:
256,192,201590,1,6,0:0:0:0:
475,192,201923,1,12,0:0:0:0:
256,192,202256,1,6,0:0:0:0:
36,192,202590,1,12,0:0:0:0:
329,192,202923,1,0,0:0:0:60:normal-hitfinish.wav
475,192,203256,1,12,0:0:0:0:
36,192,203590,1,6,0:0:0:0:
182,192,203923,1,12,0:0:0:0:
256,192,204256,1,6,0:0:0:0:
109,192,204590,1,12,0:0:0:0:
402,192,204923,1,6,0:0:0:0:
256,192,205256,1,12,0:0:0:0:
36,192,205590,1,0,0:0:0:60:normal-hitfinish.wav
182,192,205923,1,12,0:0:0:0:
402,192,206256,1,6,0:0:0:0:
256,192,206590,1,12,0:0:0:0:
475,192,206923,1,0,0:0:0:70:normal-hitwhistle.wav
36,192,206923,1,0,0:0:0:55:drum-hitfinish.wav
109,192,207256,1,12,0:0:0:0:
182,192,207590,1,6,0:0:0:0:
109,192,207923,1,12,0:0:0:0:
475,192,208256,1,0,0:0:0:60:normal-hitfinish.wav
402,192,208590,1,12,0:0:0:0:
329,192,208923,1,6,0:0:0:0:
402,192,209256,1,12,0:0:0:0:
256,192,209590,1,6,0:0:0:0:
36,192,209923,1,12,0:0:0:0:
402,192,210256,1,6,0:0:0:0:
182,192,210590,1,12,0:0:0:0:
475,192,210923,1,0,0:0:0:60:normal-hitfinish.wav
36,192,211256,1,12,0:0:0:0:
329,192,211590,1,6,0:0:0:0:
182,192,211923,1,12,0:0:0:0:
256,192,212256,1,6,0:0:0:0:
475,192,212590,1,12,0:0:0:0:
109,192,212923,1,6,0:0:0:0:
329,192,213256,1,12,0:0:0:0:
36,192,213590,1,0,0:0:0:60:normal-hitfinish.wav
475,192,213923,1,12,0:0:0:0:
109,192,214256,1,6,0:0:0:0:
402,192,214590,1,12,0:0:0:0:
256,192,214923,1,6,0:0:0:0:
109,192,215256,1,12,0:0:0:0:
402,192,215590,1,6,0:0:0:0:
182,192,215923,1,12,0:0:0:0:
329,192,216090,1,0,0:0:0:50:drum-hitfinish2.wav
36,192,216256,1,0,0:0:0:60:drum-hitfinish.wav
475,192,216256,1,0,0:0:0:70:normal-hitwhistle.wav
36,192,216590,1,0,0:0:0:70:normal-hitwhistle.wav
475,192,216590,1,0,0:0:0:60:drum-hitfinish.wav
256,192,216923,1,0,0:0:0:70:normal-hitwhistle.wav
182,192,217090,1,0,0:0:0:70:normal-hitwhistle.wav
329,192,217256,1,0,0:0:0:70:normal-hitclap.wav
256,192,217590,1,6,0:0:0:0:
329,192,217923,1,12,0:0:0:0:
109,192,218256,1,6,0:0:0:0:
329,192,218590,1,12,0:0:0:0:
36,192,218923,1,0,0:0:0:60:normal-hitfinish.wav
475,192,219256,1,12,0:0:0:0:
109,192,219590,1,6,0:0:0:0:
475,192,219923,1,12,0:0:0:0:
256,192,220256,1,6,0:0:0:0:
182,192,220590,1,12,0:0:0:0:
402,192,220923,1,6,0:0:0:0:
182,192,221256,1,12,0:0:0:0:
475,192,221590,1,0,0:0:0:60:normal-hitfinish.wav
36,192,221923,1,12,0:0:0:0:
402,192,222256,1,6,0:0:0:0:
36,192,222590,1,12,0:0:0:0:
256,192,222923,1,6,0:0:0:0:
109,192,223256,1,12,0:0:0:0:
475,192,223590,1,6,0:0:0:0:
182,192,223923,1,12,0:0:0:0:
329,192,224256,1,0,0:0:0:60:normal-hitfinish.wav
109,192,224590,1,12,0:0:0:0:
475,192,224923,1,4,0:0:0:0:
182,192,225256,1,12,0:0:0:0:
256,192,225590,1,6,0:0:0:0:
402,192,225923,1,12,0:0:0:0:
36,192,226256,1,6,0:0:0:0:
329,192,226590,1,12,0:0:0:0:
182,192,226923,1,0,0:0:0:60:normal-hitfinish.wav
402,192,227256,1,12,0:0:0:0:
36,192,227590,1,6,0:0:0:0:
329,192,227923,1,12,0:0:0:0:
256,192,228256,1,6,0:0:0:0:
36,192,228590,1,12,0:0:0:0:
256,192,228923,1,6,0:0:0:0:
475,192,229256,1,12,0:0:0:0:
256,192,229590,1,0,0:0:0:60:normal-hitfinish.wav
109,192,229923,1,12,0:0:0:0:
256,192,230256,1,6,0:0:0:0:
402,192,230590,1,12,0:0:0:0:
256,192,230923,1,6,0:0:0:0:
182,192,231256,1,12,0:0:0:0:
329,192,231590,1,6,0:0:0:0:
182,192,231923,1,12,0:0:0:0:
256,192,232256,1,0,0:0:0:60:normal-hitfinish.wav
109,192,232590,1,12,0:0:0:0:
402,192,232923,1,6,0:0:0:0:
109,192,233256,1,12,0:0:0:0:
256,192,233590,1,6,0:0:0:0:
329,192,233923,1,12,0:0:0:0:
36,192,234256,1,6,0:0:0:0:
475,192,234590,1,12,0:0:0:0:
182,192,234923,1,0,0:0:0:60:normal-hitfinish.wav
329,192,235256,1,12,0:0:0:0:
36,192,235590,1,6,0:0:0:0:
475,192,235923,1,12,0:0:0:0:
256,192,236256,1,6,0:0:0:0:
402,192,236590,1,12,0:0:0:0:
109,192,236923,1,6,0:0:0:0:
402,192,237256,1,12,0:0:0:0:
36,192,237590,1,0,0:0:0:55:drum-hitfinish.wav
475,192,237590,1,0,0:0:0:70:normal-hitwhistle.wav
402,192,237923,1,0,0:0:0:55:drum-hitfinish.wav
109,192,237923,1,0,0:0:0:70:normal-hitwhistle.wav
329,192,238256,1,0,0:0:0:70:normal-hitclap.wav
182,192,238423,1,0,0:0:0:70:normal-hitwhistle.wav
109,192,238590,1,0,0:0:0:50:drim-hitwhistle2.wav
256,192,238756,1,0,0:0:0:40:drum-hitfinish2.wav
475,192,238923,1,0,0:0:0:70:normal-hitwhistle.wav
36,192,238923,1,0,0:0:0:55:drum-hitfinish.wav
