osu file format v9

[General]
AudioFilename: Imagination Forest.mp3
AudioLeadIn: 0
PreviewTime: 65590
Countdown: 0
SampleSet: Normal
StackLeniency: 0.4
Mode: 0
LetterboxInBreaks: 1

[Editor]
Bookmarks: 86923,152256,162923,173590,178923,183923
DistanceSpacing: 1.3
BeatDivisor: 4
GridSize: 4

[Metadata]
Title:Souzou Forest
Artist:yuikonnu
Creator:donpen
Version:Insane
Source:
Tags:vocaloid3 IA vocaloid mythol kosiga jin Nico Nico Douga

[Difficulty]
HPDrainRate:7
CircleSize:4
OverallDifficulty:7
ApproachRate:9
SliderMultiplier:1.6
SliderTickRate:1

[Events]
//Background and Video events
Video,0,"PV.flv"
0,0,"BG.jpg"
//Break Periods
2,152456,162323
//Storyboard Layer 0 (Background)
//Storyboard Layer 1 (Fail)
//Storyboard Layer 2 (Pass)
//Storyboard Layer 3 (Foreground)
//Storyboard Sound Samples
//Background Colour Transformations
3,100,163,162,255

[TimingPoints]
257,333.333333333333,4,2,0,50,1,0
22423,-100,4,2,1,60,0,0
22840,-100,4,2,1,80,0,0
54423,-100,4,2,1,60,0,0
54673,-100,4,2,1,70,0,0
65590,-100,4,2,1,80,0,1
86923,-100,4,2,0,80,0,0
87506,-100,4,2,1,80,0,0
88340,-100,4,2,0,70,0,0
98923,-100,4,2,1,75,0,0
130923,-100,4,2,1,80,0,1
152256,-100,4,2,0,80,0,0
173506,-133.333333333333,4,1,0,80,0,0
173673,-133.333333333333,4,2,0,50,0,0
173840,-133.333333333333,4,1,0,80,0,0
174006,-133.333333333333,4,2,0,50,0,0
174173,-133.333333333333,4,1,0,80,0,0
174340,-133.333333333333,4,2,0,50,0,0
174506,-133.333333333333,4,1,0,80,0,0
174673,-133.333333333333,4,2,0,50,0,0
174840,-133.333333333333,4,1,0,80,0,0
175006,-133.333333333333,4,2,0,50,0,0
175215,-133.333333333333,4,1,0,80,0,0
175340,-133.333333333333,4,2,0,50,0,0
175506,-133.333333333333,4,1,0,80,0,0
175673,-133.333333333333,4,2,0,50,0,0
175840,-133.333333333333,4,1,0,80,0,0
176006,-133.333333333333,4,2,0,50,0,0
176173,-133.333333333333,4,1,0,80,0,0
176340,-133.333333333333,4,2,0,80,0,0
176506,-133.333333333333,4,1,0,80,0,0
177340,-133.333333333333,4,2,0,50,0,0
177506,-133.333333333333,4,1,0,80,0,0
177673,-133.333333333333,4,2,0,50,0,0
177840,-133.333333333333,4,1,0,80,0,0
178006,-133.333333333333,4,2,0,50,0,0
178173,-133.333333333333,4,1,0,80,0,0
178340,-133.333333333333,4,2,0,50,0,0
178548,-133.333333333333,4,1,0,80,0,0
178673,-133.333333333333,4,2,0,50,0,0
178840,-133.333333333333,4,1,0,80,0,0
179006,-133.333333333333,4,2,0,50,0,0
179173,-133.333333333333,4,1,0,80,0,0
179340,-133.333333333333,4,2,0,50,0,0
179506,-133.333333333333,4,1,0,80,0,0
179673,-133.333333333333,4,2,0,50,0,0
179840,-133.333333333333,4,1,0,80,0,0
180006,-133.333333333333,4,2,0,50,0,0
180173,-133.333333333333,4,1,0,80,0,0
181006,-133.333333333333,4,2,0,50,0,0
181173,-133.333333333333,4,1,0,80,0,0
181340,-133.333333333333,4,2,0,50,0,0
181506,-133.333333333333,4,1,0,80,0,0
181673,-133.333333333333,4,2,0,50,0,0
181840,-133.333333333333,4,1,0,80,0,0
182006,-133.333333333333,4,2,0,50,0,0
182173,-133.333333333333,4,1,0,80,0,0
182340,-133.333333333333,4,2,0,50,0,0
182506,-133.333333333333,4,1,0,80,0,0
182673,-133.333333333333,4,2,0,50,0,0
182840,-133.333333333333,4,1,0,80,0,0
183006,-133.333333333333,4,2,0,50,0,0
183173,-133.333333333333,4,1,0,80,0,0
183340,-133.333333333333,4,2,0,50,0,0
183506,-133.333333333333,4,1,0,80,0,0
183673,-133.333333333333,4,2,0,50,0,0
183923,-100,4,2,1,80,0,0
193673,-100,4,2,1,60,0,0
194006,-100,4,2,1,70,0,0
194340,-100,4,2,1,75,0,0
194923,-100,4,2,0,30,0,0
195840,-100,4,2,1,80,0,0
196006,-100,4,2,1,30,0,0
196256,-100,4,2,1,80,0,1
217590,-100,4,2,0,50,0,1
218923,-100,4,2,0,10,0,0

[Colours]
Combo1 : 255,203,125
Combo2 : 159,255,255
Combo3 : 252,114,114
Combo4 : 109,241,119

[HitObjects]
456,104,22423,6,0,B|444:64|456:24,2,80,8|8|0
408,192,22923,6,0,B|420:232|408:272,1,80
320,224,23256,1,8
264,312,23423,2,0,B|224:232|264:120,1,160
184,80,23923,1,8
112,160,24090,2,0,B|48:88|104:7,1,160
184,80,24590,1,8
224,176,24756,2,0,B|288:248|231:329,1,160
144,280,25256,5,8
88,168,25423,1,0
184,80,25590,2,0,B|280:64|344:144,1,160,0|8
432,160,26090,2,0,B|408:248|304:252,1,160
248,168,26590,1,8
208,264,26756,2,0,B|120:304|54:247,1,160
24,152,27256,1,8
144,192,27423,1,0
144,192,27506,1,0
144,192,27590,1,0
236,280,27756,5,0
328,192,27923,1,8
240,96,28090,1,0
240,200,28256,2,0,B|156:260,2,80,0|0|8
324,260,28756,2,0,B|408:200,2,80,0|0|0
384,344,29256,1,8
456,268,29423,6,0,B|524:196|472:100,1,160,0|0
396,60,29923,2,0,B|368:20|320:16,1,80,8|0
312,120,30256,2,0,B|272:108|220:132,1,80,0|0
180,36,30590,1,8
80,64,30756,2,0,B|32:136|66:219,1,160
160,260,31256,6,0,B|224:324,1,80,8|0
320,304,31590,2,0,B|256:240,1,80
224,168,31923,1,8
320,136,32090,2,0,B|392:84|476:104,1,160
472,104,32590,1,8
400,32,32756,2,0,B|444:104|392:196,1,160
296,160,33256,1,8
216,224,33423,5,0
216,224,33506,1,0
216,224,33590,2,0,B|224:264|252:293,1,80,4|0
352,260,33923,1,8
440,320,34090,2,0,B|476:236|412:164,1,160
372,76,34590,1,8
464,120,34756,2,0,B|404:184|308:144,1,160
224,96,35256,2,0,B|224:140|192:168,1,80,8|0
228,264,35590,1,0
192,360,35756,6,0,B|112:360,1,80,0|8
68,264,36090,1,8
68,264,36173,1,0
68,264,36256,2,0,B|180:264,1,80,8|0
216,184,36590,2,0,B|112:184,1,80,8|0
84,96,36923,5,0
136,184,37090,1,0
68,264,37256,1,8
156,316,37423,2,0,B|236:340|332:316,1,160
324,216,37923,1,8
412,272,38090,2,0,B|468:200|412:112,1,160
340,56,38590,5,8
236,128,38756,1,0
344,196,38923,2,0,B|312:288|204:268,1,160,0|8
180,172,39423,1,0
88,220,39590,2,0,B|44:196|40:132,2,80,0|0|8
116,320,40090,6,0,B|196:292|272:320,1,160,0|0
272,320,40590,1,8
344,220,40756,2,0,B|264:248|188:220,1,160
92,180,41257,1,8
160,100,41423,1,0
256,64,41590,5,0
396,164,41923,1,8
412,324,42257,2,0,B|332:356|253:328,1,160,0|8
104,64,42923,2,0,B|184:32|268:60,1,160,0|8
384,232,43590,1,8
280,224,43757,1,0
280,224,43840,1,8
280,224,43923,1,8
212,304,44090,6,0,B|156:228|212:136,1,160,4|0
100,156,44590,1,8
160,72,44757,1,0
264,84,44923,2,0,B|300:52|360:68,2,80,0|0|8
320,172,45423,2,0,B|420:204|468:128,1,160
368,92,45923,1,8
264,84,46090,2,0,B|168:48|113:138,1,160
52,200,46590,5,8
52,304,46757,1,0
156,312,46923,2,0,B|256:300|280:204,1,160,0|8
372,180,47423,2,0,B|324:108|224:124,1,160
148,60,47923,1,8
48,36,48090,2,0,B|8:120|56:192,1,160
180,172,48590,1,8
116,284,48757,1,8
228,348,48923,1,8
292,236,49090,5,0
292,236,49173,1,8
292,236,49257,1,8
388,204,49423,1,0
364,104,49590,2,0,B|292:164|216:104,1,160,4|8
292,60,50090,2,0,B|352:132|300:208,1,160
208,160,50590,1,8
136,240,50757,2,0,B|212:204|292:236,1,160
260,336,51257,2,0,B|304:340|336:316,1,80,8|0
408,244,51590,2,0,B|432:288|424:336,1,80
488,237,51923,1,8
433,148,52090,2,0,B|413:106|365:89,1,80
272,72,52423,5,2
251,72,52507,1,0
231,77,52590,1,0
213,85,52673,1,0
197,98,52757,1,2
188,112,52840,1,0
180,130,52923,2,0,B|184:170|140:218,1,80,0|2
141,219,53173,1,0
123,228,53257,1,0
88,328,53423,6,0,B|176:360|272:328,1,160,2|2
264,328,53840,1,0
280,316,53923,1,0
296,304,54007,1,0
312,288,54090,1,2
404,236,54257,1,0
352,144,54423,1,8
352,144,54507,1,8
352,144,54590,1,8
276,212,54757,6,0,B|236:196|196:212,1,80,4|0
120,280,55090,2,0,B|90:205|121:125,1,160,8|0
120,124,55590,1,8
212,36,55757,2,0,B|242:111|211:191,1,160
300,136,56257,1,8
280,240,56423,1,0
368,188,56590,1,8
360,292,56757,2,0,B|292:340|200:305,1,160,0|8
240,208,57257,5,8
224,196,57340,1,8
204,192,57423,1,8
184,196,57507,1,8
168,204,57590,6,0,B|112:252|-8:252,1,160,4|8
116,336,58090,2,0,B|196:292|292:336,1,160
304,228,58590,1,8
396,280,58757,2,0,B|348:204|400:127,1,160
448,40,59257,2,0,B|404:52|360:32,1,80,8|0
272,72,59590,1,0
204,148,59756,1,0
188,236,59923,5,8
208,244,60007,1,8
228,252,60090,1,8
248,244,60173,1,8
264,236,60257,6,0,B|440:236,1,160,4|8
368,148,60757,1,0
296,76,60923,2,0,B|288:124|240:144,1,80
148,120,61256,2,0,B|156:76|193:57,1,80,8|0
192,188,61590,2,0,B|184:232|147:251,2,80,0|0|8
288,144,62090,1,0
288,144,62173,1,0
288,144,62257,1,0
392,144,62423,2,0,B|392:192|352:216,1,80,0|8
392,312,62757,2,0,B|320:348|232:320,1,160,4|0
136,296,63257,5,8
44,204,63423,1,0
119,110,63590,1,2
134,96,63673,1,0
152,87,63757,1,0
170,80,63840,1,0
189,77,63923,1,2
209,79,64007,1,0
228,82,64090,1,0
246,89,64173,1,0
263,98,64256,2,0,B|331:162|443:126,1,160,2|4
360,288,65090,5,2
360,288,65173,1,2
360,288,65257,1,2
180,180,65590,6,0,B|152:284,1,80,6|0
60,288,65923,2,0,B|92:188,1,80,10|0
112,112,66257,2,0,B|212:88|244:8,1,160,2|10
320,80,66757,1,2
232,172,66923,1,0
336,176,67090,2,2,B|296:204|296:264,1,80,2|10
400,252,67423,2,0,B|456:180|424:92,1,160,2|2
348,68,67923,5,10
220,88,68090,1,0
248,212,68257,2,0,B|208:204|168:223,1,80,2|0
144,324,68590,1,10
144,324,68673,1,0
144,324,68757,1,0
68,256,68923,2,0,B|36:224|26:187,1,80,2|0
88,104,69257,1,10
88,104,69340,1,0
88,104,69423,1,0
192,92,69590,6,0,B|212:20,2,40,2|0|0
224,216,69923,2,0,B|192:248,2,40,10|0|0
304,284,70257,1,2
288,156,70423,1,0
288,156,70507,1,0
288,156,70590,1,10
408,116,70757,1,0
424,244,70923,2,0,B|368:304|268:316,1,160,2|8
272,212,71423,1,0
188,276,71590,2,0,B|196:188|156:108,1,160,2|10
84,48,72090,1,0
60,148,72257,6,0,B|80:188|80:236,1,80,2|0
36,320,72590,2,0,B|116:352|212:320,1,160,10|2
280,272,73090,1,0
280,272,73173,1,0
280,272,73257,1,10
344,164,73423,1,0
416,272,73590,1,4
256,48,73923,5,10
252,60,74257,1,2
256,72,74590,1,10
432,96,74923,5,2
416,208,75090,1,0
416,208,75173,1,0
416,208,75257,1,10
328,264,75423,1,0
328,264,75507,1,0
328,264,75590,1,10
336,160,75757,1,0
408,304,75923,1,10
248,304,76090,5,0
248,304,76173,1,0
248,304,76257,2,8,B|276:264|280:216,1,80,4|0
216,148,76590,2,0,B|236:104|272:80,1,80,10|0
320,176,76923,2,0,B|296:260|200:280,1,160,2|10
104,280,77423,1,0
24,208,77590,1,2
112,152,77757,1,2
112,152,77840,1,0
112,152,77923,1,10
208,120,78090,2,0,B|228:160|212:204,1,80,2|0
128,248,78423,5,2
40,184,78590,1,10
72,88,78756,1,0
168,56,78923,2,0,B|216:44|256:64,1,80,2|0
356,52,79256,2,0,B|352:104|308:136,1,80,10|0
272,224,79590,2,0,B|236:184|252:124,1,80,2|0
156,108,79923,2,0,B|172:148|168:188,1,80,10|0
112,244,80256,2,0,B|188:292|272:244,1,160,2|10
264,248,80756,1,0
356,156,80923,2,0,B|288:104|205:150,1,160,2|10
92,196,81423,5,2
104,372,81590,1,2
240,296,81756,1,2
144,280,81923,1,8
328,152,82256,6,0,B|248:100|177:140,1,160,2|8
92,196,82756,1,0
100,92,82923,2,0,B|184:124|192:213,1,160,2|10
276,272,83423,2,0,B|248:316|213:317,2,80,0|2|0
360,212,83923,2,0,B|276:192|251:104,1,160,10|4
132,213,84590,6,0,B|180:60,2,160,10|0|8
232,240,85423,1,2
316,177,85590,1,4
232,120,85756,1,2
324,68,85923,1,4
228,28,86090,2,0,B|228:188,1,160,2|0
324,228,86590,1,2
392,152,86756,1,0
256,192,87590,5,4
212,96,87756,1,8
212,96,87840,1,8
212,96,87923,1,8
120,148,88090,1,8
120,148,88173,1,8
120,148,88256,6,0,B|80:136|40:148,1,80,12|0
40,148,88590,1,2
8,252,88756,2,0,B|88:272|176:252,1,160
240,332,89256,1,2
284,236,89423,2,0,B|268:148|181:125,1,160,0|0
168,228,89923,1,2
64,220,90090,2,0,B|80:308|167:331,1,160
272,328,90590,2,0,B|300:288|344:284,1,80,2|0
424,340,90923,1,0
232,260,91256,6,0,B|216:220|221:181,1,80,2|0
304,116,91590,2,0,B|320:156|315:195,1,80
396,260,91923,1,2
304,312,92090,2,0,B|232:360|152:328,1,160
120,228,92590,2,0,B|80:240|56:272,2,80,2|0|0
224,244,93090,6,0,B|268:232|280:191,1,80,0|2
240,96,93423,1,0
336,56,93590,2,0,B|336:152|416:200,1,160,0|2
396,292,94090,2,0,B|440:308|488:288,2,80
296,260,94590,1,2
200,300,94756,6,0,B|240:220|200:140,1,160,0|0
296,100,95256,2,0,B|264:68|216:60,1,80,2|0
128,32,95590,1,0
76,120,95756,1,0
176,148,95923,1,2
112,232,96090,2,0,B|192:196|288:232,1,160,0|0
372,232,96590,6,0,B|412:152,1,80,2|0
340,80,96923,2,0,B|300:160,1,80,2|0
304,152,97256,1,2
128,152,97423,1,0
128,152,97756,2,0,B|144:256,1,80,0|2
244,308,98090,2,0,B|228:204,1,80,0|2
300,120,98423,2,0,B|316:224,1,80,0|2
396,260,98756,1,0
360,340,98923,6,0,B|416:356|464:332,2,80,4|0|8
324,240,99423,2,0,B|244:216|196:128,1,160
164,236,99923,2,0,B|144:192|100:180,1,80,8|0
24,248,100256,1,0
36,144,100423,1,0
136,116,100590,1,8
56,48,100756,2,0,B|136:16|224:48,1,160
280,124,101256,5,8
384,124,101423,1,0
396,228,101590,2,0,B|388:272|336:296,1,80
252,256,101923,2,0,B|212:240|152:248,1,80,8|0
92,312,102256,2,0,B|60:280|52:216,2,80,0|0|8
156,228,102756,2,0,B|184:144|156:38,1,160
248,128,103256,1,8
264,232,103423,6,0,B|228:156|264:48,1,160
384,72,103923,1,8
460,176,104090,1,0
424,300,104256,2,0,B|344:340|264:300,1,160,0|8
204,192,104756,6,0,B|245:188|281:208,1,80
184,292,105090,2,0,B|152:320|108:320,1,80,0|8
24,264,105423,2,0,B|-20:188|24:104,1,160
120,104,105923,1,8
224,124,106090,2,0,B|240:88|226:44,2,80
144,188,106590,1,8
208,272,106756,2,0,B|288:308|384:272,1,160
396,180,107256,1,8
180,132,107590,6,0,B|144:208|176:308,1,160,0|8
328,256,108256,2,0,B|356:176|332:88,1,160,0|8
224,132,108756,1,0
224,132,108840,1,8
224,132,108923,1,8
240,260,109090,1,0
140,180,109256,1,8
72,100,109423,6,4,B|20:176|64:256,1,160,4|0
140,180,109923,1,8
180,276,110090,2,0,B|180:324|152:356,2,80
284,280,110590,1,8
236,188,110756,2,0,B|328:180|404:188,1,160,0|0
396,188,111256,1,8
400,84,111423,2,0,B|324:92|240:84,1,160
140,64,111923,5,8
156,168,112090,1,0
240,228,112256,2,0,B|176:284,1,80
84,240,112590,2,0,B|8:308,2,80,8|0|0
24,152,113090,1,0
108,92,113256,1,8
168,176,113423,2,0,B|256:208|328:176,1,160
256,104,113923,2,8,B|212:180|256:264,1,160,8|0
316,344,114423,5,0
316,344,114506,1,0
316,344,114590,2,0,B|276:356|236:344,1,80,8|0
136,320,114923,2,0,B|184:240|136:160,1,160,4|8
228,112,115423,2,0,B|272:100|312:32,2,80
132,72,115923,1,8
100,172,116090,6,0,B|156:240|272:220,1,160
344,196,116590,2,0,B|356:244|328:284,1,80,8|0
412,344,116923,2,0,B|452:320|476:264,1,80
468,180,117256,1,8
416,92,117423,2,0,B|340:56|256:92,1,160,0|2
244,100,117840,5,0
228,108,117923,1,0
208,112,118006,1,0
187,112,118090,1,2
167,106,118173,1,0
151,94,118256,2,0,B|143:150|87:186,1,80,0|2
100,177,118506,1,0
86,191,118590,1,0
120,280,118756,6,0,B|200:312|276:268,1,160,2|2
292,260,119173,1,0
308,248,119256,1,0
324,236,119340,1,0
340,220,119423,1,0
348,204,119506,1,0
360,184,119590,2,0,B|360:136|416:112,1,80,8|0
348,28,119923,1,0
324,36,120006,1,0
316,60,120090,6,0,B|268:64|224:24,1,80,4|0
184,116,120423,2,0,B|88:136|56:240,1,160,8|0
88,316,120923,2,0,B|136:332|185:309,1,80
268,292,121256,1,8
224,196,121423,1,0
120,200,121590,2,0,B|104:164|120:121,1,80,0|0
64,36,121923,1,8
168,48,122090,2,0,B|260:20|336:64,1,160
296,156,122590,5,8
396,136,122756,1,0
440,228,122923,2,0,B|356:188|288:276,1,160,0|8
396,304,123423,2,0,B|452:216|380:132,1,160
360,56,123923,1,8
256,56,124090,2,0,B|264:96|240:144,1,80
144,104,124423,2,0,B|112:136|36:136,2,80,0|8|0
188,200,124923,2,0,B|188:244|220:280,1,80
112,248,125256,5,8
96,248,125340,1,0
80,256,125423,1,0
72,272,125506,1,0
72,296,125590,2,0,B|148:348|232:300,1,160,4|8
448,96,126256,2,0,B|372:44|288:92,1,160,0|8
96,72,126923,6,0,B|104:168,1,80,0|0
208,140,127256,2,0,B|216:236,1,80,8|0
316,240,127590,2,0,B|288:315,2,80,0|0|8
420,220,128090,2,0,B|388:140|300:108,1,160,4|0
240,72,128590,1,8
200,192,128756,1,0
140,80,128923,5,2
132,96,129006,1,0
124,116,129090,1,0
116,136,129173,1,0
108,152,129256,1,2
100,172,129340,1,0
92,192,129423,1,0
84,212,129506,1,0
76,232,129590,2,0,B|148:280|232:268,1,160,2|4
408,320,130423,6,2,B|468:364,2,40,2|2|2
260,104,130923,5,6
260,104,131256,1,10
260,104,131590,1,2
272,328,131923,5,10
184,276,132090,1,0
244,192,132256,1,2
328,252,132423,1,2
328,252,132506,1,0
328,252,132590,1,8
428,272,132756,2,0,B|460:236|460:184,1,80,2|0
452,96,133090,5,2
360,48,133256,1,8
328,148,133423,1,2
228,116,133590,2,0,B|220:68|148:44,1,80,2|0
68,72,133923,1,10
100,172,134090,1,0
188,228,134256,2,0,B|232:208|268:228,1,80,2|0
220,320,134590,1,10
324,324,134756,1,0
368,228,134923,5,2
300,148,135090,1,2
300,148,135173,1,0
300,148,135256,2,0,B|300:100|332:68,1,80,10|0
228,116,135590,2,0,B|220:164|180:188,1,80,2|0
84,196,135923,2,0,B|92:148|132:124,1,80,8|0
188,48,136256,6,0,B|276:16|368:52,1,160,2|8
336,328,136923,2,0,B|240:360|152:328,1,160,2|8
179,336,137423,1,0
224,232,137590,2,0,B|184:224|144:232,1,80,2|0
144,232,137840,1,0
144,232,137923,1,10
104,128,138090,2,0,B|64:144|32:200,2,80,0|2|2
216,152,138590,2,0,B|296:120|392:152,1,160,8|4
160,80,139256,6,0,B|48:80,1,80,10|0
256,176,139590,2,0,B|344:176,1,80,2|0
192,272,139923,2,0,B|104:272,1,80,8|0
56,176,140256,1,2
124,100,140423,1,0
224,132,140590,1,10
220,236,140756,1,0
120,260,140923,1,10
148,180,141090,5,2
148,180,141173,1,0
148,180,141256,1,8
276,188,141423,1,2
224,280,141590,5,6
224,280,141923,1,10
92,104,142256,2,0,B|20:147,1,80,2|0
176,152,142590,2,0,B|248:104,1,80,10|0
208,248,142923,2,0,B|145:297,2,80,2|2|8
288,180,143423,2,0,B|376:220|464:180,1,160,2|2
384,80,143923,5,10
256,96,144090,1,0
328,200,144256,2,0,B|240:216|184:280,1,160,2|8
28,80,144923,2,0,B|108:72|175:21,1,160,2|8
148,120,145423,1,0
240,172,145590,2,0,B|160:180|93:231,1,160,2|8
180,324,146090,1,2
272,272,146256,6,0,B|304:304|304:376,1,80,0|0
404,328,146590,1,10
428,228,146756,1,2
340,104,146923,1,0
476,84,147090,1,2
416,148,147256,1,10
400,288,147590,6,0,B|224:288,1,160,2|8
64,152,148256,2,0,B|240:152,1,160,2|10
328,192,148756,1,0
284,288,148923,1,2
192,244,149090,1,0
96,280,149256,2,0,B|96:120,1,160,8|4
312,36,149923,5,8
392,100,150090,1,0
324,176,150256,1,0
244,112,150423,2,0,B|168:88|80:119,1,160
76,220,150923,2,0,B|36:212|4:172,2,80,4|0|4
180,212,151423,2,0,B|268:188|348:220,1,160,2|2
320,320,151923,1,0
448,308,152090,1,2
432,180,152256,1,4
104,80,162923,6,0,B|288:80,1,160,4|8
324,168,163423,2,0,B|148:168,1,160
64,140,163923,2,0,B|44:180|60:228,1,80,8|0
144,296,164257,2,0,B|188:308|220:344,1,80
240,236,164590,2,0,B|296:236|324:212,1,80,8|0
380,328,164923,2,0,B|404:288|448:256,1,80
408,140,165257,2,0,B|388:188|340:220,1,80,8|0
432,312,165590,2,0,B|496:248|504:144,1,160,0|8
428,64,166090,2,0,B|364:128|356:232,1,160
352,304,166590,2,0,B|308:316|252:296,1,80,8|0
36,204,167090,6,0,B|56:156,2,40,0|0|8
156,252,167423,2,0,B|196:292,2,40
204,132,167757,2,0,B|152:92,2,40,0|0|8
300,124,168090,2,0,B|384:108|448:12,1,160
412,164,168590,2,0,B|328:180|264:276,2,160,8|0|8
388,288,169423,5,0
388,288,169507,1,0
388,288,169590,2,0,B|360:320|316:336,1,80
232,244,169923,1,8
112,292,170090,2,0,B|44:248|24:152,1,160
92,84,170590,6,0,B|144:80|176:112,1,80,8|0
156,208,170923,2,0,B|204:224|260:200,1,80
292,124,171257,1,8
388,84,171423,2,0,B|424:172|356:252,1,160
456,292,171923,1,8
360,336,172090,2,0,B|280:360|176:328,1,160
200,232,172590,5,8
112,284,172756,1,0
96,268,172840,1,0
88,244,172923,1,8
132,152,173090,1,0
116,136,173173,1,0
108,112,173256,2,0,B|88:68|92:20,1,80,8|8
168,48,173590,6,0,B|232:0,1,60.0000022888184
336,12,173923,2,0,B|288:48,1,60.0000022888184
228,100,174256,2,0,B|276:164,1,60.0000022888184
344,152,174590,5,0
376,224,174756,1,0
300,216,174923,2,0,B|340:276|300:348,1,120.000004577637
248,280,175423,1,0
172,292,175590,2,0,B|204:362,1,60.0000022888184
96,260,175923,2,0,B|64:190,1,60.0000022888184
36,136,176256,5,0
64,136,176590,1,0
96,136,176923,1,0
128,136,177257,5,0
216,136,177423,1,0
136,224,177590,2,0,B|216:248,1,59.9999982118607
352,264,177923,2,0,B|280:288,1,59.9999982118607
216,320,178257,1,0
136,327,178423,1,2
136,327,178507,1,0
136,327,178590,1,0
88,256,178756,1,0
160,232,178923,6,0,B|199:186,1,59.9999982118607
136,144,179257,2,0,B|175:98,1,59.9999982118607,0|0
248,128,179590,2,0,B|312:96|384:136,1,119.999996423721
420,180,180090,1,0
396,252,180256,5,0
360,252,180590,1,0
328,252,180923,5,0
212,176,181090,1,0
205,317,181256,1,0
248,249,181423,1,0
212,176,181590,6,0,B|232:116|212:56,1,120.000004577637
212,58,182090,1,0
136,36,182256,2,0,B|116:96|136:156,1,120.000004577637
212,176,182757,1,0
276,232,182923,2,0,B|316:168,1,59.9999982118607
420,164,183257,2,0,B|380:220,1,59.9999982118607
356,112,183590,2,0,B|396:48,1,59.9999982118607
284,64,183923,5,2
284,64,184007,1,0
284,64,184090,1,0
284,64,184173,1,0
284,64,184257,2,0,B|260:24|204:16,1,80,12|0
124,60,184590,2,0,B|148:100|204:108,1,80,8|0
120,184,184923,2,0,B|196:228|276:188,1,160,8|8
340,108,185423,6,0,B|380:132|380:180,1,80,0|8
312,256,185757,1,0
312,256,185840,1,0
312,256,185923,2,0,B|276:232|272:184,1,80,8|0
172,156,186257,2,0,B|156:116|172:68,2,80,8|0|8
172,156,186757,1,0
80,204,186923,6,0,B|136:276|232:284,1,160,8|8
264,180,187590,1,8
360,176,187923,1,8
384,176,188090,5,0
424,299,188256,1,8
319,223,188423,1,0
449,223,188590,1,8
344,299,188756,1,0
384,176,188923,1,8
384,176,189257,5,8
416,80,189423,1,0
312,80,189590,2,0,B|280:52|232:52,1,80,8|0
184,184,189923,2,0,B|228:172|248:132,1,80,8|0
80,192,190257,2,0,B|128:136|117:36,2,160,8|8|8
52,300,191090,1,0
144,256,191257,6,0,B|184:288|232:296,1,80,8|0
256,196,191590,1,8
348,104,191757,1,0
256,16,191923,1,8
164,104,192090,1,0
208,224,192257,6,0,B|288:256|368:224,1,160,12|0
260,44,192923,2,0,B|180:12|100:44,1,160,8|0
0,52,193423,2,0,B|-8:116|32:148|32:148|8:220,1,160,8|8
64,256,193923,5,8
96,192,194090,1,8
100,292,194257,1,8
152,192,194423,1,8
156,336,194590,1,8
220,200,194757,1,8
352,40,195090,5,2
328,120,195257,1,2
296,192,195423,1,0
296,128,195590,1,2
264,208,195757,1,0
208,48,195923,1,10
136,152,196090,1,0
92,320,196256,6,0,B|132:288|180:288,1,80,6|0
268,300,196590,2,0,B|260:244|212:212,1,80,10|0
292,144,196923,2,2,B|212:120|132:152,1,160,2|10
56,220,197423,2,0,B|40:180|64:124,1,80,0|2
144,200,197757,1,0
144,200,197840,1,0
144,200,197923,1,10
212,52,198090,1,2
268,200,198257,1,0
108,96,198423,1,2
40,200,198590,6,0,B|16:232|24:280,1,80,10|0
128,272,198923,1,2
128,272,199007,1,0
128,272,199090,1,0
212,332,199257,2,0,B|244:292|244:244,1,80,10|0
232,156,199590,1,2
232,156,199673,1,0
232,156,199757,1,0
324,108,199923,2,0,B|352:140|356:184,1,80,10|0
440,244,200257,5,2
440,244,200340,1,0
440,244,200423,1,0
364,316,200590,1,10
364,316,200673,1,0
364,316,200757,1,0
304,184,200923,1,2
224,288,201090,1,0
200,208,201257,1,10
104,304,201423,1,0
32,256,201590,6,0,B|0:176|33:94,1,160,2|8
128,132,202090,1,0
232,56,202257,2,0,B|263:135|233:211,1,160,2|8
132,292,202757,2,0,B|212:340|308:300,1,160,2|0
332,212,203257,2,0,B|372:244|372:316,1,80,10|0
472,280,203590,2,0,B|468:332|424:360,1,80,2|0
332,344,203923,2,0,B|252:320|172:344,1,160,10|4
88,148,204590,6,0,B|46:229|86:301,2,160,10|2|10
188,168,205423,1,0
268,104,205590,2,0,B|292:56|336:62,1,80,2|0
404,184,205923,2,0,B|366:179|334:147,1,80,10|0
456,56,206257,2,0,B|428:96|376:104,1,80,10|0
268,136,206590,1,10
248,240,206757,5,8
248,240,206840,1,0
248,240,206923,2,0,B|256:288|224:320,1,80,6|0
156,224,207257,2,0,B|116:200|100:160,1,80,10|0
96,60,207590,1,2
172,132,207757,1,0
172,132,207840,1,0
172,132,207923,1,10
236,48,208090,1,0
328,96,208257,2,0,B|372:72|424:88,2,80,2|2|8
380,184,208757,2,0,B|412:236|392:292,1,80,2|0
304,296,209090,5,2
272,196,209257,1,8
196,268,209423,1,2
124,204,209590,2,0,B|100:168|108:100,1,80,2|0
180,56,209923,2,0,B|200:92|196:133,1,80,10|0
300,152,210256,2,0,B|324:188|317:228,1,80,2|0
196,332,210589,2,0,B|176:296|180:255,1,80,10|0
196,128,210923,6,0,B|228:92|280:80,1,80,2|0
364,68,211257,2,0,B|400:148|368:228,1,160,10|2
424,312,211757,1,2
320,320,211923,2,0,B|240:336|160:320,1,160,10|2
64,236,212423,6,0,B|144:220|224:236,1,160,10|2
140,332,212923,2,0,B|172:252|132:172,1,160,10|8
260,152,213423,2,0,B|228:232|267:311,1,160,2|0
380,364,213923,2,0,B|411:284|374:209,1,160,10|2
260,152,214423,1,2
140,104,214590,2,0,B|116:189|140:261,1,160,8|0
260,72,215256,1,8
160,48,215423,6,0,B|120:64|104:112,1,80
208,136,215757,2,0,B|280:168|400:152,1,160,0|0
428,72,216257,2,0,B|460:144|442:231,1,160,4|0
368,304,216757,2,0,B|408:328|456:304,2,80,0|0|0
312,216,217257,2,0,B|236:176|152:216,1,160,0|4
256,192,217757,12,0,218923
