osu file format v12

[General]
AudioFilename: Imagination Forest.mp3
AudioLeadIn: 0
PreviewTime: 65590
Countdown: 0
SampleSet: Soft
StackLeniency: 0.7
Mode: 3
LetterboxInBreaks: 0
SpecialStyle: 0
WidescreenStoryboard: 1

[Editor]
DistanceSpacing: 0.9
BeatDivisor: 4
GridSize: 8
TimelineZoom: 1.6

[Metadata]
Title:Souzou Forest
TitleUnicode:Souzou Forest
Artist:yuikonnu
ArtistUnicode:yuikonnu
Creator:17VA
Version:Lv.34
Source:
Tags:Imagination Forest 17VA Nico Nico Douga vocaloid3
BeatmapID:403124
BeatmapSetID:165716

[Difficulty]
HPDrainRate:9
CircleSize:7
OverallDifficulty:7
ApproachRate:5
SliderMultiplier:1.4
SliderTickRate:1

[Events]
//Background and Video events
0,0,"BG.jpg",0,0
Video,0,"PV.flv"
//Break Periods
//Storyboard Layer 0 (Background)
//Storyboard Layer 1 (Fail)
//Storyboard Layer 2 (Pass)
//Storyboard Layer 3 (Foreground)
//Storyboard Sound Samples
//Background Colour Transformations
3,100,163,162,255

[TimingPoints]
257,333.333333333333,4,2,0,0,1,0
257,-133.333333333333,4,2,0,0,0,0
22923,-100,4,2,0,0,0,0
65590,-100,4,2,0,0,0,1
86923,-100,4,2,0,0,0,0
130923,-100,4,2,0,0,0,1
152277,-100,4,2,0,0,0,0
196256,-100,4,2,0,0,0,1
238923,-133.333333333333,4,2,0,0,0,0

[HitObjects]
329,192,1590,5,0,0:0:0:0:
475,192,1590,1,0,0:0:0:0:
36,192,3923,128,0,4256:0:0:0:0:
256,192,4256,1,0,0:0:0:0:
256,192,6423,1,0,0:0:0:0:
329,192,6590,1,0,0:0:0:0:
402,192,6756,1,0,0:0:0:0:
109,192,6923,1,0,0:0:0:0:
329,192,6923,1,0,0:0:0:0:
329,192,9090,1,0,0:0:0:0:
329,192,9423,1,0,0:0:0:0:
329,192,9590,1,0,0:0:0:0:
402,192,9673,1,0,0:0:0:0:
329,192,9756,1,0,0:0:0:0:
256,192,9923,1,0,0:0:0:0:
182,192,10090,1,0,0:0:0:0:
109,192,10256,1,0,0:0:0:0:
36,192,11923,128,0,12256:0:0:0:0:
256,192,12090,1,0,0:0:0:0:
329,192,12173,1,0,0:0:0:0:
402,192,12256,1,0,0:0:0:0:
36,192,14590,128,0,14923:0:0:0:0:
475,192,14756,1,0,0:0:0:0:
402,192,14840,1,0,0:0:0:0:
329,192,14923,1,0,0:0:0:0:
182,192,14923,1,0,0:0:0:0:
109,192,15923,1,0,0:0:0:0:
329,192,15923,1,0,0:0:0:0:
256,192,16090,1,0,0:0:0:0:
475,192,16090,1,0,0:0:0:0:
36,192,17256,128,0,17590:0:0:0:0:
182,192,17590,1,0,0:0:0:0:
329,192,17590,1,0,0:0:0:0:
109,192,18923,1,0,0:0:0:0:
256,192,18923,1,0,0:0:0:0:
109,192,20090,1,0,0:0:0:0:
182,192,20173,1,0,0:0:0:0:
256,192,20256,1,0,0:0:0:0:
402,192,20256,1,0,0:0:0:0:
182,192,20423,1,0,0:0:0:0:
329,192,20590,1,0,0:0:0:0:
475,192,20756,1,0,0:0:0:0:
36,192,22423,1,0,0:0:0:0:
182,192,22423,1,0,0:0:0:0:
329,192,22590,1,0,0:0:0:0:
475,192,22590,1,0,0:0:0:0:
36,192,22756,1,0,0:0:0:0:
182,192,22756,1,0,0:0:0:0:
402,192,22923,128,0,25590:0:0:0:0:
109,192,22923,1,0,0:0:0:0:
329,192,22923,1,0,0:0:0:0:
475,192,22923,1,0,0:0:0:0:
256,192,23090,1,0,0:0:0:0:
109,192,23256,1,0,0:0:0:0:
256,192,23423,1,0,0:0:0:0:
36,192,23590,1,0,0:0:0:0:
182,192,23590,1,0,0:0:0:0:
475,192,23590,1,0,0:0:0:0:
256,192,23756,1,0,0:0:0:0:
109,192,23923,1,0,0:0:0:0:
256,192,24090,1,0,0:0:0:0:
36,192,24256,1,0,0:0:0:0:
475,192,24256,1,0,0:0:0:0:
182,192,24423,1,0,0:0:0:0:
36,192,24590,1,0,0:0:0:0:
182,192,24756,1,0,0:0:0:0:
475,192,24756,1,0,0:0:0:0:
329,192,24756,1,0,0:0:0:0:
36,192,24923,1,0,0:0:0:0:
256,192,24923,1,0,0:0:0:0:
329,192,25090,1,0,0:0:0:0:
36,192,25256,128,0,25590:0:0:0:0:
182,192,25256,1,0,0:0:0:0:
256,192,25423,1,0,0:0:0:0:
329,192,25590,128,0,28256:0:0:0:0:
109,192,25590,1,0,0:0:0:0:
475,192,25590,1,0,0:0:0:0:
256,192,25756,1,0,0:0:0:0:
36,192,25923,1,0,0:0:0:0:
182,192,26090,1,0,0:0:0:0:
475,192,26090,1,0,0:0:0:0:
36,192,26256,1,0,0:0:0:0:
109,192,26256,1,0,0:0:0:0:
256,192,26423,1,0,0:0:0:0:
402,192,26423,1,0,0:0:0:0:
109,192,26590,1,0,0:0:0:0:
256,192,26756,1,0,0:0:0:0:
475,192,26756,1,0,0:0:0:0:
36,192,26923,1,0,0:0:0:0:
182,192,26923,1,0,0:0:0:0:
402,192,27090,1,0,0:0:0:0:
109,192,27090,1,0,0:0:0:0:
36,192,27256,1,0,0:0:0:0:
182,192,27423,1,0,0:0:0:0:
402,192,27423,1,0,0:0:0:0:
36,192,27590,1,0,0:0:0:0:
256,192,27590,1,0,0:0:0:0:
475,192,27590,1,0,0:0:0:0:
182,192,27756,1,0,0:0:0:0:
109,192,27923,1,0,0:0:0:0:
36,192,27923,128,0,28256:0:0:0:0:
475,192,27923,1,0,0:0:0:0:
182,192,28090,1,0,0:0:0:0:
402,192,28090,1,0,0:0:0:0:
109,192,28256,128,0,29590:0:0:0:0:
256,192,28256,1,0,0:0:0:0:
475,192,28256,1,0,0:0:0:0:
182,192,28423,1,0,0:0:0:0:
402,192,28590,1,0,0:0:0:0:
182,192,28756,1,0,0:0:0:0:
475,192,28923,1,0,0:0:0:0:
36,192,28923,1,0,0:0:0:0:
256,192,28923,1,0,0:0:0:0:
329,192,29090,1,0,0:0:0:0:
182,192,29090,1,0,0:0:0:0:
402,192,29256,1,0,0:0:0:0:
36,192,29256,1,0,0:0:0:0:
329,192,29423,1,0,0:0:0:0:
475,192,29423,1,0,0:0:0:0:
36,192,29590,1,0,0:0:0:0:
256,192,29590,1,0,0:0:0:0:
182,192,29590,128,0,30923:0:0:0:0:
402,192,29756,1,0,0:0:0:0:
475,192,29756,1,0,0:0:0:0:
256,192,29923,1,0,0:0:0:0:
36,192,29923,1,0,0:0:0:0:
402,192,30090,1,0,0:0:0:0:
256,192,30256,1,0,0:0:0:0:
109,192,30256,1,0,0:0:0:0:
475,192,30256,1,0,0:0:0:0:
329,192,30423,1,0,0:0:0:0:
402,192,30590,1,0,0:0:0:0:
36,192,30590,128,0,30923:0:0:0:0:
256,192,30756,1,0,0:0:0:0:
475,192,30923,128,0,31590:0:0:0:0:
109,192,30923,1,0,0:0:0:0:
402,192,30923,1,0,0:0:0:0:
182,192,31090,1,0,0:0:0:0:
329,192,31256,1,0,0:0:0:0:
256,192,31256,1,0,0:0:0:0:
182,192,31423,1,0,0:0:0:0:
109,192,31590,128,0,31923:0:0:0:0:
36,192,31590,1,0,0:0:0:0:
402,192,31590,1,0,0:0:0:0:
256,192,31756,1,0,0:0:0:0:
182,192,31923,1,0,0:0:0:0:
329,192,32090,1,0,0:0:0:0:
256,192,32090,128,0,32756:0:0:0:0:
475,192,32090,1,0,0:0:0:0:
109,192,32256,1,0,0:0:0:0:
36,192,32423,1,0,0:0:0:0:
182,192,32423,1,0,0:0:0:0:
402,192,32590,1,0,0:0:0:0:
475,192,32756,128,0,33256:0:0:0:0:
109,192,32756,1,0,0:0:0:0:
329,192,32923,1,0,0:0:0:0:
182,192,33090,128,0,33590:0:0:0:0:
36,192,33090,1,0,0:0:0:0:
402,192,33256,128,0,33590:0:0:0:0:
256,192,33256,1,0,0:0:0:0:
329,192,33423,1,0,0:0:0:0:
36,192,33590,128,0,34923:0:0:0:0:
109,192,33590,1,0,0:0:0:0:
475,192,33590,1,0,0:0:0:0:
256,192,33590,1,0,0:0:0:0:
182,192,33756,1,0,0:0:0:0:
329,192,33756,1,0,0:0:0:0:
256,192,33923,1,0,0:0:0:0:
475,192,33923,1,0,0:0:0:0:
109,192,33923,1,0,0:0:0:0:
329,192,34090,1,0,0:0:0:0:
402,192,34256,128,0,34340:0:0:0:0:
182,192,34256,1,0,0:0:0:0:
475,192,34256,1,0,0:0:0:0:
402,192,34423,128,0,34506:0:0:0:0:
256,192,34423,1,0,0:0:0:0:
109,192,34590,1,0,0:0:0:0:
475,192,34590,1,0,0:0:0:0:
329,192,34590,1,0,0:0:0:0:
256,192,34756,1,0,0:0:0:0:
182,192,34923,1,0,0:0:0:0:
402,192,34923,1,0,0:0:0:0:
475,192,34923,128,0,36256:0:0:0:0:
109,192,35090,1,0,0:0:0:0:
329,192,35090,1,0,0:0:0:0:
36,192,35256,1,0,0:0:0:0:
182,192,35256,1,0,0:0:0:0:
402,192,35256,1,0,0:0:0:0:
329,192,35423,1,0,0:0:0:0:
256,192,35590,128,0,35673:0:0:0:0:
36,192,35590,1,0,0:0:0:0:
402,192,35590,1,0,0:0:0:0:
256,192,35756,128,0,35840:0:0:0:0:
109,192,35756,1,0,0:0:0:0:
402,192,35923,1,0,0:0:0:0:
36,192,35923,1,0,0:0:0:0:
182,192,35923,1,0,0:0:0:0:
256,192,36090,1,0,0:0:0:0:
329,192,36173,1,0,0:0:0:0:
36,192,36256,1,0,0:0:0:0:
402,192,36256,1,0,0:0:0:0:
109,192,36256,128,0,37590:0:0:0:0:
182,192,36256,1,0,0:0:0:0:
256,192,36423,1,0,0:0:0:0:
329,192,36423,1,0,0:0:0:0:
182,192,36590,1,0,0:0:0:0:
475,192,36590,1,0,0:0:0:0:
256,192,36756,1,0,0:0:0:0:
402,192,36756,1,0,0:0:0:0:
36,192,36923,1,0,0:0:0:0:
329,192,36923,128,0,37006:0:0:0:0:
475,192,36923,1,0,0:0:0:0:
329,192,37090,128,0,37173:0:0:0:0:
182,192,37090,1,0,0:0:0:0:
256,192,37256,1,0,0:0:0:0:
475,192,37256,1,0,0:0:0:0:
36,192,37256,1,0,0:0:0:0:
329,192,37423,1,0,0:0:0:0:
256,192,37506,1,0,0:0:0:0:
402,192,37590,128,0,38923:0:0:0:0:
36,192,37590,1,0,0:0:0:0:
475,192,37590,1,0,0:0:0:0:
182,192,37590,1,0,0:0:0:0:
109,192,37756,1,0,0:0:0:0:
256,192,37756,1,0,0:0:0:0:
36,192,37923,1,0,0:0:0:0:
182,192,37923,1,0,0:0:0:0:
329,192,37923,1,0,0:0:0:0:
109,192,38090,1,0,0:0:0:0:
182,192,38256,128,0,38590:0:0:0:0:
256,192,38256,1,0,0:0:0:0:
475,192,38256,1,0,0:0:0:0:
329,192,38423,1,0,0:0:0:0:
36,192,38590,128,0,38923:0:0:0:0:
109,192,38590,1,0,0:0:0:0:
475,192,38590,1,0,0:0:0:0:
256,192,38756,1,0,0:0:0:0:
182,192,38840,1,0,0:0:0:0:
475,192,38923,1,0,0:0:0:0:
329,192,38923,128,0,40256:0:0:0:0:
109,192,38923,1,0,0:0:0:0:
256,192,39090,1,0,0:0:0:0:
402,192,39090,1,0,0:0:0:0:
36,192,39256,1,0,0:0:0:0:
182,192,39256,1,0,0:0:0:0:
475,192,39256,1,0,0:0:0:0:
109,192,39423,1,0,0:0:0:0:
256,192,39423,1,0,0:0:0:0:
36,192,39590,128,0,39923:0:0:0:0:
402,192,39590,1,0,0:0:0:0:
182,192,39756,1,0,0:0:0:0:
475,192,39923,128,0,40256:0:0:0:0:
402,192,39923,1,0,0:0:0:0:
109,192,39923,1,0,0:0:0:0:
256,192,39923,1,0,0:0:0:0:
182,192,40090,1,0,0:0:0:0:
256,192,40173,1,0,0:0:0:0:
402,192,40256,128,0,41256:0:0:0:0:
109,192,40256,1,0,0:0:0:0:
36,192,40256,1,0,0:0:0:0:
182,192,40423,1,0,0:0:0:0:
329,192,40423,1,0,0:0:0:0:
256,192,40590,1,0,0:0:0:0:
475,192,40590,1,0,0:0:0:0:
109,192,40590,1,0,0:0:0:0:
182,192,40756,1,0,0:0:0:0:
36,192,40923,1,0,0:0:0:0:
256,192,40923,128,0,41256:0:0:0:0:
109,192,41090,1,0,0:0:0:0:
182,192,41256,1,0,0:0:0:0:
329,192,41256,128,0,41590:0:0:0:0:
36,192,41256,1,0,0:0:0:0:
475,192,41423,128,0,41590:0:0:0:0:
109,192,41423,1,0,0:0:0:0:
36,192,41590,128,0,42923:0:0:0:0:
256,192,41590,1,0,0:0:0:0:
402,192,41590,1,0,0:0:0:0:
182,192,41756,1,0,0:0:0:0:
109,192,41923,1,0,0:0:0:0:
329,192,41923,1,0,0:0:0:0:
402,192,41923,128,0,42006:0:0:0:0:
256,192,42090,1,0,0:0:0:0:
182,192,42256,128,0,42923:0:0:0:0:
475,192,42256,1,0,0:0:0:0:
329,192,42423,1,0,0:0:0:0:
402,192,42590,128,0,42923:0:0:0:0:
109,192,42590,1,0,0:0:0:0:
475,192,42756,1,0,0:0:0:0:
329,192,42923,1,0,0:0:0:0:
256,192,42923,128,0,43590:0:0:0:0:
475,192,43090,1,0,0:0:0:0:
109,192,43256,128,0,43590:0:0:0:0:
402,192,43256,1,0,0:0:0:0:
182,192,43423,1,0,0:0:0:0:
329,192,43590,128,0,43923:0:0:0:0:
36,192,43590,1,0,0:0:0:0:
475,192,43590,1,0,0:0:0:0:
182,192,43840,1,0,0:0:0:0:
36,192,43923,1,0,0:0:0:0:
402,192,44090,128,0,44340:0:0:0:0:
475,192,44090,128,0,44590:0:0:0:0:
109,192,44090,1,0,0:0:0:0:
256,192,44090,1,0,0:0:0:0:
182,192,44256,1,0,0:0:0:0:
329,192,44423,1,0,0:0:0:0:
402,192,44423,1,0,0:0:0:0:
36,192,44423,1,0,0:0:0:0:
182,192,44590,1,0,0:0:0:0:
475,192,44756,1,0,0:0:0:0:
256,192,44756,1,0,0:0:0:0:
402,192,44840,1,0,0:0:0:0:
109,192,44923,1,0,0:0:0:0:
329,192,44923,1,0,0:0:0:0:
36,192,44923,128,0,45256:0:0:0:0:
182,192,45090,1,0,0:0:0:0:
402,192,45090,1,0,0:0:0:0:
475,192,45256,128,0,45423:0:0:0:0:
402,192,45423,128,0,45923:0:0:0:0:
329,192,45423,128,0,45673:0:0:0:0:
36,192,45423,1,0,0:0:0:0:
182,192,45423,1,0,0:0:0:0:
109,192,45590,1,0,0:0:0:0:
329,192,45756,1,0,0:0:0:0:
256,192,45756,1,0,0:0:0:0:
36,192,45756,1,0,0:0:0:0:
182,192,45923,1,0,0:0:0:0:
109,192,46090,1,0,0:0:0:0:
402,192,46090,1,0,0:0:0:0:
182,192,46173,1,0,0:0:0:0:
256,192,46256,1,0,0:0:0:0:
475,192,46256,1,0,0:0:0:0:
109,192,46423,1,0,0:0:0:0:
402,192,46423,1,0,0:0:0:0:
475,192,46590,128,0,46756:0:0:0:0:
182,192,46590,1,0,0:0:0:0:
109,192,46673,1,0,0:0:0:0:
256,192,46756,128,0,47006:0:0:0:0:
329,192,46756,128,0,47256:0:0:0:0:
402,192,46756,1,0,0:0:0:0:
36,192,46756,1,0,0:0:0:0:
36,192,46923,1,0,0:0:0:0:
256,192,47090,1,0,0:0:0:0:
182,192,47090,1,0,0:0:0:0:
109,192,47256,1,0,0:0:0:0:
329,192,47423,1,0,0:0:0:0:
402,192,47506,1,0,0:0:0:0:
109,192,47590,1,0,0:0:0:0:
256,192,47590,1,0,0:0:0:0:
475,192,47590,128,0,47923:0:0:0:0:
182,192,47756,1,0,0:0:0:0:
329,192,47756,1,0,0:0:0:0:
256,192,47923,1,0,0:0:0:0:
36,192,47923,128,0,48090:0:0:0:0:
402,192,47923,1,0,0:0:0:0:
109,192,48090,128,0,48590:0:0:0:0:
182,192,48090,128,0,48340:0:0:0:0:
329,192,48090,1,0,0:0:0:0:
475,192,48090,1,0,0:0:0:0:
402,192,48256,1,0,0:0:0:0:
182,192,48423,1,0,0:0:0:0:
256,192,48423,1,0,0:0:0:0:
475,192,48423,1,0,0:0:0:0:
402,192,48590,1,0,0:0:0:0:
182,192,48756,1,0,0:0:0:0:
109,192,48840,1,0,0:0:0:0:
36,192,48923,1,0,0:0:0:0:
256,192,48923,1,0,0:0:0:0:
475,192,48923,1,0,0:0:0:0:
329,192,49090,1,0,0:0:0:0:
402,192,49173,1,0,0:0:0:0:
182,192,49256,1,0,0:0:0:0:
475,192,49256,1,0,0:0:0:0:
109,192,49256,1,0,0:0:0:0:
329,192,49423,1,0,0:0:0:0:
256,192,49506,1,0,0:0:0:0:
182,192,49590,128,0,50756:0:0:0:0:
36,192,49590,1,0,0:0:0:0:
402,192,49590,1,0,0:0:0:0:
329,192,49756,1,0,0:0:0:0:
109,192,49923,1,0,0:0:0:0:
475,192,49923,128,0,50256:0:0:0:0:
402,192,49923,1,0,0:0:0:0:
329,192,50090,1,0,0:0:0:0:
256,192,50256,1,0,0:0:0:0:
36,192,50256,128,0,50590:0:0:0:0:
402,192,50423,1,0,0:0:0:0:
109,192,50590,1,0,0:0:0:0:
329,192,50590,1,0,0:0:0:0:
475,192,50590,128,0,50756:0:0:0:0:
402,192,50756,128,0,51923:0:0:0:0:
36,192,50756,1,0,0:0:0:0:
256,192,50756,1,0,0:0:0:0:
329,192,50923,1,0,0:0:0:0:
475,192,51090,1,0,0:0:0:0:
109,192,51090,128,0,51423:0:0:0:0:
256,192,51090,1,0,0:0:0:0:
182,192,51256,1,0,0:0:0:0:
36,192,51423,1,0,0:0:0:0:
256,192,51423,128,0,51756:0:0:0:0:
109,192,51590,1,0,0:0:0:0:
182,192,51756,1,0,0:0:0:0:
36,192,51756,128,0,51923:0:0:0:0:
109,192,51923,1,0,0:0:0:0:
475,192,51923,1,0,0:0:0:0:
329,192,51923,128,0,52256:0:0:0:0:
182,192,52090,128,0,52423:0:0:0:0:
256,192,52256,1,0,0:0:0:0:
402,192,52256,128,0,53423:0:0:0:0:
475,192,52256,128,0,54090:0:0:0:0:
36,192,52423,1,0,0:0:0:0:
109,192,52506,1,0,0:0:0:0:
182,192,52590,1,0,0:0:0:0:
109,192,52673,1,0,0:0:0:0:
182,192,52756,1,0,0:0:0:0:
36,192,52923,128,0,53923:0:0:0:0:
256,192,52923,1,0,0:0:0:0:
329,192,52923,128,0,53090:0:0:0:0:
256,192,53090,1,0,0:0:0:0:
182,192,53173,1,0,0:0:0:0:
329,192,53256,1,0,0:0:0:0:
109,192,53423,128,0,53840:0:0:0:0:
182,192,53423,128,0,53756:0:0:0:0:
329,192,53756,128,0,53923:0:0:0:0:
402,192,53923,128,0,54756:0:0:0:0:
182,192,53923,1,0,0:0:0:0:
109,192,54006,1,0,0:0:0:0:
329,192,54090,1,0,0:0:0:0:
36,192,54090,128,0,54423:0:0:0:0:
182,192,54256,1,0,0:0:0:0:
329,192,54423,1,0,0:0:0:0:
109,192,54423,1,0,0:0:0:0:
182,192,54506,1,0,0:0:0:0:
256,192,54590,1,0,0:0:0:0:
475,192,54590,128,0,54756:0:0:0:0:
329,192,54673,1,0,0:0:0:0:
109,192,54756,128,0,55256:0:0:0:0:
36,192,54756,128,0,55006:0:0:0:0:
182,192,54756,1,0,0:0:0:0:
329,192,54923,1,0,0:0:0:0:
256,192,55090,1,0,0:0:0:0:
36,192,55090,1,0,0:0:0:0:
475,192,55090,1,0,0:0:0:0:
182,192,55256,1,0,0:0:0:0:
402,192,55256,1,0,0:0:0:0:
329,192,55423,1,0,0:0:0:0:
402,192,55506,1,0,0:0:0:0:
109,192,55590,1,0,0:0:0:0:
475,192,55590,1,0,0:0:0:0:
256,192,55756,128,0,55923:0:0:0:0:
182,192,55756,1,0,0:0:0:0:
402,192,55756,1,0,0:0:0:0:
36,192,55923,128,0,56090:0:0:0:0:
475,192,55923,1,0,0:0:0:0:
109,192,56090,128,0,56340:0:0:0:0:
182,192,56090,128,0,56590:0:0:0:0:
329,192,56090,1,0,0:0:0:0:
402,192,56256,1,0,0:0:0:0:
36,192,56423,1,0,0:0:0:0:
109,192,56423,1,0,0:0:0:0:
329,192,56423,1,0,0:0:0:0:
256,192,56590,1,0,0:0:0:0:
475,192,56590,1,0,0:0:0:0:
109,192,56756,1,0,0:0:0:0:
182,192,56840,1,0,0:0:0:0:
256,192,56923,1,0,0:0:0:0:
402,192,56923,1,0,0:0:0:0:
329,192,57090,128,0,57256:0:0:0:0:
36,192,57090,1,0,0:0:0:0:
475,192,57090,1,0,0:0:0:0:
109,192,57256,128,0,57423:0:0:0:0:
402,192,57256,1,0,0:0:0:0:
182,192,57423,128,0,57673:0:0:0:0:
256,192,57423,128,0,57923:0:0:0:0:
475,192,57423,1,0,0:0:0:0:
329,192,57590,1,0,0:0:0:0:
182,192,57756,1,0,0:0:0:0:
109,192,57756,1,0,0:0:0:0:
402,192,57756,1,0,0:0:0:0:
36,192,57923,1,0,0:0:0:0:
475,192,57923,1,0,0:0:0:0:
329,192,58090,1,0,0:0:0:0:
256,192,58173,1,0,0:0:0:0:
182,192,58256,1,0,0:0:0:0:
402,192,58256,1,0,0:0:0:0:
36,192,58423,128,0,58590:0:0:0:0:
109,192,58423,1,0,0:0:0:0:
402,192,58590,128,0,58756:0:0:0:0:
182,192,58590,1,0,0:0:0:0:
256,192,58756,128,0,59256:0:0:0:0:
329,192,58756,128,0,59006:0:0:0:0:
109,192,58756,1,0,0:0:0:0:
475,192,58756,1,0,0:0:0:0:
182,192,58923,1,0,0:0:0:0:
329,192,59090,1,0,0:0:0:0:
402,192,59090,1,0,0:0:0:0:
36,192,59090,1,0,0:0:0:0:
109,192,59256,1,0,0:0:0:0:
475,192,59256,1,0,0:0:0:0:
402,192,59423,1,0,0:0:0:0:
329,192,59506,1,0,0:0:0:0:
256,192,59590,1,0,0:0:0:0:
36,192,59590,1,0,0:0:0:0:
109,192,59756,128,0,59923:0:0:0:0:
475,192,59756,1,0,0:0:0:0:
329,192,59923,128,0,60090:0:0:0:0:
256,192,59923,1,0,0:0:0:0:
182,192,60090,128,0,60256:0:0:0:0:
475,192,60090,1,0,0:0:0:0:
36,192,60256,128,0,60506:0:0:0:0:
329,192,60256,1,0,0:0:0:0:
109,192,60256,1,0,0:0:0:0:
402,192,60423,1,0,0:0:0:0:
36,192,60590,128,0,60840:0:0:0:0:
329,192,60590,1,0,0:0:0:0:
402,192,60756,1,0,0:0:0:0:
36,192,60923,128,0,61173:0:0:0:0:
256,192,60923,1,0,0:0:0:0:
402,192,61090,1,0,0:0:0:0:
36,192,61256,128,0,61506:0:0:0:0:
256,192,61256,1,0,0:0:0:0:
402,192,61423,1,0,0:0:0:0:
475,192,61590,128,0,61840:0:0:0:0:
36,192,61590,1,0,0:0:0:0:
182,192,61590,1,0,0:0:0:0:
329,192,61756,1,0,0:0:0:0:
475,192,61923,128,0,62173:0:0:0:0:
109,192,61923,1,0,0:0:0:0:
182,192,62090,1,0,0:0:0:0:
475,192,62256,128,0,62506:0:0:0:0:
36,192,62256,1,0,0:0:0:0:
256,192,62423,1,0,0:0:0:0:
475,192,62590,128,0,62840:0:0:0:0:
182,192,62590,1,0,0:0:0:0:
36,192,62756,128,0,64090:0:0:0:0:
109,192,62840,128,0,63590:0:0:0:0:
182,192,62923,128,0,63506:0:0:0:0:
256,192,63006,128,0,63423:0:0:0:0:
329,192,63090,128,0,63340:0:0:0:0:
402,192,63173,128,0,63256:0:0:0:0:
475,192,63340,128,0,64090:0:0:0:0:
402,192,63423,128,0,64006:0:0:0:0:
329,192,63506,128,0,63923:0:0:0:0:
256,192,63590,128,0,63840:0:0:0:0:
182,192,63673,128,0,63756:0:0:0:0:
109,192,63840,1,0,0:0:0:0:
182,192,63923,1,0,0:0:0:0:
256,192,64006,1,0,0:0:0:0:
329,192,64090,1,0,0:0:0:0:
402,192,64173,1,0,0:0:0:0:
36,192,64256,1,0,0:0:0:0:
475,192,64256,1,0,0:0:0:0:
256,192,64423,1,0,0:0:0:0:
36,192,64590,128,0,65506:0:0:0:0:
329,192,64590,128,0,65506:0:0:0:0:
182,192,64590,128,0,64923:0:0:0:0:
475,192,64590,128,0,64923:0:0:0:0:
109,192,64590,128,0,64756:0:0:0:0:
402,192,64590,128,0,64756:0:0:0:0:
256,192,65090,1,0,0:0:0:0:
109,192,65173,1,0,0:0:0:0:
402,192,65256,1,0,0:0:0:0:
109,192,65590,128,0,65756:0:0:0:0:
36,192,65590,128,0,66923:0:0:0:0:
182,192,65673,128,0,65840:0:0:0:0:
256,192,65756,128,0,65923:0:0:0:0:
329,192,65840,128,0,66006:0:0:0:0:
109,192,65923,128,0,66090:0:0:0:0:
182,192,66006,128,0,66173:0:0:0:0:
256,192,66090,128,0,66256:0:0:0:0:
329,192,66173,128,0,66340:0:0:0:0:
475,192,66256,128,0,66590:0:0:0:0:
182,192,66340,128,0,66673:0:0:0:0:
402,192,66423,128,0,66756:0:0:0:0:
109,192,66506,128,0,66840:0:0:0:0:
256,192,66590,128,0,66756:0:0:0:0:
329,192,66756,128,0,66923:0:0:0:0:
475,192,66923,128,0,68256:0:0:0:0:
182,192,66923,128,0,67173:0:0:0:0:
256,192,67006,128,0,67256:0:0:0:0:
329,192,67090,128,0,67340:0:0:0:0:
402,192,67173,128,0,67423:0:0:0:0:
36,192,67423,128,0,68173:0:0:0:0:
182,192,67423,128,0,67756:0:0:0:0:
329,192,67756,1,0,0:0:0:0:
402,192,67756,1,0,0:0:0:0:
109,192,67756,128,0,68006:0:0:0:0:
256,192,67923,128,0,68256:0:0:0:0:
182,192,68090,128,0,68256:0:0:0:0:
36,192,68256,128,0,68423:0:0:0:0:
402,192,68256,128,0,68923:0:0:0:0:
109,192,68340,128,0,68506:0:0:0:0:
182,192,68423,128,0,68590:0:0:0:0:
256,192,68506,128,0,68673:0:0:0:0:
109,192,68590,128,0,68756:0:0:0:0:
182,192,68673,128,0,68840:0:0:0:0:
256,192,68756,128,0,68923:0:0:0:0:
329,192,68840,128,0,69006:0:0:0:0:
182,192,68923,128,0,69090:0:0:0:0:
256,192,69006,128,0,69173:0:0:0:0:
329,192,69090,128,0,69256:0:0:0:0:
402,192,69173,128,0,69340:0:0:0:0:
475,192,69256,128,0,69590:0:0:0:0:
36,192,69256,128,0,69590:0:0:0:0:
256,192,69256,128,0,69423:0:0:0:0:
109,192,69340,128,0,69506:0:0:0:0:
182,192,69423,128,0,69590:0:0:0:0:
329,192,69590,128,0,69923:0:0:0:0:
256,192,69673,128,0,69840:0:0:0:0:
182,192,69756,128,0,69923:0:0:0:0:
109,192,69840,128,0,70006:0:0:0:0:
402,192,69923,128,0,70506:0:0:0:0:
329,192,70006,128,0,70173:0:0:0:0:
256,192,70090,128,0,70256:0:0:0:0:
182,192,70173,128,0,70340:0:0:0:0:
36,192,70256,128,0,70423:0:0:0:0:
109,192,70340,128,0,70506:0:0:0:0:
182,192,70423,128,0,70590:0:0:0:0:
256,192,70506,128,0,70673:0:0:0:0:
402,192,70590,128,0,70756:0:0:0:0:
109,192,70756,128,0,70923:0:0:0:0:
475,192,70923,128,0,71423:0:0:0:0:
402,192,71006,128,0,71506:0:0:0:0:
329,192,71090,128,0,71590:0:0:0:0:
256,192,71173,128,0,71340:0:0:0:0:
36,192,71256,128,0,71840:0:0:0:0:
109,192,71340,128,0,71506:0:0:0:0:
182,192,71423,128,0,71590:0:0:0:0:
256,192,71506,128,0,71673:0:0:0:0:
475,192,71590,128,0,71756:0:0:0:0:
402,192,71673,128,0,71840:0:0:0:0:
329,192,71756,128,0,71923:0:0:0:0:
256,192,71840,128,0,72006:0:0:0:0:
182,192,71923,128,0,72256:0:0:0:0:
36,192,71923,128,0,72090:0:0:0:0:
402,192,72090,128,0,72256:0:0:0:0:
256,192,72256,128,0,72423:0:0:0:0:
329,192,72340,128,0,72506:0:0:0:0:
402,192,72423,128,0,72590:0:0:0:0:
475,192,72506,128,0,72673:0:0:0:0:
182,192,72590,128,0,72756:0:0:0:0:
256,192,72673,128,0,72840:0:0:0:0:
329,192,72756,128,0,72923:0:0:0:0:
402,192,72840,128,0,73006:0:0:0:0:
109,192,72923,128,0,73090:0:0:0:0:
182,192,73006,128,0,73173:0:0:0:0:
256,192,73090,128,0,73256:0:0:0:0:
329,192,73173,128,0,73340:0:0:0:0:
36,192,73256,128,0,73423:0:0:0:0:
475,192,73256,128,0,73590:0:0:0:0:
109,192,73340,128,0,73506:0:0:0:0:
256,192,73590,128,0,73923:0:0:0:0:
402,192,73590,128,0,74923:0:0:0:0:
36,192,73923,128,0,74256:0:0:0:0:
182,192,73923,128,0,74256:0:0:0:0:
475,192,73923,1,0,0:0:0:0:
109,192,74256,128,0,74590:0:0:0:0:
256,192,74256,128,0,74590:0:0:0:0:
475,192,74256,1,0,0:0:0:0:
182,192,74590,128,0,74923:0:0:0:0:
329,192,74590,128,0,74923:0:0:0:0:
475,192,74590,1,0,0:0:0:0:
36,192,74923,128,0,76256:0:0:0:0:
109,192,74923,128,0,75256:0:0:0:0:
256,192,74923,128,0,75590:0:0:0:0:
475,192,74923,1,0,0:0:0:0:
475,192,75256,128,0,75923:0:0:0:0:
329,192,75256,128,0,75590:0:0:0:0:
402,192,75590,128,0,75923:0:0:0:0:
182,192,75590,128,0,76256:0:0:0:0:
329,192,75923,128,0,76256:0:0:0:0:
109,192,75923,128,0,76256:0:0:0:0:
475,192,76256,128,0,77590:0:0:0:0:
402,192,76256,128,0,76423:0:0:0:0:
329,192,76340,128,0,76506:0:0:0:0:
256,192,76423,128,0,76590:0:0:0:0:
182,192,76506,128,0,76673:0:0:0:0:
402,192,76590,128,0,76756:0:0:0:0:
329,192,76673,128,0,76840:0:0:0:0:
256,192,76756,128,0,76923:0:0:0:0:
182,192,76840,128,0,77006:0:0:0:0:
36,192,76923,128,0,77256:0:0:0:0:
329,192,77006,128,0,77340:0:0:0:0:
109,192,77090,128,0,77423:0:0:0:0:
402,192,77173,128,0,77506:0:0:0:0:
256,192,77256,128,0,77423:0:0:0:0:
182,192,77423,128,0,77590:0:0:0:0:
256,192,77590,128,0,77840:0:0:0:0:
36,192,77590,128,0,78840:0:0:0:0:
329,192,77673,128,0,77923:0:0:0:0:
402,192,77756,128,0,78006:0:0:0:0:
475,192,77840,128,0,78090:0:0:0:0:
256,192,78090,128,0,78423:0:0:0:0:
182,192,78090,128,0,78923:0:0:0:0:
109,192,78423,128,0,78673:0:0:0:0:
329,192,78423,1,0,0:0:0:0:
402,192,78423,1,0,0:0:0:0:
475,192,78590,128,0,78923:0:0:0:0:
329,192,78756,128,0,78923:0:0:0:0:
36,192,78923,128,0,79090:0:0:0:0:
402,192,78923,128,0,79590:0:0:0:0:
109,192,79006,128,0,79173:0:0:0:0:
182,192,79090,128,0,79256:0:0:0:0:
256,192,79173,128,0,79340:0:0:0:0:
109,192,79256,128,0,79423:0:0:0:0:
182,192,79340,128,0,79506:0:0:0:0:
256,192,79423,128,0,79590:0:0:0:0:
329,192,79506,128,0,79673:0:0:0:0:
182,192,79590,128,0,79756:0:0:0:0:
256,192,79673,128,0,79840:0:0:0:0:
329,192,79756,128,0,79923:0:0:0:0:
402,192,79840,128,0,80006:0:0:0:0:
256,192,79923,128,0,80090:0:0:0:0:
475,192,79923,128,0,80256:0:0:0:0:
36,192,79923,128,0,80256:0:0:0:0:
109,192,80006,128,0,80173:0:0:0:0:
182,192,80090,128,0,80256:0:0:0:0:
329,192,80256,128,0,80590:0:0:0:0:
256,192,80340,128,0,80506:0:0:0:0:
182,192,80423,128,0,80590:0:0:0:0:
109,192,80506,128,0,80673:0:0:0:0:
402,192,80590,128,0,81423:0:0:0:0:
329,192,80673,128,0,80840:0:0:0:0:
256,192,80756,128,0,80923:0:0:0:0:
182,192,80840,128,0,81006:0:0:0:0:
36,192,80923,128,0,81090:0:0:0:0:
109,192,81006,128,0,81173:0:0:0:0:
182,192,81090,128,0,81256:0:0:0:0:
256,192,81173,128,0,81340:0:0:0:0:
475,192,81256,128,0,81423:0:0:0:0:
182,192,81423,128,0,81590:0:0:0:0:
475,192,81590,128,0,81756:0:0:0:0:
36,192,81590,128,0,82340:0:0:0:0:
109,192,81673,128,0,82256:0:0:0:0:
402,192,81756,128,0,81923:0:0:0:0:
182,192,81756,128,0,82173:0:0:0:0:
256,192,81840,128,0,82090:0:0:0:0:
329,192,81923,128,0,82006:0:0:0:0:
402,192,82006,128,0,82173:0:0:0:0:
329,192,82090,128,0,82256:0:0:0:0:
256,192,82173,128,0,82340:0:0:0:0:
182,192,82256,128,0,82923:0:0:0:0:
475,192,82340,128,0,82673:0:0:0:0:
402,192,82423,128,0,82756:0:0:0:0:
329,192,82506,128,0,82840:0:0:0:0:
36,192,82590,128,0,82756:0:0:0:0:
109,192,82673,128,0,82840:0:0:0:0:
36,192,82923,128,0,84256:0:0:0:0:
256,192,82923,128,0,83090:0:0:0:0:
329,192,83006,128,0,83173:0:0:0:0:
402,192,83090,128,0,83423:0:0:0:0:
182,192,83256,128,0,83423:0:0:0:0:
256,192,83340,128,0,83506:0:0:0:0:
329,192,83423,128,0,83756:0:0:0:0:
109,192,83590,128,0,83756:0:0:0:0:
475,192,83756,128,0,83923:0:0:0:0:
256,192,83923,128,0,84256:0:0:0:0:
402,192,84090,128,0,84256:0:0:0:0:
329,192,84256,128,0,84923:0:0:0:0:
182,192,84256,128,0,84590:0:0:0:0:
475,192,84590,128,0,84923:0:0:0:0:
36,192,84923,128,0,85590:0:0:0:0:
256,192,84923,128,0,85256:0:0:0:0:
475,192,85256,128,0,85590:0:0:0:0:
182,192,85423,128,0,85590:0:0:0:0:
109,192,85590,128,0,86590:0:0:0:0:
256,192,85590,128,0,85756:0:0:0:0:
182,192,85756,128,0,85923:0:0:0:0:
329,192,85756,128,0,85923:0:0:0:0:
256,192,85923,128,0,86090:0:0:0:0:
402,192,85923,128,0,86090:0:0:0:0:
36,192,85923,1,0,0:0:0:0:
475,192,86090,128,0,86590:0:0:0:0:
329,192,86090,128,0,86423:0:0:0:0:
256,192,86423,128,0,86590:0:0:0:0:
402,192,86423,128,0,86590:0:0:0:0:
182,192,86590,128,0,86756:0:0:0:0:
329,192,86590,128,0,86756:0:0:0:0:
256,192,86756,128,0,86923:0:0:0:0:
36,192,86756,128,0,88173:0:0:0:0:
109,192,86756,128,0,86923:0:0:0:0:
402,192,86923,1,0,0:0:0:0:
402,192,87090,1,0,0:0:0:0:
402,192,87256,1,0,0:0:0:0:
402,192,87423,1,0,0:0:0:0:
109,192,87590,1,0,0:0:0:0:
329,192,87590,1,0,0:0:0:0:
475,192,87590,1,0,0:0:0:0:
402,192,87756,1,0,0:0:0:0:
256,192,87756,1,0,0:0:0:0:
475,192,87840,1,0,0:0:0:0:
329,192,87923,1,0,0:0:0:0:
182,192,87923,1,0,0:0:0:0:
402,192,88006,1,0,0:0:0:0:
256,192,88090,1,0,0:0:0:0:
182,192,88173,1,0,0:0:0:0:
109,192,88173,1,0,0:0:0:0:
402,192,88256,128,0,89590:0:0:0:0:
36,192,88256,1,0,0:0:0:0:
329,192,88256,1,0,0:0:0:0:
475,192,88256,1,0,0:0:0:0:
182,192,88423,1,0,0:0:0:0:
109,192,88590,128,0,88756:0:0:0:0:
329,192,88590,1,0,0:0:0:0:
182,192,88756,1,0,0:0:0:0:
256,192,88923,1,0,0:0:0:0:
109,192,89090,1,0,0:0:0:0:
256,192,89256,1,0,0:0:0:0:
109,192,89423,1,0,0:0:0:0:
182,192,89590,128,0,90923:0:0:0:0:
475,192,89590,1,0,0:0:0:0:
36,192,89590,1,0,0:0:0:0:
256,192,89756,1,0,0:0:0:0:
475,192,89923,1,0,0:0:0:0:
329,192,89923,128,0,90090:0:0:0:0:
256,192,90090,1,0,0:0:0:0:
36,192,90256,128,0,90423:0:0:0:0:
402,192,90256,1,0,0:0:0:0:
109,192,90423,1,0,0:0:0:0:
475,192,90590,128,0,90923:0:0:0:0:
402,192,90590,1,0,0:0:0:0:
109,192,90756,1,0,0:0:0:0:
256,192,90756,128,0,90923:0:0:0:0:
329,192,90923,128,0,91590:0:0:0:0:
36,192,90923,1,0,0:0:0:0:
402,192,90923,1,0,0:0:0:0:
256,192,91090,1,0,0:0:0:0:
36,192,91256,1,0,0:0:0:0:
256,192,91423,1,0,0:0:0:0:
402,192,91590,128,0,91756:0:0:0:0:
36,192,91590,1,0,0:0:0:0:
182,192,91756,128,0,91923:0:0:0:0:
475,192,91756,1,0,0:0:0:0:
329,192,91923,128,0,92090:0:0:0:0:
256,192,91923,1,0,0:0:0:0:
475,192,92090,1,0,0:0:0:0:
109,192,92090,128,0,92590:0:0:0:0:
256,192,92256,1,0,0:0:0:0:
36,192,92256,1,0,0:0:0:0:
475,192,92423,1,0,0:0:0:0:
36,192,92590,128,0,92756:0:0:0:0:
329,192,92590,1,0,0:0:0:0:
475,192,92756,1,0,0:0:0:0:
109,192,92923,1,0,0:0:0:0:
182,192,92923,128,0,93090:0:0:0:0:
402,192,93090,1,0,0:0:0:0:
109,192,93256,1,0,0:0:0:0:
475,192,93256,128,0,93590:0:0:0:0:
402,192,93423,1,0,0:0:0:0:
36,192,93590,128,0,93923:0:0:0:0:
256,192,93590,1,0,0:0:0:0:
329,192,93756,1,0,0:0:0:0:
256,192,93923,128,0,94090:0:0:0:0:
402,192,93923,1,0,0:0:0:0:
109,192,93923,1,0,0:0:0:0:
182,192,94090,128,0,94256:0:0:0:0:
36,192,94090,1,0,0:0:0:0:
109,192,94256,128,0,94590:0:0:0:0:
329,192,94256,1,0,0:0:0:0:
475,192,94256,1,0,0:0:0:0:
256,192,94423,1,0,0:0:0:0:
329,192,94590,128,0,94756:0:0:0:0:
475,192,94590,1,0,0:0:0:0:
36,192,94590,1,0,0:0:0:0:
256,192,94756,128,0,94923:0:0:0:0:
402,192,94756,1,0,0:0:0:0:
182,192,94923,128,0,95590:0:0:0:0:
36,192,94923,1,0,0:0:0:0:
475,192,94923,1,0,0:0:0:0:
329,192,95090,1,0,0:0:0:0:
109,192,95256,1,0,0:0:0:0:
402,192,95256,128,0,95423:0:0:0:0:
329,192,95423,1,0,0:0:0:0:
109,192,95590,128,0,95756:0:0:0:0:
36,192,95590,1,0,0:0:0:0:
475,192,95590,1,0,0:0:0:0:
182,192,95756,128,0,95923:0:0:0:0:
329,192,95756,1,0,0:0:0:0:
402,192,95923,128,0,96090:0:0:0:0:
36,192,95923,1,0,0:0:0:0:
475,192,95923,1,0,0:0:0:0:
329,192,96090,128,0,96590:0:0:0:0:
182,192,96090,1,0,0:0:0:0:
36,192,96256,128,0,96590:0:0:0:0:
109,192,96256,1,0,0:0:0:0:
475,192,96256,1,0,0:0:0:0:
256,192,96423,1,0,0:0:0:0:
182,192,96590,128,0,96756:0:0:0:0:
402,192,96590,1,0,0:0:0:0:
109,192,96590,1,0,0:0:0:0:
256,192,96756,1,0,0:0:0:0:
36,192,96923,128,0,97256:0:0:0:0:
402,192,96923,128,0,97090:0:0:0:0:
329,192,96923,1,0,0:0:0:0:
475,192,96923,1,0,0:0:0:0:
256,192,97090,1,0,0:0:0:0:
182,192,97256,128,0,97423:0:0:0:0:
109,192,97256,1,0,0:0:0:0:
329,192,97256,1,0,0:0:0:0:
475,192,97423,1,0,0:0:0:0:
36,192,97423,1,0,0:0:0:0:
256,192,97423,1,0,0:0:0:0:
402,192,97423,128,0,97923:0:0:0:0:
109,192,97590,1,0,0:0:0:0:
329,192,97590,1,0,0:0:0:0:
256,192,97756,1,0,0:0:0:0:
36,192,97923,128,0,98090:0:0:0:0:
182,192,97923,1,0,0:0:0:0:
475,192,98090,128,0,98423:0:0:0:0:
329,192,98090,1,0,0:0:0:0:
256,192,98256,128,0,98423:0:0:0:0:
109,192,98256,1,0,0:0:0:0:
402,192,98256,1,0,0:0:0:0:
182,192,98423,128,0,98756:0:0:0:0:
329,192,98423,1,0,0:0:0:0:
402,192,98590,128,0,98756:0:0:0:0:
36,192,98590,1,0,0:0:0:0:
109,192,98756,1,0,0:0:0:0:
329,192,98756,128,0,98923:0:0:0:0:
36,192,98923,1,0,0:0:0:0:
256,192,98923,1,0,0:0:0:0:
475,192,98923,1,0,0:0:0:0:
109,192,99090,1,0,0:0:0:0:
182,192,99256,1,0,0:0:0:0:
402,192,99256,128,0,99423:0:0:0:0:
256,192,99423,1,0,0:0:0:0:
109,192,99590,1,0,0:0:0:0:
475,192,99590,1,0,0:0:0:0:
329,192,99756,1,0,0:0:0:0:
256,192,99923,128,0,100090:0:0:0:0:
182,192,99923,1,0,0:0:0:0:
402,192,100090,1,0,0:0:0:0:
36,192,100256,1,0,0:0:0:0:
182,192,100256,1,0,0:0:0:0:
475,192,100256,1,0,0:0:0:0:
402,192,100423,1,0,0:0:0:0:
329,192,100590,1,0,0:0:0:0:
109,192,100590,128,0,100756:0:0:0:0:
256,192,100756,1,0,0:0:0:0:
402,192,100923,1,0,0:0:0:0:
36,192,100923,128,0,101090:0:0:0:0:
256,192,101090,1,0,0:0:0:0:
109,192,101256,1,0,0:0:0:0:
329,192,101256,128,0,101423:0:0:0:0:
256,192,101423,1,0,0:0:0:0:
475,192,101423,128,0,101590:0:0:0:0:
36,192,101590,1,0,0:0:0:0:
182,192,101590,1,0,0:0:0:0:
402,192,101590,1,0,0:0:0:0:
329,192,101756,1,0,0:0:0:0:
109,192,101923,1,0,0:0:0:0:
256,192,101923,128,0,102090:0:0:0:0:
182,192,102090,1,0,0:0:0:0:
36,192,102256,1,0,0:0:0:0:
475,192,102256,1,0,0:0:0:0:
329,192,102256,128,0,102423:0:0:0:0:
256,192,102423,1,0,0:0:0:0:
402,192,102590,1,0,0:0:0:0:
109,192,102590,128,0,102756:0:0:0:0:
329,192,102756,1,0,0:0:0:0:
36,192,102923,1,0,0:0:0:0:
256,192,102923,1,0,0:0:0:0:
402,192,102923,1,0,0:0:0:0:
109,192,103090,1,0,0:0:0:0:
182,192,103256,1,0,0:0:0:0:
36,192,103256,128,0,103423:0:0:0:0:
256,192,103423,1,0,0:0:0:0:
475,192,103423,128,0,103756:0:0:0:0:
109,192,103590,1,0,0:0:0:0:
402,192,103590,1,0,0:0:0:0:
329,192,103756,128,0,103923:0:0:0:0:
36,192,103756,1,0,0:0:0:0:
182,192,103923,128,0,104090:0:0:0:0:
256,192,103923,1,0,0:0:0:0:
475,192,103923,1,0,0:0:0:0:
109,192,104090,128,0,104256:0:0:0:0:
36,192,104090,1,0,0:0:0:0:
256,192,104256,1,0,0:0:0:0:
402,192,104256,1,0,0:0:0:0:
182,192,104423,1,0,0:0:0:0:
329,192,104590,1,0,0:0:0:0:
36,192,104590,128,0,104756:0:0:0:0:
256,192,104756,1,0,0:0:0:0:
109,192,104923,1,0,0:0:0:0:
402,192,104923,128,0,105090:0:0:0:0:
182,192,105090,1,0,0:0:0:0:
256,192,105256,1,0,0:0:0:0:
475,192,105256,1,0,0:0:0:0:
402,192,105423,1,0,0:0:0:0:
36,192,105590,1,0,0:0:0:0:
182,192,105590,1,0,0:0:0:0:
329,192,105590,1,0,0:0:0:0:
109,192,105756,1,0,0:0:0:0:
475,192,105923,1,0,0:0:0:0:
256,192,105923,128,0,106090:0:0:0:0:
182,192,106090,1,0,0:0:0:0:
36,192,106256,1,0,0:0:0:0:
402,192,106256,128,0,106423:0:0:0:0:
329,192,106423,1,0,0:0:0:0:
182,192,106590,1,0,0:0:0:0:
475,192,106590,1,0,0:0:0:0:
256,192,106756,1,0,0:0:0:0:
36,192,106923,128,0,108256:0:0:0:0:
329,192,106923,1,0,0:0:0:0:
475,192,106923,1,0,0:0:0:0:
182,192,107090,1,0,0:0:0:0:
329,192,107256,1,0,0:0:0:0:
109,192,107256,1,0,0:0:0:0:
256,192,107423,1,0,0:0:0:0:
475,192,107590,1,0,0:0:0:0:
402,192,107590,128,0,108256:0:0:0:0:
109,192,107756,1,0,0:0:0:0:
182,192,107923,128,0,108256:0:0:0:0:
475,192,107923,1,0,0:0:0:0:
256,192,108090,1,0,0:0:0:0:
329,192,108256,1,0,0:0:0:0:
109,192,108256,128,0,108923:0:0:0:0:
475,192,108423,1,0,0:0:0:0:
402,192,108590,1,0,0:0:0:0:
256,192,108590,128,0,108923:0:0:0:0:
182,192,108756,1,0,0:0:0:0:
36,192,108923,1,0,0:0:0:0:
329,192,108923,1,0,0:0:0:0:
475,192,108923,128,0,109256:0:0:0:0:
182,192,109173,1,0,0:0:0:0:
36,192,109256,1,0,0:0:0:0:
475,192,109423,128,0,109923:0:0:0:0:
329,192,109423,128,0,109673:0:0:0:0:
256,192,109423,1,0,0:0:0:0:
109,192,109423,1,0,0:0:0:0:
182,192,109590,1,0,0:0:0:0:
329,192,109756,1,0,0:0:0:0:
36,192,109756,1,0,0:0:0:0:
402,192,109756,1,0,0:0:0:0:
182,192,109923,1,0,0:0:0:0:
256,192,110090,1,0,0:0:0:0:
475,192,110090,1,0,0:0:0:0:
402,192,110173,1,0,0:0:0:0:
329,192,110256,1,0,0:0:0:0:
36,192,110256,128,0,110423:0:0:0:0:
109,192,110256,1,0,0:0:0:0:
402,192,110423,1,0,0:0:0:0:
182,192,110423,1,0,0:0:0:0:
475,192,110423,128,0,110756:0:0:0:0:
109,192,110590,1,0,0:0:0:0:
109,192,110756,128,0,111256:0:0:0:0:
256,192,110756,128,0,111006:0:0:0:0:
36,192,110756,1,0,0:0:0:0:
329,192,110756,1,0,0:0:0:0:
402,192,110923,1,0,0:0:0:0:
182,192,111090,1,0,0:0:0:0:
256,192,111090,1,0,0:0:0:0:
475,192,111090,1,0,0:0:0:0:
329,192,111256,1,0,0:0:0:0:
36,192,111423,1,0,0:0:0:0:
182,192,111423,1,0,0:0:0:0:
256,192,111506,1,0,0:0:0:0:
329,192,111590,1,0,0:0:0:0:
475,192,111590,1,0,0:0:0:0:
402,192,111756,128,0,111923:0:0:0:0:
36,192,111756,1,0,0:0:0:0:
256,192,111756,1,0,0:0:0:0:
109,192,111923,128,0,112090:0:0:0:0:
329,192,111923,1,0,0:0:0:0:
329,192,112090,128,0,112590:0:0:0:0:
182,192,112090,128,0,112340:0:0:0:0:
36,192,112090,1,0,0:0:0:0:
475,192,112090,1,0,0:0:0:0:
402,192,112256,1,0,0:0:0:0:
256,192,112423,1,0,0:0:0:0:
182,192,112423,1,0,0:0:0:0:
475,192,112423,1,0,0:0:0:0:
36,192,112590,1,0,0:0:0:0:
182,192,112756,1,0,0:0:0:0:
402,192,112756,1,0,0:0:0:0:
329,192,112840,1,0,0:0:0:0:
256,192,112923,1,0,0:0:0:0:
36,192,112923,128,0,113090:0:0:0:0:
109,192,112923,1,0,0:0:0:0:
475,192,113090,128,0,113256:0:0:0:0:
182,192,113090,1,0,0:0:0:0:
402,192,113090,1,0,0:0:0:0:
109,192,113256,128,0,113423:0:0:0:0:
256,192,113256,1,0,0:0:0:0:
402,192,113423,128,0,113673:0:0:0:0:
256,192,113423,128,0,113923:0:0:0:0:
36,192,113423,1,0,0:0:0:0:
475,192,113423,1,0,0:0:0:0:
182,192,113590,1,0,0:0:0:0:
402,192,113756,1,0,0:0:0:0:
329,192,113756,1,0,0:0:0:0:
109,192,113756,1,0,0:0:0:0:
475,192,113840,1,0,0:0:0:0:
402,192,114090,1,0,0:0:0:0:
329,192,114173,1,0,0:0:0:0:
475,192,114256,1,0,0:0:0:0:
256,192,114256,1,0,0:0:0:0:
36,192,114256,1,0,0:0:0:0:
109,192,114423,1,0,0:0:0:0:
182,192,114506,1,0,0:0:0:0:
256,192,114590,1,0,0:0:0:0:
475,192,114590,1,0,0:0:0:0:
36,192,114590,1,0,0:0:0:0:
329,192,114756,1,0,0:0:0:0:
256,192,114840,1,0,0:0:0:0:
36,192,114923,128,0,116090:0:0:0:0:
182,192,114923,128,0,116090:0:0:0:0:
402,192,114923,128,0,115256:0:0:0:0:
475,192,114923,1,0,0:0:0:0:
109,192,115256,128,0,115590:0:0:0:0:
329,192,115256,1,0,0:0:0:0:
329,192,115590,128,0,115756:0:0:0:0:
475,192,115590,1,0,0:0:0:0:
402,192,115756,128,0,115923:0:0:0:0:
256,192,115923,128,0,116090:0:0:0:0:
475,192,116090,128,0,117423:0:0:0:0:
329,192,116090,128,0,117423:0:0:0:0:
109,192,116256,128,0,116590:0:0:0:0:
36,192,116256,1,0,0:0:0:0:
402,192,116590,128,0,116923:0:0:0:0:
182,192,116590,1,0,0:0:0:0:
182,192,116923,128,0,117090:0:0:0:0:
109,192,117090,128,0,117256:0:0:0:0:
256,192,117256,128,0,117423:0:0:0:0:
182,192,117423,128,0,117756:0:0:0:0:
109,192,117590,128,0,118756:0:0:0:0:
36,192,117590,128,0,119423:0:0:0:0:
475,192,117756,1,0,0:0:0:0:
402,192,117840,1,0,0:0:0:0:
329,192,117923,1,0,0:0:0:0:
402,192,118006,1,0,0:0:0:0:
329,192,118090,1,0,0:0:0:0:
256,192,118173,1,0,0:0:0:0:
475,192,118256,128,0,119256:0:0:0:0:
182,192,118256,128,0,118423:0:0:0:0:
256,192,118423,1,0,0:0:0:0:
329,192,118506,1,0,0:0:0:0:
182,192,118590,1,0,0:0:0:0:
329,192,118756,128,0,119090:0:0:0:0:
402,192,118756,128,0,119173:0:0:0:0:
182,192,119090,128,0,119256:0:0:0:0:
109,192,119256,128,0,120090:0:0:0:0:
329,192,119256,1,0,0:0:0:0:
402,192,119340,1,0,0:0:0:0:
182,192,119423,1,0,0:0:0:0:
475,192,119423,128,0,119756:0:0:0:0:
329,192,119590,1,0,0:0:0:0:
402,192,119756,1,0,0:0:0:0:
182,192,119756,1,0,0:0:0:0:
329,192,119840,1,0,0:0:0:0:
36,192,119923,128,0,120090:0:0:0:0:
256,192,119923,1,0,0:0:0:0:
182,192,120006,1,0,0:0:0:0:
475,192,120090,128,0,120340:0:0:0:0:
329,192,120090,128,0,120590:0:0:0:0:
256,192,120256,1,0,0:0:0:0:
475,192,120423,1,0,0:0:0:0:
402,192,120423,1,0,0:0:0:0:
109,192,120423,1,0,0:0:0:0:
182,192,120590,1,0,0:0:0:0:
402,192,120756,1,0,0:0:0:0:
36,192,120756,1,0,0:0:0:0:
329,192,120840,1,0,0:0:0:0:
109,192,120923,1,0,0:0:0:0:
256,192,120923,1,0,0:0:0:0:
36,192,121090,128,0,121423:0:0:0:0:
329,192,121090,1,0,0:0:0:0:
475,192,121090,1,0,0:0:0:0:
182,192,121256,1,0,0:0:0:0:
402,192,121423,128,0,121923:0:0:0:0:
256,192,121423,128,0,121673:0:0:0:0:
109,192,121423,1,0,0:0:0:0:
182,192,121590,1,0,0:0:0:0:
256,192,121756,1,0,0:0:0:0:
329,192,121756,1,0,0:0:0:0:
36,192,121756,1,0,0:0:0:0:
109,192,121923,1,0,0:0:0:0:
256,192,122090,1,0,0:0:0:0:
475,192,122090,1,0,0:0:0:0:
402,192,122173,1,0,0:0:0:0:
329,192,122256,1,0,0:0:0:0:
109,192,122256,1,0,0:0:0:0:
256,192,122423,128,0,122590:0:0:0:0:
475,192,122423,1,0,0:0:0:0:
182,192,122423,1,0,0:0:0:0:
36,192,122590,128,0,122756:0:0:0:0:
109,192,122590,1,0,0:0:0:0:
256,192,122756,128,0,123256:0:0:0:0:
182,192,122756,128,0,123006:0:0:0:0:
329,192,122756,1,0,0:0:0:0:
402,192,122756,1,0,0:0:0:0:
475,192,122923,1,0,0:0:0:0:
329,192,123090,1,0,0:0:0:0:
36,192,123090,1,0,0:0:0:0:
182,192,123090,1,0,0:0:0:0:
475,192,123256,1,0,0:0:0:0:
402,192,123423,1,0,0:0:0:0:
109,192,123423,1,0,0:0:0:0:
182,192,123506,1,0,0:0:0:0:
256,192,123590,1,0,0:0:0:0:
109,192,123756,1,0,0:0:0:0:
329,192,123756,1,0,0:0:0:0:
182,192,123923,1,0,0:0:0:0:
402,192,123923,1,0,0:0:0:0:
329,192,124090,1,0,0:0:0:0:
475,192,124090,128,0,124590:0:0:0:0:
36,192,124090,128,0,124340:0:0:0:0:
256,192,124256,1,0,0:0:0:0:
36,192,124423,1,0,0:0:0:0:
182,192,124423,1,0,0:0:0:0:
329,192,124423,1,0,0:0:0:0:
109,192,124590,1,0,0:0:0:0:
256,192,124756,1,0,0:0:0:0:
329,192,124840,1,0,0:0:0:0:
109,192,124923,1,0,0:0:0:0:
402,192,124923,1,0,0:0:0:0:
36,192,125090,128,0,125423:0:0:0:0:
475,192,125090,128,0,125423:0:0:0:0:
109,192,125256,128,0,125423:0:0:0:0:
402,192,125256,128,0,125423:0:0:0:0:
256,192,125256,1,0,0:0:0:0:
182,192,125423,128,0,125590:0:0:0:0:
329,192,125423,128,0,125590:0:0:0:0:
109,192,125590,1,0,0:0:0:0:
36,192,125590,128,0,125840:0:0:0:0:
475,192,125590,1,0,0:0:0:0:
402,192,125756,1,0,0:0:0:0:
182,192,125923,1,0,0:0:0:0:
329,192,125923,1,0,0:0:0:0:
36,192,125923,128,0,126173:0:0:0:0:
402,192,126090,1,0,0:0:0:0:
36,192,126256,128,0,126506:0:0:0:0:
256,192,126256,1,0,0:0:0:0:
182,192,126423,1,0,0:0:0:0:
402,192,126423,1,0,0:0:0:0:
256,192,126590,1,0,0:0:0:0:
36,192,126590,128,0,126840:0:0:0:0:
402,192,126756,1,0,0:0:0:0:
475,192,126923,128,0,127173:0:0:0:0:
36,192,126923,1,0,0:0:0:0:
182,192,126923,1,0,0:0:0:0:
329,192,127090,1,0,0:0:0:0:
475,192,127256,128,0,127506:0:0:0:0:
109,192,127256,1,0,0:0:0:0:
182,192,127423,1,0,0:0:0:0:
36,192,127590,1,0,0:0:0:0:
475,192,127590,128,0,127840:0:0:0:0:
329,192,127590,1,0,0:0:0:0:
256,192,127756,1,0,0:0:0:0:
182,192,127923,1,0,0:0:0:0:
475,192,127923,128,0,128173:0:0:0:0:
329,192,128090,1,0,0:0:0:0:
36,192,128090,128,0,129423:0:0:0:0:
109,192,128173,128,0,128923:0:0:0:0:
182,192,128256,128,0,128840:0:0:0:0:
256,192,128340,128,0,128756:0:0:0:0:
329,192,128423,128,0,128673:0:0:0:0:
402,192,128506,128,0,128590:0:0:0:0:
475,192,128673,128,0,129423:0:0:0:0:
402,192,128756,128,0,129340:0:0:0:0:
329,192,128840,128,0,129256:0:0:0:0:
256,192,128923,128,0,129173:0:0:0:0:
182,192,129006,128,0,129090:0:0:0:0:
109,192,129173,1,0,0:0:0:0:
182,192,129256,1,0,0:0:0:0:
256,192,129340,1,0,0:0:0:0:
329,192,129423,1,0,0:0:0:0:
402,192,129506,1,0,0:0:0:0:
475,192,129590,1,0,0:0:0:0:
36,192,129590,1,0,0:0:0:0:
256,192,129756,1,0,0:0:0:0:
36,192,129923,128,0,130256:0:0:0:0:
402,192,129923,128,0,130090:0:0:0:0:
329,192,129923,128,0,130256:0:0:0:0:
475,192,129923,128,0,130840:0:0:0:0:
182,192,129923,128,0,130840:0:0:0:0:
109,192,129923,128,0,130090:0:0:0:0:
256,192,130423,1,0,0:0:0:0:
109,192,130506,1,0,0:0:0:0:
402,192,130590,1,0,0:0:0:0:
475,192,130923,1,0,0:0:0:0:
36,192,130923,128,0,131423:0:0:0:0:
256,192,130923,128,0,131090:0:0:0:0:
329,192,131006,128,0,131173:0:0:0:0:
109,192,131090,128,0,131256:0:0:0:0:
402,192,131090,128,0,131256:0:0:0:0:
475,192,131173,128,0,131340:0:0:0:0:
182,192,131256,128,0,131756:0:0:0:0:
256,192,131256,128,0,131423:0:0:0:0:
329,192,131339,128,0,131506:0:0:0:0:
109,192,131423,128,0,131590:0:0:0:0:
402,192,131423,128,0,131589:0:0:0:0:
475,192,131506,128,0,131673:0:0:0:0:
36,192,131590,128,0,132090:0:0:0:0:
256,192,131590,128,0,131757:0:0:0:0:
329,192,131673,128,0,131840:0:0:0:0:
109,192,131756,128,0,131923:0:0:0:0:
402,192,131757,128,0,131923:0:0:0:0:
475,192,131840,128,0,132007:0:0:0:0:
256,192,131923,128,0,132256:0:0:0:0:
109,192,132090,128,0,132256:0:0:0:0:
182,192,132256,128,0,132506:0:0:0:0:
475,192,132256,128,0,133590:0:0:0:0:
402,192,132256,1,0,0:0:0:0:
36,192,132256,1,0,0:0:0:0:
256,192,132340,128,0,132590:0:0:0:0:
329,192,132423,128,0,132673:0:0:0:0:
402,192,132506,128,0,132756:0:0:0:0:
36,192,132756,128,0,133506:0:0:0:0:
182,192,132756,128,0,133090:0:0:0:0:
109,192,133090,128,0,133340:0:0:0:0:
402,192,133090,1,0,0:0:0:0:
329,192,133090,1,0,0:0:0:0:
256,192,133256,128,0,133590:0:0:0:0:
182,192,133423,128,0,133590:0:0:0:0:
36,192,133590,128,0,133756:0:0:0:0:
402,192,133590,128,0,134256:0:0:0:0:
109,192,133673,128,0,133840:0:0:0:0:
182,192,133756,128,0,133923:0:0:0:0:
256,192,133840,128,0,134006:0:0:0:0:
109,192,133923,128,0,134090:0:0:0:0:
182,192,134006,128,0,134173:0:0:0:0:
256,192,134090,128,0,134256:0:0:0:0:
329,192,134173,128,0,134340:0:0:0:0:
182,192,134256,128,0,134423:0:0:0:0:
256,192,134340,128,0,134506:0:0:0:0:
329,192,134423,128,0,134590:0:0:0:0:
402,192,134506,128,0,134673:0:0:0:0:
475,192,134590,128,0,134923:0:0:0:0:
36,192,134590,128,0,134923:0:0:0:0:
256,192,134590,128,0,134756:0:0:0:0:
109,192,134673,128,0,134840:0:0:0:0:
182,192,134756,128,0,134923:0:0:0:0:
329,192,134923,128,0,135256:0:0:0:0:
256,192,135006,128,0,135173:0:0:0:0:
182,192,135090,128,0,135256:0:0:0:0:
109,192,135173,128,0,135340:0:0:0:0:
402,192,135256,128,0,135840:0:0:0:0:
329,192,135340,128,0,136090:0:0:0:0:
256,192,135423,128,0,135590:0:0:0:0:
182,192,135506,128,0,135673:0:0:0:0:
36,192,135590,128,0,135756:0:0:0:0:
475,192,135590,128,0,135840:0:0:0:0:
109,192,135673,128,0,135840:0:0:0:0:
182,192,135756,128,0,135923:0:0:0:0:
256,192,135840,128,0,136006:0:0:0:0:
402,192,135923,128,0,136090:0:0:0:0:
109,192,136090,128,0,136256:0:0:0:0:
475,192,136256,128,0,136756:0:0:0:0:
402,192,136340,128,0,136840:0:0:0:0:
329,192,136423,128,0,136923:0:0:0:0:
256,192,136506,128,0,136673:0:0:0:0:
36,192,136590,128,0,137173:0:0:0:0:
109,192,136673,128,0,136840:0:0:0:0:
182,192,136756,128,0,136923:0:0:0:0:
256,192,136840,128,0,137006:0:0:0:0:
475,192,136923,128,0,137090:0:0:0:0:
402,192,137006,128,0,137173:0:0:0:0:
329,192,137090,128,0,137256:0:0:0:0:
256,192,137173,128,0,137340:0:0:0:0:
182,192,137256,128,0,137590:0:0:0:0:
36,192,137256,128,0,137423:0:0:0:0:
402,192,137423,128,0,137590:0:0:0:0:
256,192,137590,128,0,137756:0:0:0:0:
329,192,137673,128,0,137840:0:0:0:0:
402,192,137756,128,0,137923:0:0:0:0:
475,192,137840,128,0,138173:0:0:0:0:
182,192,137923,128,0,138090:0:0:0:0:
256,192,138006,128,0,138173:0:0:0:0:
329,192,138090,128,0,138256:0:0:0:0:
402,192,138173,128,0,138506:0:0:0:0:
109,192,138256,128,0,138423:0:0:0:0:
182,192,138340,128,0,138506:0:0:0:0:
256,192,138423,128,0,138590:0:0:0:0:
329,192,138506,128,0,138840:0:0:0:0:
36,192,138590,128,0,138756:0:0:0:0:
475,192,138590,128,0,138923:0:0:0:0:
109,192,138673,128,0,138840:0:0:0:0:
256,192,138923,128,0,139256:0:0:0:0:
402,192,138923,128,0,140256:0:0:0:0:
36,192,138923,1,0,0:0:0:0:
182,192,138923,1,0,0:0:0:0:
329,192,139090,128,0,139256:0:0:0:0:
109,192,139173,128,0,139256:0:0:0:0:
36,192,139256,128,0,139590:0:0:0:0:
475,192,139256,1,0,0:0:0:0:
182,192,139423,128,0,139590:0:0:0:0:
256,192,139506,128,0,139590:0:0:0:0:
475,192,139590,1,0,0:0:0:0:
109,192,139590,128,0,139923:0:0:0:0:
256,192,139756,128,0,139923:0:0:0:0:
329,192,139840,128,0,139923:0:0:0:0:
475,192,139923,1,0,0:0:0:0:
182,192,139923,128,0,140256:0:0:0:0:
329,192,140090,128,0,140256:0:0:0:0:
36,192,140173,128,0,140256:0:0:0:0:
475,192,140256,1,0,0:0:0:0:
109,192,140256,128,0,141590:0:0:0:0:
256,192,140256,128,0,140590:0:0:0:0:
329,192,140423,128,0,140590:0:0:0:0:
402,192,140506,128,0,140590:0:0:0:0:
475,192,140590,128,0,140923:0:0:0:0:
36,192,140590,1,0,0:0:0:0:
402,192,140756,128,0,140923:0:0:0:0:
256,192,140840,128,0,140923:0:0:0:0:
329,192,140923,128,0,141256:0:0:0:0:
36,192,140923,1,0,0:0:0:0:
402,192,141090,128,0,141256:0:0:0:0:
475,192,141173,128,0,141256:0:0:0:0:
182,192,141256,128,0,141590:0:0:0:0:
36,192,141256,1,0,0:0:0:0:
256,192,141423,128,0,141590:0:0:0:0:
402,192,141506,128,0,141590:0:0:0:0:
475,192,141590,128,0,142173:0:0:0:0:
36,192,141590,128,0,141840:0:0:0:0:
329,192,141590,128,0,142090:0:0:0:0:
256,192,141756,128,0,141923:0:0:0:0:
182,192,141923,128,0,142423:0:0:0:0:
36,192,141923,128,0,142506:0:0:0:0:
109,192,141923,1,0,0:0:0:0:
402,192,141923,1,0,0:0:0:0:
256,192,142090,128,0,142256:0:0:0:0:
329,192,142256,128,0,142756:0:0:0:0:
109,192,142256,1,0,0:0:0:0:
402,192,142256,1,0,0:0:0:0:
475,192,142256,128,0,142590:0:0:0:0:
256,192,142423,128,0,142590:0:0:0:0:
182,192,142590,128,0,142923:0:0:0:0:
109,192,142590,1,0,0:0:0:0:
402,192,142590,1,0,0:0:0:0:
36,192,142590,128,0,142923:0:0:0:0:
402,192,142756,128,0,142923:0:0:0:0:
109,192,142923,128,0,143173:0:0:0:0:
475,192,142923,128,0,144256:0:0:0:0:
329,192,143006,128,0,143256:0:0:0:0:
256,192,143090,128,0,143340:0:0:0:0:
402,192,143173,128,0,143423:0:0:0:0:
36,192,143423,128,0,144173:0:0:0:0:
329,192,143423,128,0,143756:0:0:0:0:
256,192,143423,1,0,0:0:0:0:
109,192,143423,1,0,0:0:0:0:
182,192,143756,1,0,0:0:0:0:
402,192,143756,1,0,0:0:0:0:
109,192,143756,128,0,144006:0:0:0:0:
256,192,143923,128,0,144256:0:0:0:0:
329,192,143923,1,0,0:0:0:0:
182,192,144090,128,0,144256:0:0:0:0:
36,192,144256,128,0,144423:0:0:0:0:
402,192,144256,128,0,144923:0:0:0:0:
109,192,144340,128,0,144506:0:0:0:0:
182,192,144423,128,0,144590:0:0:0:0:
256,192,144506,128,0,144673:0:0:0:0:
109,192,144590,128,0,144756:0:0:0:0:
36,192,144590,1,0,0:0:0:0:
182,192,144673,128,0,144840:0:0:0:0:
256,192,144756,128,0,144923:0:0:0:0:
329,192,144840,128,0,145006:0:0:0:0:
182,192,144923,128,0,145090:0:0:0:0:
36,192,144923,1,0,0:0:0:0:
256,192,145006,128,0,145173:0:0:0:0:
329,192,145090,128,0,145256:0:0:0:0:
402,192,145173,128,0,145340:0:0:0:0:
36,192,145256,128,0,145590:0:0:0:0:
256,192,145256,128,0,145423:0:0:0:0:
475,192,145256,128,0,145590:0:0:0:0:
109,192,145340,128,0,145506:0:0:0:0:
182,192,145423,128,0,145590:0:0:0:0:
329,192,145590,128,0,145923:0:0:0:0:
256,192,145673,128,0,146006:0:0:0:0:
182,192,145756,128,0,146090:0:0:0:0:
109,192,145840,128,0,146256:0:0:0:0:
402,192,145923,128,0,146590:0:0:0:0:
475,192,145923,1,0,0:0:0:0:
329,192,146006,128,0,146506:0:0:0:0:
256,192,146090,128,0,146423:0:0:0:0:
182,192,146173,128,0,146340:0:0:0:0:
36,192,146256,128,0,146423:0:0:0:0:
475,192,146256,1,0,0:0:0:0:
109,192,146340,128,0,146506:0:0:0:0:
182,192,146423,128,0,146590:0:0:0:0:
256,192,146506,128,0,146673:0:0:0:0:
475,192,146590,128,0,146756:0:0:0:0:
329,192,146756,128,0,146923:0:0:0:0:
475,192,146923,128,0,147090:0:0:0:0:
36,192,146923,128,0,147673:0:0:0:0:
182,192,147006,128,0,147590:0:0:0:0:
109,192,147090,128,0,147506:0:0:0:0:
329,192,147173,128,0,147423:0:0:0:0:
256,192,147256,128,0,147340:0:0:0:0:
402,192,147340,128,0,147506:0:0:0:0:
256,192,147423,128,0,147590:0:0:0:0:
329,192,147506,128,0,147673:0:0:0:0:
109,192,147590,128,0,148256:0:0:0:0:
475,192,147673,128,0,148006:0:0:0:0:
402,192,147756,128,0,148090:0:0:0:0:
329,192,147840,128,0,148173:0:0:0:0:
36,192,147923,128,0,148090:0:0:0:0:
182,192,148006,128,0,148173:0:0:0:0:
36,192,148256,128,0,149590:0:0:0:0:
256,192,148256,128,0,148423:0:0:0:0:
329,192,148340,128,0,148506:0:0:0:0:
402,192,148423,128,0,148756:0:0:0:0:
182,192,148590,128,0,148756:0:0:0:0:
256,192,148673,128,0,148840:0:0:0:0:
329,192,148756,128,0,149090:0:0:0:0:
109,192,148923,128,0,149090:0:0:0:0:
475,192,149090,128,0,149256:0:0:0:0:
256,192,149256,128,0,149590:0:0:0:0:
329,192,149590,128,0,150256:0:0:0:0:
182,192,149590,128,0,149923:0:0:0:0:
475,192,149923,1,0,0:0:0:0:
109,192,149923,1,0,0:0:0:0:
402,192,150090,1,0,0:0:0:0:
109,192,150090,128,0,150256:0:0:0:0:
182,192,150256,1,0,0:0:0:0:
475,192,150256,1,0,0:0:0:0:
256,192,150256,128,0,150590:0:0:0:0:
36,192,150256,128,0,150923:0:0:0:0:
402,192,150423,1,0,0:0:0:0:
475,192,150590,128,0,150923:0:0:0:0:
109,192,150590,1,0,0:0:0:0:
329,192,150590,1,0,0:0:0:0:
256,192,150756,1,0,0:0:0:0:
182,192,150756,128,0,150923:0:0:0:0:
109,192,150923,128,0,151173:0:0:0:0:
402,192,150923,128,0,151173:0:0:0:0:
36,192,151256,128,0,151506:0:0:0:0:
475,192,151256,128,0,151506:0:0:0:0:
109,192,151256,1,0,0:0:0:0:
182,192,151256,1,0,0:0:0:0:
329,192,151256,1,0,0:0:0:0:
402,192,151256,1,0,0:0:0:0:
182,192,151423,128,0,151923:0:0:0:0:
329,192,151423,128,0,151923:0:0:0:0:
36,192,151756,1,0,0:0:0:0:
475,192,151756,1,0,0:0:0:0:
109,192,151923,1,0,0:0:0:0:
402,192,151923,1,0,0:0:0:0:
36,192,152090,1,0,0:0:0:0:
475,192,152090,1,0,0:0:0:0:
256,192,152090,1,0,0:0:0:0:
36,192,152256,1,0,0:0:0:0:
109,192,152256,1,0,0:0:0:0:
182,192,152256,1,0,0:0:0:0:
329,192,152256,1,0,0:0:0:0:
402,192,152256,1,0,0:0:0:0:
475,192,152256,1,0,0:0:0:0:
329,192,152590,1,0,0:0:0:0:
256,192,152923,1,0,0:0:0:0:
36,192,152923,1,0,0:0:0:0:
182,192,153090,1,0,0:0:0:0:
109,192,153256,1,0,0:0:0:0:
256,192,153340,1,0,0:0:0:0:
402,192,153423,1,0,0:0:0:0:
36,192,153590,1,0,0:0:0:0:
329,192,153756,1,0,0:0:0:0:
256,192,153923,1,0,0:0:0:0:
329,192,154090,1,0,0:0:0:0:
475,192,154090,1,0,0:0:0:0:
182,192,154256,1,0,0:0:0:0:
256,192,154423,1,0,0:0:0:0:
182,192,154590,1,0,0:0:0:0:
109,192,154673,1,0,0:0:0:0:
36,192,154756,1,0,0:0:0:0:
475,192,154923,1,0,0:0:0:0:
329,192,155090,1,0,0:0:0:0:
256,192,155173,1,0,0:0:0:0:
329,192,155256,1,0,0:0:0:0:
256,192,155340,1,0,0:0:0:0:
329,192,155423,1,0,0:0:0:0:
36,192,155423,1,0,0:0:0:0:
475,192,155423,1,0,0:0:0:0:
256,192,155506,1,0,0:0:0:0:
329,192,155590,1,0,0:0:0:0:
256,192,155756,1,0,0:0:0:0:
182,192,155840,1,0,0:0:0:0:
109,192,155923,1,0,0:0:0:0:
475,192,155923,1,0,0:0:0:0:
36,192,156090,128,0,157423:0:0:0:0:
256,192,156090,1,0,0:0:0:0:
402,192,156090,1,0,0:0:0:0:
182,192,156423,1,0,0:0:0:0:
329,192,156506,1,0,0:0:0:0:
182,192,156590,1,0,0:0:0:0:
329,192,156673,1,0,0:0:0:0:
182,192,156756,1,0,0:0:0:0:
475,192,156756,1,0,0:0:0:0:
329,192,156840,1,0,0:0:0:0:
182,192,156923,1,0,0:0:0:0:
256,192,157006,1,0,0:0:0:0:
329,192,157090,1,0,0:0:0:0:
402,192,157256,1,0,0:0:0:0:
109,192,157256,1,0,0:0:0:0:
475,192,157423,128,0,157756:0:0:0:0:
36,192,157590,1,0,0:0:0:0:
109,192,157590,1,0,0:0:0:0:
182,192,157590,1,0,0:0:0:0:
329,192,157590,1,0,0:0:0:0:
402,192,157590,1,0,0:0:0:0:
256,192,157756,1,0,0:0:0:0:
182,192,157840,1,0,0:0:0:0:
256,192,157923,1,0,0:0:0:0:
182,192,158006,1,0,0:0:0:0:
109,192,158090,1,0,0:0:0:0:
329,192,158256,1,0,0:0:0:0:
36,192,158256,1,0,0:0:0:0:
402,192,158340,1,0,0:0:0:0:
256,192,158423,1,0,0:0:0:0:
182,192,158506,1,0,0:0:0:0:
109,192,158590,1,0,0:0:0:0:
475,192,158590,1,0,0:0:0:0:
329,192,158756,128,0,159090:0:0:0:0:
36,192,159090,128,0,159756:0:0:0:0:
256,192,159256,1,0,0:0:0:0:
402,192,159340,1,0,0:0:0:0:
329,192,159423,1,0,0:0:0:0:
256,192,159506,1,0,0:0:0:0:
182,192,159590,1,0,0:0:0:0:
475,192,159590,1,0,0:0:0:0:
329,192,159673,1,0,0:0:0:0:
256,192,159756,1,0,0:0:0:0:
109,192,159840,1,0,0:0:0:0:
182,192,159923,1,0,0:0:0:0:
256,192,160006,1,0,0:0:0:0:
329,192,160090,1,0,0:0:0:0:
402,192,160173,1,0,0:0:0:0:
475,192,160256,1,0,0:0:0:0:
182,192,160256,128,0,160423:0:0:0:0:
329,192,160256,128,0,160590:0:0:0:0:
36,192,160340,1,0,0:0:0:0:
109,192,160423,1,0,0:0:0:0:
182,192,160506,1,0,0:0:0:0:
256,192,160590,1,0,0:0:0:0:
329,192,160673,1,0,0:0:0:0:
402,192,160756,1,0,0:0:0:0:
475,192,160840,1,0,0:0:0:0:
256,192,160923,1,0,0:0:0:0:
36,192,160923,1,0,0:0:0:0:
329,192,161006,1,0,0:0:0:0:
402,192,161090,1,0,0:0:0:0:
475,192,161173,1,0,0:0:0:0:
402,192,161256,1,0,0:0:0:0:
329,192,161340,1,0,0:0:0:0:
256,192,161423,128,0,161756:0:0:0:0:
36,192,161423,128,0,161756:0:0:0:0:
182,192,161756,1,0,0:0:0:0:
475,192,161756,1,0,0:0:0:0:
402,192,161756,1,0,0:0:0:0:
256,192,161840,1,0,0:0:0:0:
329,192,161923,1,0,0:0:0:0:
256,192,162006,1,0,0:0:0:0:
182,192,162090,1,0,0:0:0:0:
109,192,162173,1,0,0:0:0:0:
36,192,162256,1,0,0:0:0:0:
475,192,162256,1,0,0:0:0:0:
402,192,162256,1,0,0:0:0:0:
109,192,162340,1,0,0:0:0:0:
36,192,162423,1,0,0:0:0:0:
109,192,162506,1,0,0:0:0:0:
36,192,162590,1,0,0:0:0:0:
256,192,162590,1,0,0:0:0:0:
109,192,162673,1,0,0:0:0:0:
329,192,162673,1,0,0:0:0:0:
182,192,162756,1,0,0:0:0:0:
402,192,162756,1,0,0:0:0:0:
256,192,162840,1,0,0:0:0:0:
475,192,162840,1,0,0:0:0:0:
36,192,162923,128,0,164256:0:0:0:0:
329,192,162923,128,0,163256:0:0:0:0:
109,192,162923,1,0,0:0:0:0:
182,192,163090,128,0,163423:0:0:0:0:
475,192,163256,1,0,0:0:0:0:
402,192,163590,128,0,163923:0:0:0:0:
109,192,163590,1,0,0:0:0:0:
256,192,163756,128,0,164090:0:0:0:0:
475,192,163923,1,0,0:0:0:0:
475,192,164256,128,0,164506:0:0:0:0:
402,192,164340,128,0,164590:0:0:0:0:
329,192,164423,128,0,164673:0:0:0:0:
256,192,164506,128,0,164756:0:0:0:0:
182,192,164590,128,0,164840:0:0:0:0:
109,192,164673,128,0,165506:0:0:0:0:
36,192,164756,128,0,165506:0:0:0:0:
256,192,164923,128,0,165090:0:0:0:0:
329,192,165006,128,0,165173:0:0:0:0:
402,192,165090,128,0,165256:0:0:0:0:
475,192,165173,128,0,165340:0:0:0:0:
182,192,165256,128,0,165423:0:0:0:0:
256,192,165340,128,0,165506:0:0:0:0:
329,192,165423,128,0,165590:0:0:0:0:
402,192,165506,128,0,165673:0:0:0:0:
36,192,165590,128,0,166923:0:0:0:0:
475,192,165590,128,0,165923:0:0:0:0:
109,192,165590,1,0,0:0:0:0:
256,192,165756,128,0,166090:0:0:0:0:
329,192,165923,1,0,0:0:0:0:
402,192,166256,128,0,166590:0:0:0:0:
109,192,166256,1,0,0:0:0:0:
182,192,166423,128,0,166756:0:0:0:0:
329,192,166590,1,0,0:0:0:0:
475,192,166756,128,0,167256:0:0:0:0:
109,192,166756,1,0,0:0:0:0:
402,192,166756,1,0,0:0:0:0:
256,192,167090,128,0,167256:0:0:0:0:
36,192,167090,1,0,0:0:0:0:
329,192,167173,128,0,167340:0:0:0:0:
402,192,167256,128,0,167423:0:0:0:0:
182,192,167423,128,0,167590:0:0:0:0:
109,192,167506,128,0,167673:0:0:0:0:
36,192,167590,128,0,167756:0:0:0:0:
475,192,167590,1,0,0:0:0:0:
329,192,167756,128,0,167923:0:0:0:0:
475,192,167756,1,0,0:0:0:0:
256,192,167840,128,0,168006:0:0:0:0:
475,192,167923,128,0,168090:0:0:0:0:
36,192,167923,1,0,0:0:0:0:
182,192,167923,1,0,0:0:0:0:
402,192,168090,128,0,168590:0:0:0:0:
36,192,168256,1,0,0:0:0:0:
109,192,168256,1,0,0:0:0:0:
256,192,168256,1,0,0:0:0:0:
256,192,168590,128,0,168756:0:0:0:0:
109,192,168590,1,0,0:0:0:0:
329,192,168590,1,0,0:0:0:0:
475,192,168673,128,0,168923:0:0:0:0:
256,192,168923,128,0,169090:0:0:0:0:
36,192,168923,1,0,0:0:0:0:
475,192,169006,128,0,169256:0:0:0:0:
36,192,169090,1,0,0:0:0:0:
256,192,169256,128,0,169423:0:0:0:0:
182,192,169256,1,0,0:0:0:0:
475,192,169340,128,0,169590:0:0:0:0:
402,192,169423,1,0,0:0:0:0:
36,192,169423,128,0,169923:0:0:0:0:
109,192,169423,1,0,0:0:0:0:
182,192,169590,128,0,169756:0:0:0:0:
256,192,169673,128,0,169840:0:0:0:0:
329,192,169756,128,0,169923:0:0:0:0:
402,192,169840,128,0,170006:0:0:0:0:
475,192,169923,128,0,170090:0:0:0:0:
182,192,169923,1,0,0:0:0:0:
109,192,170090,128,0,170590:0:0:0:0:
256,192,170256,1,0,0:0:0:0:
256,192,170423,1,0,0:0:0:0:
329,192,170590,128,0,170756:0:0:0:0:
475,192,170590,1,0,0:0:0:0:
256,192,170673,128,0,170840:0:0:0:0:
182,192,170756,128,0,170923:0:0:0:0:
109,192,170840,128,0,171006:0:0:0:0:
475,192,170923,128,0,171590:0:0:0:0:
36,192,170923,1,0,0:0:0:0:
329,192,170923,1,0,0:0:0:0:
402,192,171090,128,0,171256:0:0:0:0:
329,192,171173,128,0,171340:0:0:0:0:
256,192,171256,128,0,171923:0:0:0:0:
36,192,171256,1,0,0:0:0:0:
182,192,171423,128,0,171590:0:0:0:0:
109,192,171506,128,0,171673:0:0:0:0:
36,192,171590,128,0,171923:0:0:0:0:
402,192,171590,1,0,0:0:0:0:
402,192,171756,1,0,0:0:0:0:
329,192,171923,128,0,172090:0:0:0:0:
475,192,171923,1,0,0:0:0:0:
36,192,172090,128,0,172256:0:0:0:0:
109,192,172173,128,0,172340:0:0:0:0:
182,192,172256,128,0,172423:0:0:0:0:
475,192,172256,1,0,0:0:0:0:
329,192,172506,128,0,172673:0:0:0:0:
402,192,172590,128,0,172756:0:0:0:0:
475,192,172673,128,0,172840:0:0:0:0:
36,192,172673,1,0,0:0:0:0:
182,192,172840,128,0,173006:0:0:0:0:
109,192,172923,128,0,173090:0:0:0:0:
329,192,172923,1,0,0:0:0:0:
36,192,173006,128,0,173506:0:0:0:0:
256,192,173173,128,0,173340:0:0:0:0:
329,192,173256,128,0,173423:0:0:0:0:
182,192,173256,1,0,0:0:0:0:
402,192,173340,128,0,173506:0:0:0:0:
475,192,173423,128,0,173590:0:0:0:0:
182,192,173423,1,0,0:0:0:0:
256,192,173506,1,0,0:0:0:0:
36,192,173590,128,0,173840:0:0:0:0:
182,192,173590,128,0,173840:0:0:0:0:
329,192,173590,1,0,0:0:0:0:
475,192,173756,1,0,0:0:0:0:
36,192,173923,128,0,174173:0:0:0:0:
182,192,173923,128,0,174173:0:0:0:0:
475,192,174090,1,0,0:0:0:0:
36,192,174256,128,0,174506:0:0:0:0:
182,192,174256,128,0,174506:0:0:0:0:
475,192,174423,1,0,0:0:0:0:
36,192,174590,128,0,174840:0:0:0:0:
182,192,174590,128,0,174840:0:0:0:0:
475,192,174756,1,0,0:0:0:0:
329,192,174923,128,0,175173:0:0:0:0:
475,192,174923,128,0,175173:0:0:0:0:
182,192,174923,1,0,0:0:0:0:
36,192,175090,1,0,0:0:0:0:
475,192,175256,128,0,175506:0:0:0:0:
329,192,175256,128,0,175506:0:0:0:0:
36,192,175423,1,0,0:0:0:0:
475,192,175590,128,0,175840:0:0:0:0:
329,192,175590,128,0,175840:0:0:0:0:
36,192,175756,1,0,0:0:0:0:
475,192,175923,128,0,176173:0:0:0:0:
329,192,175923,128,0,176173:0:0:0:0:
36,192,176090,1,0,0:0:0:0:
36,192,176256,128,0,176506:0:0:0:0:
182,192,176256,128,0,176506:0:0:0:0:
475,192,176256,1,0,0:0:0:0:
329,192,176423,1,0,0:0:0:0:
36,192,176590,128,0,176840:0:0:0:0:
182,192,176590,128,0,176840:0:0:0:0:
329,192,176756,1,0,0:0:0:0:
36,192,176923,128,0,177173:0:0:0:0:
182,192,176923,128,0,177173:0:0:0:0:
329,192,177090,1,0,0:0:0:0:
182,192,177256,128,0,177506:0:0:0:0:
36,192,177256,128,0,177506:0:0:0:0:
329,192,177423,1,0,0:0:0:0:
329,192,177590,128,0,177840:0:0:0:0:
475,192,177590,128,0,177840:0:0:0:0:
36,192,177590,1,0,0:0:0:0:
182,192,177756,1,0,0:0:0:0:
475,192,177923,128,0,178173:0:0:0:0:
329,192,177923,128,0,178173:0:0:0:0:
182,192,178090,1,0,0:0:0:0:
475,192,178256,128,0,178506:0:0:0:0:
329,192,178256,128,0,178506:0:0:0:0:
182,192,178423,1,0,0:0:0:0:
475,192,178590,128,0,178840:0:0:0:0:
329,192,178590,128,0,178840:0:0:0:0:
182,192,178756,1,0,0:0:0:0:
402,192,178923,128,0,179173:0:0:0:0:
36,192,178923,128,0,179173:0:0:0:0:
475,192,178923,1,0,0:0:0:0:
329,192,178923,1,0,0:0:0:0:
182,192,179090,1,0,0:0:0:0:
36,192,179256,128,0,179506:0:0:0:0:
402,192,179256,128,0,179506:0:0:0:0:
182,192,179423,1,0,0:0:0:0:
402,192,179590,128,0,179840:0:0:0:0:
36,192,179590,128,0,179840:0:0:0:0:
182,192,179756,1,0,0:0:0:0:
36,192,179923,128,0,180173:0:0:0:0:
402,192,179923,128,0,180173:0:0:0:0:
182,192,180090,1,0,0:0:0:0:
109,192,180256,128,0,180506:0:0:0:0:
475,192,180256,128,0,180506:0:0:0:0:
402,192,180256,1,0,0:0:0:0:
256,192,180423,1,0,0:0:0:0:
475,192,180590,128,0,180840:0:0:0:0:
109,192,180590,128,0,180840:0:0:0:0:
256,192,180756,1,0,0:0:0:0:
475,192,180923,128,0,181173:0:0:0:0:
109,192,180923,128,0,181173:0:0:0:0:
256,192,181090,1,0,0:0:0:0:
475,192,181256,128,0,181506:0:0:0:0:
109,192,181256,128,0,181506:0:0:0:0:
256,192,181423,1,0,0:0:0:0:
256,192,181590,128,0,181840:0:0:0:0:
36,192,181590,128,0,181840:0:0:0:0:
475,192,181590,1,0,0:0:0:0:
329,192,181756,1,0,0:0:0:0:
36,192,181923,128,0,182173:0:0:0:0:
256,192,181923,128,0,182173:0:0:0:0:
329,192,182090,1,0,0:0:0:0:
36,192,182256,128,0,182506:0:0:0:0:
256,192,182256,128,0,182506:0:0:0:0:
329,192,182423,1,0,0:0:0:0:
36,192,182590,128,0,182840:0:0:0:0:
256,192,182590,128,0,182840:0:0:0:0:
329,192,182756,1,0,0:0:0:0:
109,192,182923,128,0,183173:0:0:0:0:
402,192,182923,128,0,183173:0:0:0:0:
475,192,182923,1,0,0:0:0:0:
36,192,182923,1,0,0:0:0:0:
256,192,183090,1,0,0:0:0:0:
402,192,183256,128,0,183506:0:0:0:0:
109,192,183256,128,0,183506:0:0:0:0:
256,192,183423,1,0,0:0:0:0:
402,192,183590,128,0,183840:0:0:0:0:
109,192,183590,128,0,183840:0:0:0:0:
256,192,183756,1,0,0:0:0:0:
402,192,183923,128,0,184173:0:0:0:0:
109,192,183923,128,0,184173:0:0:0:0:
256,192,184090,1,0,0:0:0:0:
36,192,184256,128,0,184506:0:0:0:0:
182,192,184256,128,0,184506:0:0:0:0:
109,192,184256,1,0,0:0:0:0:
329,192,184256,1,0,0:0:0:0:
475,192,184423,1,0,0:0:0:0:
182,192,184590,128,0,184840:0:0:0:0:
36,192,184590,128,0,184840:0:0:0:0:
329,192,184590,1,0,0:0:0:0:
475,192,184756,1,0,0:0:0:0:
182,192,184923,128,0,185173:0:0:0:0:
36,192,184923,128,0,185173:0:0:0:0:
256,192,184923,1,0,0:0:0:0:
402,192,185090,1,0,0:0:0:0:
182,192,185256,128,0,185506:0:0:0:0:
36,192,185256,128,0,185506:0:0:0:0:
256,192,185256,1,0,0:0:0:0:
402,192,185423,1,0,0:0:0:0:
329,192,185590,128,0,185840:0:0:0:0:
475,192,185590,128,0,185840:0:0:0:0:
36,192,185590,1,0,0:0:0:0:
182,192,185590,1,0,0:0:0:0:
256,192,185756,1,0,0:0:0:0:
475,192,185923,128,0,186173:0:0:0:0:
329,192,185923,128,0,186173:0:0:0:0:
109,192,185923,1,0,0:0:0:0:
256,192,186090,1,0,0:0:0:0:
475,192,186256,128,0,186506:0:0:0:0:
329,192,186256,128,0,186506:0:0:0:0:
182,192,186256,1,0,0:0:0:0:
36,192,186423,1,0,0:0:0:0:
475,192,186590,128,0,186840:0:0:0:0:
329,192,186590,128,0,186840:0:0:0:0:
182,192,186590,1,0,0:0:0:0:
36,192,186756,1,0,0:0:0:0:
402,192,186923,128,0,187173:0:0:0:0:
109,192,186923,128,0,187173:0:0:0:0:
329,192,186923,1,0,0:0:0:0:
475,192,186923,1,0,0:0:0:0:
182,192,187090,1,0,0:0:0:0:
329,192,187256,1,0,0:0:0:0:
402,192,187256,128,0,187506:0:0:0:0:
109,192,187256,128,0,187506:0:0:0:0:
182,192,187423,1,0,0:0:0:0:
402,192,187590,128,0,187840:0:0:0:0:
109,192,187590,128,0,187840:0:0:0:0:
475,192,187590,1,0,0:0:0:0:
256,192,187756,1,0,0:0:0:0:
109,192,187923,128,0,188173:0:0:0:0:
402,192,187923,128,0,188173:0:0:0:0:
475,192,187923,1,0,0:0:0:0:
256,192,188090,1,0,0:0:0:0:
109,192,188256,1,0,0:0:0:0:
402,192,188256,1,0,0:0:0:0:
182,192,188256,128,0,188506:0:0:0:0:
36,192,188256,128,0,188506:0:0:0:0:
329,192,188423,1,0,0:0:0:0:
36,192,188590,128,0,188840:0:0:0:0:
182,192,188590,128,0,188840:0:0:0:0:
256,192,188590,1,0,0:0:0:0:
402,192,188590,1,0,0:0:0:0:
475,192,188756,1,0,0:0:0:0:
182,192,188923,128,0,189173:0:0:0:0:
36,192,188923,128,0,189173:0:0:0:0:
256,192,188923,1,0,0:0:0:0:
402,192,188923,1,0,0:0:0:0:
329,192,189090,1,0,0:0:0:0:
256,192,189256,1,0,0:0:0:0:
475,192,189256,1,0,0:0:0:0:
36,192,189256,128,0,189506:0:0:0:0:
182,192,189256,128,0,189506:0:0:0:0:
402,192,189423,1,0,0:0:0:0:
109,192,189590,128,0,189840:0:0:0:0:
475,192,189590,128,0,189840:0:0:0:0:
36,192,189590,1,0,0:0:0:0:
182,192,189590,1,0,0:0:0:0:
329,192,189590,1,0,0:0:0:0:
256,192,189756,1,0,0:0:0:0:
109,192,189923,128,0,190173:0:0:0:0:
475,192,189923,128,0,190173:0:0:0:0:
402,192,189923,1,0,0:0:0:0:
36,192,189923,1,0,0:0:0:0:
256,192,190090,1,0,0:0:0:0:
36,192,190256,1,0,0:0:0:0:
402,192,190256,1,0,0:0:0:0:
109,192,190256,128,0,190506:0:0:0:0:
475,192,190256,128,0,190506:0:0:0:0:
256,192,190423,1,0,0:0:0:0:
475,192,190590,128,0,190840:0:0:0:0:
109,192,190590,128,0,190840:0:0:0:0:
36,192,190590,1,0,0:0:0:0:
402,192,190590,1,0,0:0:0:0:
256,192,190756,1,0,0:0:0:0:
36,192,190923,128,0,191173:0:0:0:0:
402,192,190923,128,0,191173:0:0:0:0:
109,192,190923,1,0,0:0:0:0:
475,192,190923,1,0,0:0:0:0:
182,192,191090,1,0,0:0:0:0:
36,192,191256,128,0,191506:0:0:0:0:
256,192,191256,1,0,0:0:0:0:
475,192,191256,1,0,0:0:0:0:
402,192,191256,128,0,191506:0:0:0:0:
329,192,191423,1,0,0:0:0:0:
36,192,191590,128,0,191840:0:0:0:0:
402,192,191590,128,0,191840:0:0:0:0:
182,192,191590,1,0,0:0:0:0:
475,192,191590,1,0,0:0:0:0:
256,192,191756,1,0,0:0:0:0:
36,192,191923,128,0,192173:0:0:0:0:
402,192,191923,128,0,192173:0:0:0:0:
182,192,191923,1,0,0:0:0:0:
329,192,191923,1,0,0:0:0:0:
256,192,192090,1,0,0:0:0:0:
329,192,192256,128,0,192506:0:0:0:0:
36,192,192256,128,0,192506:0:0:0:0:
109,192,192340,128,0,192590:0:0:0:0:
402,192,192340,128,0,192590:0:0:0:0:
182,192,192423,128,0,192673:0:0:0:0:
475,192,192423,128,0,192673:0:0:0:0:
329,192,192590,128,0,192840:0:0:0:0:
36,192,192590,128,0,192840:0:0:0:0:
109,192,192673,128,0,192923:0:0:0:0:
402,192,192673,128,0,192923:0:0:0:0:
182,192,192756,128,0,193006:0:0:0:0:
475,192,192756,128,0,193006:0:0:0:0:
329,192,192923,128,0,193173:0:0:0:0:
36,192,192923,128,0,193173:0:0:0:0:
109,192,193006,128,0,193256:0:0:0:0:
402,192,193006,128,0,193256:0:0:0:0:
182,192,193090,128,0,193340:0:0:0:0:
475,192,193090,128,0,193340:0:0:0:0:
36,192,193423,128,0,194923:0:0:0:0:
109,192,193423,128,0,194923:0:0:0:0:
329,192,193756,1,0,0:0:0:0:
402,192,193756,1,0,0:0:0:0:
475,192,193756,1,0,0:0:0:0:
256,192,193756,1,0,0:0:0:0:
329,192,193923,1,0,0:0:0:0:
402,192,193923,1,0,0:0:0:0:
475,192,193923,1,0,0:0:0:0:
256,192,193923,1,0,0:0:0:0:
329,192,194090,1,0,0:0:0:0:
402,192,194090,1,0,0:0:0:0:
475,192,194090,1,0,0:0:0:0:
256,192,194090,1,0,0:0:0:0:
329,192,194256,1,0,0:0:0:0:
402,192,194256,1,0,0:0:0:0:
475,192,194256,1,0,0:0:0:0:
256,192,194256,1,0,0:0:0:0:
329,192,194423,1,0,0:0:0:0:
402,192,194423,1,0,0:0:0:0:
475,192,194423,1,0,0:0:0:0:
256,192,194423,1,0,0:0:0:0:
329,192,194590,1,0,0:0:0:0:
402,192,194590,1,0,0:0:0:0:
475,192,194590,1,0,0:0:0:0:
256,192,194590,1,0,0:0:0:0:
329,192,194756,1,0,0:0:0:0:
402,192,194756,1,0,0:0:0:0:
475,192,194756,1,0,0:0:0:0:
256,192,194756,1,0,0:0:0:0:
182,192,195090,128,0,195256:0:0:0:0:
402,192,195256,128,0,195423:0:0:0:0:
109,192,195423,128,0,195590:0:0:0:0:
329,192,195590,128,0,195756:0:0:0:0:
36,192,195756,128,0,195923:0:0:0:0:
475,192,195923,128,0,196090:0:0:0:0:
182,192,196090,128,0,196256:0:0:0:0:
36,192,196256,1,0,0:0:0:0:
256,192,196256,128,0,196423:0:0:0:0:
475,192,196256,128,0,196756:0:0:0:0:
182,192,196339,128,0,196506:0:0:0:0:
109,192,196423,128,0,196589:0:0:0:0:
402,192,196423,128,0,196589:0:0:0:0:
36,192,196506,128,0,196673:0:0:0:0:
329,192,196589,128,0,197089:0:0:0:0:
256,192,196589,128,0,196756:0:0:0:0:
182,192,196672,128,0,196839:0:0:0:0:
402,192,196756,128,0,196923:0:0:0:0:
109,192,196756,128,0,196922:0:0:0:0:
36,192,196839,128,0,197006:0:0:0:0:
475,192,196923,128,0,197423:0:0:0:0:
256,192,196923,128,0,197090:0:0:0:0:
182,192,197006,128,0,197173:0:0:0:0:
402,192,197089,128,0,197256:0:0:0:0:
109,192,197090,128,0,197256:0:0:0:0:
36,192,197173,128,0,197340:0:0:0:0:
256,192,197256,128,0,197589:0:0:0:0:
402,192,197423,128,0,197589:0:0:0:0:
182,192,197589,128,0,197839:0:0:0:0:
475,192,197589,128,0,198923:0:0:0:0:
109,192,197589,1,0,0:0:0:0:
36,192,197589,1,0,0:0:0:0:
256,192,197673,128,0,197923:0:0:0:0:
329,192,197756,128,0,198006:0:0:0:0:
402,192,197839,128,0,198089:0:0:0:0:
36,192,198089,128,0,198839:0:0:0:0:
182,192,198090,128,0,198590:0:0:0:0:
256,192,198256,128,0,198423:0:0:0:0:
109,192,198423,128,0,198756:0:0:0:0:
329,192,198423,128,0,198923:0:0:0:0:
256,192,198589,128,0,198923:0:0:0:0:
402,192,198590,1,0,0:0:0:0:
182,192,198756,128,0,198923:0:0:0:0:
402,192,198923,128,0,199589:0:0:0:0:
36,192,198923,128,0,199590:0:0:0:0:
109,192,199006,128,0,199173:0:0:0:0:
182,192,199089,128,0,199256:0:0:0:0:
256,192,199173,128,0,199339:0:0:0:0:
109,192,199256,128,0,199590:0:0:0:0:
475,192,199256,1,0,0:0:0:0:
182,192,199339,128,0,199506:0:0:0:0:
256,192,199423,128,0,199589:0:0:0:0:
329,192,199506,128,0,199673:0:0:0:0:
182,192,199590,128,0,199923:0:0:0:0:
256,192,199673,128,0,199839:0:0:0:0:
329,192,199756,128,0,199923:0:0:0:0:
402,192,199840,128,0,200006:0:0:0:0:
256,192,199923,128,0,200089:0:0:0:0:
36,192,199923,128,0,200256:0:0:0:0:
475,192,199923,128,0,200256:0:0:0:0:
109,192,200006,128,0,200173:0:0:0:0:
182,192,200089,128,0,200256:0:0:0:0:
329,192,200256,128,0,200589:0:0:0:0:
256,192,200339,128,0,200506:0:0:0:0:
182,192,200423,128,0,200589:0:0:0:0:
109,192,200506,128,0,200673:0:0:0:0:
402,192,200589,128,0,201173:0:0:0:0:
475,192,200590,1,0,0:0:0:0:
329,192,200673,128,0,201423:0:0:0:0:
256,192,200756,128,0,200923:0:0:0:0:
182,192,200839,128,0,201006:0:0:0:0:
475,192,200923,128,0,201173:0:0:0:0:
36,192,200923,128,0,201089:0:0:0:0:
109,192,201006,128,0,201173:0:0:0:0:
182,192,201089,128,0,201256:0:0:0:0:
256,192,201173,128,0,201339:0:0:0:0:
402,192,201256,128,0,201423:0:0:0:0:
109,192,201423,128,0,201589:0:0:0:0:
475,192,201589,128,0,202089:0:0:0:0:
402,192,201673,128,0,202173:0:0:0:0:
329,192,201756,128,0,202256:0:0:0:0:
256,192,201839,128,0,202006:0:0:0:0:
36,192,201923,128,0,202506:0:0:0:0:
109,192,202006,128,0,202173:0:0:0:0:
182,192,202089,128,0,202256:0:0:0:0:
256,192,202173,128,0,202339:0:0:0:0:
475,192,202256,128,0,202423:0:0:0:0:
402,192,202339,128,0,202506:0:0:0:0:
329,192,202423,128,0,202589:0:0:0:0:
256,192,202506,128,0,202673:0:0:0:0:
36,192,202589,128,0,202756:0:0:0:0:
182,192,202589,128,0,202923:0:0:0:0:
402,192,202756,128,0,202923:0:0:0:0:
256,192,202923,128,0,203089:0:0:0:0:
329,192,203006,128,0,203173:0:0:0:0:
402,192,203089,128,0,203256:0:0:0:0:
475,192,203173,128,0,203506:0:0:0:0:
182,192,203256,128,0,203423:0:0:0:0:
36,192,203256,1,0,0:0:0:0:
256,192,203339,128,0,203506:0:0:0:0:
329,192,203423,128,0,203589:0:0:0:0:
402,192,203506,128,0,203839:0:0:0:0:
109,192,203589,128,0,203756:0:0:0:0:
182,192,203673,128,0,203839:0:0:0:0:
256,192,203756,128,0,203923:0:0:0:0:
329,192,203839,128,0,204173:0:0:0:0:
475,192,203923,128,0,204256:0:0:0:0:
36,192,203923,128,0,204089:0:0:0:0:
109,192,204006,128,0,204173:0:0:0:0:
182,192,204256,1,0,0:0:0:0:
402,192,204256,128,0,205589:0:0:0:0:
36,192,204256,1,0,0:0:0:0:
256,192,204256,128,0,204589:0:0:0:0:
329,192,204423,128,0,204589:0:0:0:0:
109,192,204506,128,0,204589:0:0:0:0:
475,192,204589,1,0,0:0:0:0:
36,192,204589,128,0,204923:0:0:0:0:
182,192,204756,128,0,204923:0:0:0:0:
256,192,204839,128,0,204923:0:0:0:0:
109,192,204923,128,0,205256:0:0:0:0:
475,192,204923,1,0,0:0:0:0:
256,192,205089,128,0,205256:0:0:0:0:
329,192,205173,128,0,205256:0:0:0:0:
475,192,205256,1,0,0:0:0:0:
182,192,205256,128,0,205589:0:0:0:0:
36,192,205256,1,0,0:0:0:0:
329,192,205423,128,0,205589:0:0:0:0:
36,192,205506,128,0,205589:0:0:0:0:
475,192,205589,1,0,0:0:0:0:
256,192,205589,128,0,205923:0:0:0:0:
109,192,205589,128,0,206923:0:0:0:0:
329,192,205756,128,0,205923:0:0:0:0:
402,192,205839,128,0,205923:0:0:0:0:
36,192,205923,1,0,0:0:0:0:
475,192,205923,128,0,206256:0:0:0:0:
182,192,205923,1,0,0:0:0:0:
402,192,206089,128,0,206256:0:0:0:0:
256,192,206173,128,0,206256:0:0:0:0:
36,192,206256,1,0,0:0:0:0:
329,192,206256,128,0,206589:0:0:0:0:
402,192,206423,128,0,206589:0:0:0:0:
475,192,206506,128,0,206589:0:0:0:0:
182,192,206589,128,0,206923:0:0:0:0:
36,192,206589,1,0,0:0:0:0:
256,192,206590,1,0,0:0:0:0:
256,192,206756,128,0,206923:0:0:0:0:
402,192,206839,128,0,206923:0:0:0:0:
329,192,206923,128,0,207423:0:0:0:0:
36,192,206923,128,0,207173:0:0:0:0:
475,192,206923,128,0,207506:0:0:0:0:
256,192,207089,128,0,207256:0:0:0:0:
402,192,207256,1,0,0:0:0:0:
182,192,207256,128,0,207756:0:0:0:0:
36,192,207256,128,0,207839:0:0:0:0:
109,192,207256,1,0,0:0:0:0:
256,192,207423,128,0,207589:0:0:0:0:
402,192,207589,1,0,0:0:0:0:
475,192,207589,128,0,207923:0:0:0:0:
329,192,207589,128,0,208089:0:0:0:0:
109,192,207589,1,0,0:0:0:0:
256,192,207756,128,0,207923:0:0:0:0:
109,192,207923,1,0,0:0:0:0:
182,192,207923,128,0,208256:0:0:0:0:
36,192,207923,128,0,208256:0:0:0:0:
402,192,207923,1,0,0:0:0:0:
402,192,208089,128,0,208256:0:0:0:0:
475,192,208256,128,0,209589:0:0:0:0:
109,192,208256,128,0,208506:0:0:0:0:
329,192,208339,128,0,208589:0:0:0:0:
256,192,208423,128,0,208673:0:0:0:0:
402,192,208506,128,0,208756:0:0:0:0:
36,192,208756,128,0,209506:0:0:0:0:
329,192,208756,128,0,209089:0:0:0:0:
109,192,208756,1,0,0:0:0:0:
256,192,208756,1,0,0:0:0:0:
109,192,209089,128,0,209339:0:0:0:0:
182,192,209089,1,0,0:0:0:0:
402,192,209089,1,0,0:0:0:0:
256,192,209256,128,0,209589:0:0:0:0:
329,192,209256,1,0,0:0:0:0:
182,192,209423,128,0,209589:0:0:0:0:
402,192,209589,128,0,210256:0:0:0:0:
36,192,209589,128,0,209756:0:0:0:0:
109,192,209673,128,0,209839:0:0:0:0:
182,192,209756,128,0,209923:0:0:0:0:
256,192,209839,128,0,210006:0:0:0:0:
109,192,209923,128,0,210089:0:0:0:0:
36,192,209923,1,0,0:0:0:0:
475,192,209923,1,0,0:0:0:0:
182,192,210006,128,0,210173:0:0:0:0:
256,192,210089,128,0,210256:0:0:0:0:
329,192,210173,128,0,210339:0:0:0:0:
36,192,210256,1,0,0:0:0:0:
182,192,210256,128,0,210423:0:0:0:0:
256,192,210339,128,0,210506:0:0:0:0:
329,192,210423,128,0,210589:0:0:0:0:
402,192,210506,128,0,210673:0:0:0:0:
256,192,210589,128,0,210756:0:0:0:0:
36,192,210589,128,0,210923:0:0:0:0:
475,192,210589,128,0,210923:0:0:0:0:
109,192,210673,128,0,210839:0:0:0:0:
182,192,210756,128,0,210923:0:0:0:0:
329,192,210923,128,0,211256:0:0:0:0:
256,192,211006,128,0,211339:0:0:0:0:
182,192,211089,128,0,211423:0:0:0:0:
109,192,211173,128,0,211589:0:0:0:0:
402,192,211256,128,0,211923:0:0:0:0:
475,192,211256,1,0,0:0:0:0:
329,192,211339,128,0,211839:0:0:0:0:
256,192,211423,128,0,211756:0:0:0:0:
182,192,211506,128,0,211673:0:0:0:0:
475,192,211589,1,0,0:0:0:0:
36,192,211589,128,0,211756:0:0:0:0:
109,192,211673,128,0,211839:0:0:0:0:
182,192,211756,128,0,211923:0:0:0:0:
256,192,211839,128,0,212006:0:0:0:0:
475,192,211923,128,0,212089:0:0:0:0:
36,192,211923,1,0,0:0:0:0:
109,192,212006,1,0,0:0:0:0:
329,192,212089,128,0,212256:0:0:0:0:
182,192,212090,1,0,0:0:0:0:
256,192,212173,1,0,0:0:0:0:
475,192,212256,128,0,212423:0:0:0:0:
36,192,212256,128,0,213006:0:0:0:0:
402,192,212256,1,0,0:0:0:0:
182,192,212339,128,0,212923:0:0:0:0:
109,192,212423,128,0,212839:0:0:0:0:
329,192,212506,128,0,212756:0:0:0:0:
256,192,212589,128,0,212673:0:0:0:0:
402,192,212673,128,0,212839:0:0:0:0:
256,192,212756,128,0,212923:0:0:0:0:
329,192,212839,128,0,213006:0:0:0:0:
109,192,212923,128,0,213589:0:0:0:0:
475,192,213006,128,0,213339:0:0:0:0:
402,192,213089,128,0,213423:0:0:0:0:
329,192,213173,128,0,213506:0:0:0:0:
36,192,213256,128,0,213423:0:0:0:0:
256,192,213256,1,0,0:0:0:0:
182,192,213339,128,0,213506:0:0:0:0:
36,192,213589,128,0,214923:0:0:0:0:
475,192,213590,128,0,214090:0:0:0:0:
256,192,213590,128,0,213756:0:0:0:0:
329,192,213673,128,0,213840:0:0:0:0:
402,192,213756,128,0,214090:0:0:0:0:
182,192,213923,128,0,214423:0:0:0:0:
109,192,213923,128,0,214090:0:0:0:0:
256,192,214006,128,0,214173:0:0:0:0:
329,192,214090,128,0,214423:0:0:0:0:
475,192,214256,128,0,214756:0:0:0:0:
402,192,214423,128,0,214590:0:0:0:0:
109,192,214423,128,0,214923:0:0:0:0:
256,192,214590,128,0,214923:0:0:0:0:
402,192,214756,128,0,214923:0:0:0:0:
182,192,214923,128,0,215256:0:0:0:0:
329,192,214923,128,0,215589:0:0:0:0:
475,192,215256,128,0,215590:0:0:0:0:
109,192,215423,128,0,215589:0:0:0:0:
256,192,215590,128,0,215923:0:0:0:0:
36,192,215590,128,0,216256:0:0:0:0:
402,192,215756,128,0,215923:0:0:0:0:
109,192,215923,1,0,0:0:0:0:
182,192,215923,1,0,0:0:0:0:
329,192,216090,1,0,0:0:0:0:
475,192,216090,1,0,0:0:0:0:
182,192,216256,128,0,216590:0:0:0:0:
256,192,216340,128,0,216673:0:0:0:0:
329,192,216423,128,0,216756:0:0:0:0:
402,192,216506,128,0,217423:0:0:0:0:
109,192,216590,128,0,216923:0:0:0:0:
182,192,216673,128,0,217006:0:0:0:0:
256,192,216756,128,0,217090:0:0:0:0:
329,192,216840,128,0,217173:0:0:0:0:
36,192,216923,128,0,217256:0:0:0:0:
475,192,217090,128,0,217423:0:0:0:0:
182,192,217256,128,0,217590:0:0:0:0:
329,192,217423,128,0,218256:0:0:0:0:
109,192,217590,128,0,218923:0:0:0:0:
36,192,217590,1,0,0:0:0:0:
402,192,217923,1,0,0:0:0:0:
182,192,218256,1,0,0:0:0:0:
475,192,218256,1,0,0:0:0:0:
402,192,218423,1,0,0:0:0:0:
475,192,218590,1,0,0:0:0:0:
329,192,218756,128,0,220090:0:0:0:0:
36,192,218923,1,0,0:0:0:0:
402,192,218923,1,0,0:0:0:0:
182,192,219090,1,0,0:0:0:0:
36,192,219256,1,0,0:0:0:0:
475,192,219590,128,0,220090:0:0:0:0:
256,192,219590,1,0,0:0:0:0:
36,192,219590,1,0,0:0:0:0:
109,192,219756,1,0,0:0:0:0:
256,192,219923,1,0,0:0:0:0:
36,192,220256,1,0,0:0:0:0:
182,192,220256,1,0,0:0:0:0:
402,192,220256,1,0,0:0:0:0:
109,192,220590,1,0,0:0:0:0:
256,192,220590,1,0,0:0:0:0:
475,192,220590,1,0,0:0:0:0:
402,192,220923,128,0,221590:0:0:0:0:
182,192,220923,1,0,0:0:0:0:
329,192,220923,1,0,0:0:0:0:
256,192,221090,1,0,0:0:0:0:
109,192,221090,1,0,0:0:0:0:
182,192,221256,1,0,0:0:0:0:
36,192,221256,1,0,0:0:0:0:
256,192,221423,1,0,0:0:0:0:
109,192,221423,128,0,222256:0:0:0:0:
475,192,221423,1,0,0:0:0:0:
329,192,221756,1,0,0:0:0:0:
182,192,221923,1,0,0:0:0:0:
329,192,222090,1,0,0:0:0:0:
475,192,222090,1,0,0:0:0:0:
182,192,222256,128,0,222756:0:0:0:0:
36,192,222256,1,0,0:0:0:0:
402,192,222423,1,0,0:0:0:0:
36,192,222590,1,0,0:0:0:0:
329,192,222590,1,0,0:0:0:0:
256,192,222756,1,0,0:0:0:0:
475,192,222756,1,0,0:0:0:0:
36,192,222923,1,0,0:0:0:0:
109,192,222923,1,0,0:0:0:0:
402,192,222923,1,0,0:0:0:0:
182,192,223256,1,0,0:0:0:0:
256,192,223256,1,0,0:0:0:0:
475,192,223256,1,0,0:0:0:0:
36,192,223590,1,0,0:0:0:0:
256,192,223590,1,0,0:0:0:0:
109,192,223756,1,0,0:0:0:0:
329,192,223756,1,0,0:0:0:0:
182,192,223923,1,0,0:0:0:0:
402,192,223923,1,0,0:0:0:0:
256,192,224090,1,0,0:0:0:0:
475,192,224090,1,0,0:0:0:0:
36,192,224256,1,0,0:0:0:0:
109,192,224423,1,0,0:0:0:0:
36,192,224590,1,0,0:0:0:0:
256,192,224590,1,0,0:0:0:0:
402,192,224590,1,0,0:0:0:0:
182,192,224756,1,0,0:0:0:0:
475,192,224756,1,0,0:0:0:0:
109,192,225090,1,0,0:0:0:0:
402,192,225090,1,0,0:0:0:0:
329,192,225256,1,0,0:0:0:0:
256,192,225340,1,0,0:0:0:0:
182,192,225423,1,0,0:0:0:0:
475,192,225590,128,0,226256:0:0:0:0:
36,192,225590,1,0,0:0:0:0:
329,192,225590,1,0,0:0:0:0:
256,192,225756,1,0,0:0:0:0:
36,192,225923,1,0,0:0:0:0:
329,192,225923,1,0,0:0:0:0:
182,192,226090,1,0,0:0:0:0:
402,192,226256,128,0,226923:0:0:0:0:
36,192,226256,1,0,0:0:0:0:
256,192,226256,1,0,0:0:0:0:
182,192,226423,1,0,0:0:0:0:
36,192,226590,1,0,0:0:0:0:
256,192,226590,1,0,0:0:0:0:
109,192,226756,1,0,0:0:0:0:
329,192,226923,128,0,227590:0:0:0:0:
36,192,226923,1,0,0:0:0:0:
109,192,227090,1,0,0:0:0:0:
182,192,227256,1,0,0:0:0:0:
109,192,227423,1,0,0:0:0:0:
256,192,227590,128,0,228256:0:0:0:0:
475,192,227590,1,0,0:0:0:0:
36,192,227590,1,0,0:0:0:0:
402,192,227756,1,0,0:0:0:0:
329,192,227923,1,0,0:0:0:0:
402,192,228090,1,0,0:0:0:0:
475,192,228256,1,0,0:0:0:0:
36,192,228256,1,0,0:0:0:0:
109,192,228590,1,0,0:0:0:0:
329,192,228590,1,0,0:0:0:0:
402,192,228590,1,0,0:0:0:0:
182,192,228923,128,0,229423:0:0:0:0:
36,192,228923,1,0,0:0:0:0:
256,192,228923,1,0,0:0:0:0:
475,192,228923,1,0,0:0:0:0:
402,192,229090,1,0,0:0:0:0:
329,192,229256,1,0,0:0:0:0:
109,192,229423,128,0,230256:0:0:0:0:
402,192,229423,1,0,0:0:0:0:
36,192,229423,1,0,0:0:0:0:
256,192,229423,1,0,0:0:0:0:
256,192,229756,1,0,0:0:0:0:
402,192,229923,1,0,0:0:0:0:
256,192,230090,1,0,0:0:0:0:
329,192,230256,128,0,230756:0:0:0:0:
36,192,230256,1,0,0:0:0:0:
475,192,230256,1,0,0:0:0:0:
109,192,230423,1,0,0:0:0:0:
182,192,230590,1,0,0:0:0:0:
109,192,230756,1,0,0:0:0:0:
36,192,230923,1,0,0:0:0:0:
182,192,230923,1,0,0:0:0:0:
329,192,230923,1,0,0:0:0:0:
475,192,230923,1,0,0:0:0:0:
109,192,231256,1,0,0:0:0:0:
256,192,231256,1,0,0:0:0:0:
402,192,231256,1,0,0:0:0:0:
36,192,231590,1,0,0:0:0:0:
475,192,231590,1,0,0:0:0:0:
109,192,231756,1,0,0:0:0:0:
402,192,231756,1,0,0:0:0:0:
182,192,231923,1,0,0:0:0:0:
329,192,231923,1,0,0:0:0:0:
36,192,232090,1,0,0:0:0:0:
256,192,232090,1,0,0:0:0:0:
475,192,232090,1,0,0:0:0:0:
182,192,232423,1,0,0:0:0:0:
329,192,232423,1,0,0:0:0:0:
36,192,232590,1,0,0:0:0:0:
475,192,232590,1,0,0:0:0:0:
182,192,232756,1,0,0:0:0:0:
329,192,232756,1,0,0:0:0:0:
109,192,232923,1,0,0:0:0:0:
402,192,232923,1,0,0:0:0:0:
182,192,233090,1,0,0:0:0:0:
329,192,233090,1,0,0:0:0:0:
36,192,233256,1,0,0:0:0:0:
475,192,233256,1,0,0:0:0:0:
182,192,233423,1,0,0:0:0:0:
329,192,233423,1,0,0:0:0:0:
36,192,233590,1,0,0:0:0:0:
475,192,233590,1,0,0:0:0:0:
256,192,233590,1,0,0:0:0:0:
109,192,233923,1,0,0:0:0:0:
402,192,233923,1,0,0:0:0:0:
475,192,234256,1,0,0:0:0:0:
329,192,234256,1,0,0:0:0:0:
402,192,234423,1,0,0:0:0:0:
256,192,234423,1,0,0:0:0:0:
329,192,234590,1,0,0:0:0:0:
182,192,234590,1,0,0:0:0:0:
256,192,234756,1,0,0:0:0:0:
109,192,234756,1,0,0:0:0:0:
36,192,234923,1,0,0:0:0:0:
182,192,234923,1,0,0:0:0:0:
402,192,234923,1,0,0:0:0:0:
109,192,235256,1,0,0:0:0:0:
329,192,235256,1,0,0:0:0:0:
475,192,235256,1,0,0:0:0:0:
36,192,235423,1,0,0:0:0:0:
256,192,235423,1,0,0:0:0:0:
182,192,235756,1,0,0:0:0:0:
402,192,235756,1,0,0:0:0:0:
329,192,235923,1,0,0:0:0:0:
256,192,236006,1,0,0:0:0:0:
182,192,236090,1,0,0:0:0:0:
475,192,236256,128,0,238756:0:0:0:0:
36,192,236256,1,0,0:0:0:0:
256,192,236256,1,0,0:0:0:0:
402,192,236256,1,0,0:0:0:0:
182,192,236590,1,0,0:0:0:0:
329,192,236590,1,0,0:0:0:0:
36,192,236923,1,0,0:0:0:0:
36,192,237090,1,0,0:0:0:0:
182,192,237256,1,0,0:0:0:0:
329,192,237256,1,0,0:0:0:0:
109,192,237423,1,0,0:0:0:0:
182,192,237590,1,0,0:0:0:0:
329,192,237590,1,0,0:0:0:0:
36,192,237756,1,0,0:0:0:0:
182,192,237923,1,0,0:0:0:0:
329,192,237923,1,0,0:0:0:0:
402,192,238090,1,0,0:0:0:0:
329,192,238173,1,0,0:0:0:0:
256,192,238256,1,0,0:0:0:0:
36,192,238423,1,0,0:0:0:0:
182,192,238423,1,0,0:0:0:0:
109,192,238590,1,0,0:0:0:0:
256,192,238590,1,0,0:0:0:0:
182,192,238756,1,0,0:0:0:0:
329,192,238756,1,0,0:0:0:0:
256,192,238923,1,0,0:0:0:0:
475,192,238923,1,0,0:0:0:0:
36,192,241256,128,0,241590:0:0:0:0:
182,192,241590,1,0,0:0:0:0:
402,192,241590,1,0,0:0:0:0:
256,192,243756,1,0,0:0:0:0:
36,192,243756,128,0,244256:0:0:0:0:
402,192,243923,1,0,0:0:0:0:
475,192,244090,1,0,0:0:0:0:
329,192,244256,1,0,0:0:0:0:
109,192,244256,1,0,0:0:0:0:
256,192,245423,1,0,0:0:0:0:
329,192,245506,1,0,0:0:0:0:
402,192,245590,1,0,0:0:0:0:
182,192,245590,1,0,0:0:0:0:
402,192,246423,1,0,0:0:0:0:
402,192,246756,1,0,0:0:0:0:
402,192,246923,1,0,0:0:0:0:
109,192,246923,1,0,0:0:0:0:
475,192,247006,1,0,0:0:0:0:
329,192,247090,1,0,0:0:0:0:
256,192,247256,1,0,0:0:0:0:
182,192,247423,1,0,0:0:0:0:
36,192,247590,1,0,0:0:0:0:
