osu file format v12

[General]
AudioFilename: yuikonnu - otsukimi recital.mp3
AudioLeadIn: 0
PreviewTime: 70704
Countdown: 0
SampleSet: Soft
StackLeniency: 0.7
Mode: 3
LetterboxInBreaks: 0
SpecialStyle: 0
WidescreenStoryboard: 1

[Editor]
DistanceSpacing: 1.1
BeatDivisor: 4
GridSize: 8
TimelineZoom: 2.2

[Metadata]
Title:Otsukimi Recital
TitleUnicode:Otsukimi Recital
Artist:yuikonnu
ArtistUnicode:yuikonnu
Creator:Tip Baka
Version:4K Insane
Source:
Tags:
BeatmapID:395782
BeatmapSetID:162196

[Difficulty]
HPDrainRate:8
CircleSize:4
OverallDifficulty:8
ApproachRate:5
SliderMultiplier:1.4
SliderTickRate:1

[Events]
//Background and Video events
0,0,"42161314.jpg",0,0
//Break Periods
//Storyboard Layer 0 (Background)
//Storyboard Layer 1 (Fail)
//Storyboard Layer 2 (Pass)
//Storyboard Layer 3 (Foreground)
//Storyboard Sound Samples
//Background Colour Transformations
3,100,163,162,255

[TimingPoints]
18243,307.692307692308,4,2,0,5,1,0
70704,-100,4,2,0,5,0,1
90704,-100,4,2,0,5,0,0
132089,-100,4,2,0,5,0,1
152396,-100,4,2,0,5,0,0
172089,-100,4,2,0,5,0,1
194550,-100,4,2,0,5,0,0

[HitObjects]
320,192,19319,5,0,0:0:0:0:
192,192,19396,1,0,0:0:0:0:
64,192,19473,1,0,0:0:0:0:
448,192,19473,1,0,0:0:0:0:
192,192,19781,1,0,0:0:0:0:
320,192,19781,1,0,0:0:0:0:
448,192,20396,1,0,0:0:0:0:
448,192,21012,1,0,0:0:0:0:
448,192,21627,1,0,0:0:0:0:
448,192,22242,1,0,0:0:0:0:
448,192,22858,1,0,0:0:0:0:
64,192,23012,1,0,0:0:0:0:
320,192,23012,1,0,0:0:0:0:
192,192,23319,1,0,0:0:0:0:
64,192,23473,1,0,0:0:0:0:
320,192,23627,1,0,0:0:0:0:
448,192,23935,1,0,0:0:0:0:
64,192,24089,1,0,0:0:0:0:
192,192,24242,1,0,0:0:0:0:
320,192,24319,1,0,0:0:0:0:
448,192,24396,1,0,0:0:0:0:
64,192,24396,1,0,0:0:0:0:
192,192,24704,1,0,0:0:0:0:
320,192,24704,1,0,0:0:0:0:
64,192,25319,1,0,0:0:0:0:
64,192,25935,1,0,0:0:0:0:
64,192,26550,1,0,0:0:0:0:
64,192,27166,1,0,0:0:0:0:
64,192,27781,1,0,0:0:0:0:
448,192,28089,1,0,0:0:0:0:
192,192,28166,1,0,0:0:0:0:
320,192,28242,1,0,0:0:0:0:
64,192,28319,1,0,0:0:0:0:
320,192,28396,1,0,0:0:0:0:
192,192,28473,1,0,0:0:0:0:
448,192,28550,1,0,0:0:0:0:
64,192,28627,1,0,0:0:0:0:
320,192,28704,1,0,0:0:0:0:
192,192,28704,1,0,0:0:0:0:
64,192,28858,1,0,0:0:0:0:
448,192,28858,1,0,0:0:0:0:
320,192,29012,1,0,0:0:0:0:
448,192,29089,1,0,0:0:0:0:
320,192,29166,1,0,0:0:0:0:
192,192,29243,1,0,0:0:0:0:
64,192,29319,128,0,29935:0:0:0:0:
448,192,29319,1,0,0:0:0:0:
448,192,29627,128,0,29935:0:0:0:0:
320,192,29627,1,0,0:0:0:0:
192,192,29935,1,0,0:0:0:0:
320,192,30089,128,0,30243:0:0:0:0:
64,192,30089,1,0,0:0:0:0:
192,192,30243,128,0,30396:0:0:0:0:
448,192,30243,1,0,0:0:0:0:
64,192,30396,1,0,0:0:0:0:
320,192,30396,128,0,31166:0:0:0:0:
192,192,30704,1,0,0:0:0:0:
448,192,30858,1,0,0:0:0:0:
192,192,31012,1,0,0:0:0:0:
64,192,31166,1,0,0:0:0:0:
192,192,31319,128,0,31473:0:0:0:0:
448,192,31319,1,0,0:0:0:0:
64,192,31473,128,0,31627:0:0:0:0:
320,192,31473,1,0,0:0:0:0:
192,192,31627,128,0,33012:0:0:0:0:
448,192,31627,1,0,0:0:0:0:
320,192,31935,1,0,0:0:0:0:
64,192,32089,1,0,0:0:0:0:
320,192,32243,1,0,0:0:0:0:
64,192,32550,1,0,0:0:0:0:
448,192,32704,1,0,0:0:0:0:
64,192,32858,1,0,0:0:0:0:
448,192,33166,1,0,0:0:0:0:
192,192,33166,1,0,0:0:0:0:
320,192,33319,1,0,0:0:0:0:
64,192,33319,1,0,0:0:0:0:
64,192,33473,1,0,0:0:0:0:
192,192,33473,1,0,0:0:0:0:
64,192,33781,1,0,0:0:0:0:
448,192,33781,1,0,0:0:0:0:
192,192,33935,1,0,0:0:0:0:
320,192,33935,1,0,0:0:0:0:
448,192,34089,1,0,0:0:0:0:
320,192,34089,1,0,0:0:0:0:
192,192,34396,1,0,0:0:0:0:
320,192,34396,1,0,0:0:0:0:
64,192,34550,1,0,0:0:0:0:
448,192,34550,1,0,0:0:0:0:
448,192,34858,1,0,0:0:0:0:
192,192,35012,1,0,0:0:0:0:
320,192,35166,1,0,0:0:0:0:
64,192,35319,1,0,0:0:0:0:
320,192,35627,1,0,0:0:0:0:
64,192,35781,1,0,0:0:0:0:
192,192,36089,1,0,0:0:0:0:
320,192,36243,1,0,0:0:0:0:
64,192,36243,1,0,0:0:0:0:
192,192,36396,1,0,0:0:0:0:
448,192,36396,1,0,0:0:0:0:
448,192,36550,128,0,37935:0:0:0:0:
64,192,37473,1,0,0:0:0:0:
192,192,37550,1,0,0:0:0:0:
320,192,37627,1,0,0:0:0:0:
192,192,37704,1,0,0:0:0:0:
64,192,37781,1,0,0:0:0:0:
192,192,37935,1,0,0:0:0:0:
320,192,38243,1,0,0:0:0:0:
192,192,38550,1,0,0:0:0:0:
448,192,38704,1,0,0:0:0:0:
320,192,38858,1,0,0:0:0:0:
64,192,38858,1,0,0:0:0:0:
192,192,39166,1,0,0:0:0:0:
448,192,39166,1,0,0:0:0:0:
320,192,39473,1,0,0:0:0:0:
448,192,39935,1,0,0:0:0:0:
192,192,40089,1,0,0:0:0:0:
320,192,40396,1,0,0:0:0:0:
320,192,40550,1,0,0:0:0:0:
64,192,40704,1,0,0:0:0:0:
64,192,40858,1,0,0:0:0:0:
448,192,41166,1,0,0:0:0:0:
192,192,41319,1,0,0:0:0:0:
64,192,41627,1,0,0:0:0:0:
320,192,41935,1,0,0:0:0:0:
64,192,42396,1,0,0:0:0:0:
320,192,42550,1,0,0:0:0:0:
192,192,42858,1,0,0:0:0:0:
192,192,43012,1,0,0:0:0:0:
448,192,43166,1,0,0:0:0:0:
448,192,43319,1,0,0:0:0:0:
64,192,43627,1,0,0:0:0:0:
320,192,43781,1,0,0:0:0:0:
192,192,44089,1,0,0:0:0:0:
320,192,44396,1,0,0:0:0:0:
192,192,44858,1,0,0:0:0:0:
320,192,45012,1,0,0:0:0:0:
64,192,45319,1,0,0:0:0:0:
64,192,45473,1,0,0:0:0:0:
448,192,45627,1,0,0:0:0:0:
448,192,45781,1,0,0:0:0:0:
64,192,46089,1,0,0:0:0:0:
320,192,46089,1,0,0:0:0:0:
192,192,46243,1,0,0:0:0:0:
448,192,46243,1,0,0:0:0:0:
320,192,46396,1,0,0:0:0:0:
448,192,46396,1,0,0:0:0:0:
448,192,46550,128,0,46858:0:0:0:0:
320,192,46550,1,0,0:0:0:0:
320,192,47012,128,0,47319:0:0:0:0:
192,192,47012,1,0,0:0:0:0:
192,192,47473,128,0,47781:0:0:0:0:
320,192,47473,1,0,0:0:0:0:
64,192,47935,128,0,48243:0:0:0:0:
192,192,47935,1,0,0:0:0:0:
448,192,48396,1,0,0:0:0:0:
320,192,48550,1,0,0:0:0:0:
192,192,48704,1,0,0:0:0:0:
320,192,48858,1,0,0:0:0:0:
192,192,49012,1,0,0:0:0:0:
64,192,49012,128,0,51473:0:0:0:0:
192,192,49319,128,0,49627:0:0:0:0:
448,192,49319,1,0,0:0:0:0:
320,192,49627,1,0,0:0:0:0:
320,192,49781,1,0,0:0:0:0:
448,192,49935,1,0,0:0:0:0:
192,192,50089,1,0,0:0:0:0:
320,192,50396,1,0,0:0:0:0:
448,192,50550,1,0,0:0:0:0:
192,192,50704,1,0,0:0:0:0:
320,192,50781,1,0,0:0:0:0:
448,192,50858,1,0,0:0:0:0:
448,192,51012,1,0,0:0:0:0:
320,192,51166,1,0,0:0:0:0:
192,192,51319,1,0,0:0:0:0:
320,192,51473,128,0,52704:0:0:0:0:
448,192,51473,1,0,0:0:0:0:
64,192,51781,1,0,0:0:0:0:
192,192,52089,1,0,0:0:0:0:
192,192,52243,1,0,0:0:0:0:
448,192,52396,1,0,0:0:0:0:
64,192,52550,1,0,0:0:0:0:
448,192,52704,128,0,53935:0:0:0:0:
192,192,52858,1,0,0:0:0:0:
320,192,53012,1,0,0:0:0:0:
192,192,53319,1,0,0:0:0:0:
192,192,53473,1,0,0:0:0:0:
64,192,53627,1,0,0:0:0:0:
320,192,53781,1,0,0:0:0:0:
192,192,53935,128,0,55166:0:0:0:0:
64,192,53935,1,0,0:0:0:0:
320,192,54243,1,0,0:0:0:0:
448,192,54550,1,0,0:0:0:0:
448,192,54704,1,0,0:0:0:0:
320,192,54858,1,0,0:0:0:0:
448,192,55012,1,0,0:0:0:0:
64,192,55166,128,0,56396:0:0:0:0:
320,192,55319,1,0,0:0:0:0:
192,192,55473,1,0,0:0:0:0:
320,192,55781,1,0,0:0:0:0:
448,192,55935,1,0,0:0:0:0:
192,192,56089,1,0,0:0:0:0:
320,192,56243,1,0,0:0:0:0:
448,192,56243,1,0,0:0:0:0:
64,192,56550,1,0,0:0:0:0:
320,192,56550,1,0,0:0:0:0:
192,192,56704,1,0,0:0:0:0:
448,192,56704,1,0,0:0:0:0:
320,192,56858,1,0,0:0:0:0:
448,192,56858,1,0,0:0:0:0:
320,192,57012,1,0,0:0:0:0:
64,192,57012,1,0,0:0:0:0:
192,192,57166,1,0,0:0:0:0:
64,192,57166,1,0,0:0:0:0:
192,192,57319,1,0,0:0:0:0:
320,192,57319,1,0,0:0:0:0:
64,192,57473,1,0,0:0:0:0:
448,192,57473,1,0,0:0:0:0:
192,192,57781,1,0,0:0:0:0:
320,192,57781,1,0,0:0:0:0:
192,192,58089,128,0,58858:0:0:0:0:
320,192,58089,128,0,58858:0:0:0:0:
448,192,58396,1,0,0:0:0:0:
64,192,58550,1,0,0:0:0:0:
448,192,58704,1,0,0:0:0:0:
64,192,58858,1,0,0:0:0:0:
448,192,59166,1,0,0:0:0:0:
192,192,59319,1,0,0:0:0:0:
448,192,59319,1,0,0:0:0:0:
192,192,59473,128,0,59781:0:0:0:0:
320,192,59627,1,0,0:0:0:0:
64,192,59781,1,0,0:0:0:0:
448,192,59781,1,0,0:0:0:0:
192,192,59935,1,0,0:0:0:0:
64,192,60089,128,0,60243:0:0:0:0:
320,192,60089,1,0,0:0:0:0:
448,192,60243,1,0,0:0:0:0:
192,192,60396,1,0,0:0:0:0:
64,192,60550,128,0,61319:0:0:0:0:
320,192,60550,1,0,0:0:0:0:
448,192,60858,1,0,0:0:0:0:
192,192,61012,1,0,0:0:0:0:
320,192,61166,1,0,0:0:0:0:
448,192,61319,128,0,61473:0:0:0:0:
192,192,61319,1,0,0:0:0:0:
448,192,61627,1,0,0:0:0:0:
192,192,61627,1,0,0:0:0:0:
64,192,61781,1,0,0:0:0:0:
448,192,61781,128,0,63473:0:0:0:0:
320,192,62089,1,0,0:0:0:0:
192,192,62243,1,0,0:0:0:0:
64,192,62396,128,0,62627:0:0:0:0:
192,192,62704,128,0,62935:0:0:0:0:
320,192,63012,128,0,63243:0:0:0:0:
192,192,63319,1,0,0:0:0:0:
64,192,63473,1,0,0:0:0:0:
320,192,63473,1,0,0:0:0:0:
192,192,63627,1,0,0:0:0:0:
448,192,63627,1,0,0:0:0:0:
320,192,63781,128,0,64704:0:0:0:0:
64,192,63781,1,0,0:0:0:0:
448,192,64089,1,0,0:0:0:0:
448,192,64243,1,0,0:0:0:0:
64,192,64550,1,0,0:0:0:0:
192,192,64704,1,0,0:0:0:0:
320,192,64858,1,0,0:0:0:0:
64,192,65012,128,0,65166:0:0:0:0:
448,192,65012,1,0,0:0:0:0:
192,192,65166,1,0,0:0:0:0:
320,192,65319,1,0,0:0:0:0:
64,192,65473,128,0,66243:0:0:0:0:
320,192,65473,1,0,0:0:0:0:
192,192,65781,1,0,0:0:0:0:
448,192,65935,1,0,0:0:0:0:
192,192,66089,1,0,0:0:0:0:
320,192,66166,1,0,0:0:0:0:
192,192,66243,1,0,0:0:0:0:
448,192,66243,1,0,0:0:0:0:
320,192,66550,1,0,0:0:0:0:
64,192,66550,1,0,0:0:0:0:
64,192,66704,128,0,67473:0:0:0:0:
448,192,66858,1,0,0:0:0:0:
448,192,67012,1,0,0:0:0:0:
192,192,67166,1,0,0:0:0:0:
320,192,67319,1,0,0:0:0:0:
448,192,67627,1,0,0:0:0:0:
64,192,67781,1,0,0:0:0:0:
192,192,68089,1,0,0:0:0:0:
320,192,68243,1,0,0:0:0:0:
448,192,68396,1,0,0:0:0:0:
64,192,68704,1,0,0:0:0:0:
448,192,68704,1,0,0:0:0:0:
64,192,69012,1,0,0:0:0:0:
320,192,69012,1,0,0:0:0:0:
192,192,69166,1,0,0:0:0:0:
448,192,69166,1,0,0:0:0:0:
320,192,69319,1,0,0:0:0:0:
64,192,69319,1,0,0:0:0:0:
192,192,69473,1,0,0:0:0:0:
448,192,69473,1,0,0:0:0:0:
64,192,69627,1,0,0:0:0:0:
320,192,69627,1,0,0:0:0:0:
64,192,69781,128,0,70550:0:0:0:0:
320,192,69781,128,0,70550:0:0:0:0:
448,192,69781,1,0,0:0:0:0:
192,192,70089,1,0,0:0:0:0:
448,192,70089,1,0,0:0:0:0:
448,192,70243,1,0,0:0:0:0:
192,192,70243,1,0,0:0:0:0:
192,192,70396,1,0,0:0:0:0:
448,192,70396,1,0,0:0:0:0:
448,192,70550,1,0,0:0:0:0:
192,192,70550,1,0,0:0:0:0:
64,192,70704,1,0,0:0:0:0:
192,192,70781,1,0,0:0:0:0:
320,192,70858,1,0,0:0:0:0:
448,192,70935,1,0,0:0:0:0:
320,192,71012,1,0,0:0:0:0:
192,192,71089,1,0,0:0:0:0:
448,192,71166,1,0,0:0:0:0:
64,192,71166,128,0,73627:0:0:0:0:
448,192,71473,128,0,71781:0:0:0:0:
320,192,71473,1,0,0:0:0:0:
192,192,71781,1,0,0:0:0:0:
192,192,71935,1,0,0:0:0:0:
448,192,72089,1,0,0:0:0:0:
320,192,72243,1,0,0:0:0:0:
192,192,72550,1,0,0:0:0:0:
448,192,72704,1,0,0:0:0:0:
192,192,73012,1,0,0:0:0:0:
448,192,73166,1,0,0:0:0:0:
320,192,73319,1,0,0:0:0:0:
192,192,73627,128,0,76089:0:0:0:0:
448,192,73627,1,0,0:0:0:0:
64,192,73935,1,0,0:0:0:0:
320,192,74243,1,0,0:0:0:0:
320,192,74396,1,0,0:0:0:0:
64,192,74550,1,0,0:0:0:0:
448,192,74704,1,0,0:0:0:0:
448,192,75012,1,0,0:0:0:0:
64,192,75166,1,0,0:0:0:0:
320,192,75166,1,0,0:0:0:0:
448,192,75319,1,0,0:0:0:0:
320,192,75396,1,0,0:0:0:0:
64,192,75473,1,0,0:0:0:0:
320,192,75627,1,0,0:0:0:0:
64,192,75781,1,0,0:0:0:0:
320,192,76089,128,0,77166:0:0:0:0:
64,192,76089,1,0,0:0:0:0:
448,192,76396,1,0,0:0:0:0:
192,192,76396,1,0,0:0:0:0:
448,192,76704,1,0,0:0:0:0:
448,192,76858,1,0,0:0:0:0:
192,192,77012,1,0,0:0:0:0:
448,192,77166,128,0,78396:0:0:0:0:
64,192,77166,1,0,0:0:0:0:
320,192,77473,1,0,0:0:0:0:
192,192,77627,1,0,0:0:0:0:
64,192,77781,1,0,0:0:0:0:
320,192,77781,1,0,0:0:0:0:
192,192,78089,1,0,0:0:0:0:
64,192,78243,1,0,0:0:0:0:
320,192,78396,1,0,0:0:0:0:
192,192,78396,1,0,0:0:0:0:
192,192,78704,1,0,0:0:0:0:
320,192,78781,1,0,0:0:0:0:
448,192,78858,1,0,0:0:0:0:
64,192,78858,1,0,0:0:0:0:
320,192,79012,1,0,0:0:0:0:
192,192,79166,1,0,0:0:0:0:
320,192,79473,1,0,0:0:0:0:
64,192,79627,1,0,0:0:0:0:
448,192,79627,128,0,79935:0:0:0:0:
320,192,79935,1,0,0:0:0:0:
64,192,79935,1,0,0:0:0:0:
192,192,80089,1,0,0:0:0:0:
448,192,80089,1,0,0:0:0:0:
320,192,80243,1,0,0:0:0:0:
448,192,80243,1,0,0:0:0:0:
192,192,80396,1,0,0:0:0:0:
64,192,80396,1,0,0:0:0:0:
448,192,80550,1,0,0:0:0:0:
320,192,80627,1,0,0:0:0:0:
192,192,80704,1,0,0:0:0:0:
64,192,80781,1,0,0:0:0:0:
448,192,80858,1,0,0:0:0:0:
320,192,80935,1,0,0:0:0:0:
448,192,81012,128,0,83473:0:0:0:0:
64,192,81012,128,0,81319:0:0:0:0:
192,192,81012,1,0,0:0:0:0:
320,192,81319,128,0,81627:0:0:0:0:
192,192,81319,1,0,0:0:0:0:
64,192,81627,1,0,0:0:0:0:
64,192,81781,1,0,0:0:0:0:
320,192,81935,1,0,0:0:0:0:
192,192,82089,1,0,0:0:0:0:
192,192,82396,1,0,0:0:0:0:
320,192,82550,1,0,0:0:0:0:
64,192,82550,1,0,0:0:0:0:
64,192,82704,1,0,0:0:0:0:
64,192,82858,1,0,0:0:0:0:
320,192,82858,1,0,0:0:0:0:
320,192,83012,1,0,0:0:0:0:
320,192,83166,1,0,0:0:0:0:
192,192,83166,1,0,0:0:0:0:
192,192,83319,1,0,0:0:0:0:
320,192,83473,128,0,85935:0:0:0:0:
192,192,83473,1,0,0:0:0:0:
64,192,83473,1,0,0:0:0:0:
192,192,83781,1,0,0:0:0:0:
448,192,83781,1,0,0:0:0:0:
64,192,84089,1,0,0:0:0:0:
64,192,84243,1,0,0:0:0:0:
448,192,84396,1,0,0:0:0:0:
192,192,84550,1,0,0:0:0:0:
64,192,84858,1,0,0:0:0:0:
448,192,84858,1,0,0:0:0:0:
192,192,85012,1,0,0:0:0:0:
448,192,85012,1,0,0:0:0:0:
448,192,85166,128,0,85319:0:0:0:0:
448,192,85473,1,0,0:0:0:0:
64,192,85473,1,0,0:0:0:0:
192,192,85627,1,0,0:0:0:0:
64,192,85627,1,0,0:0:0:0:
64,192,85781,128,0,85935:0:0:0:0:
192,192,85935,128,0,87012:0:0:0:0:
448,192,85935,1,0,0:0:0:0:
448,192,86243,128,0,86550:0:0:0:0:
320,192,86243,1,0,0:0:0:0:
64,192,86550,1,0,0:0:0:0:
64,192,86704,1,0,0:0:0:0:
320,192,86858,1,0,0:0:0:0:
64,192,87012,128,0,87627:0:0:0:0:
448,192,87012,1,0,0:0:0:0:
320,192,87319,1,0,0:0:0:0:
448,192,87473,1,0,0:0:0:0:
320,192,87627,128,0,88396:0:0:0:0:
192,192,87627,1,0,0:0:0:0:
448,192,87935,1,0,0:0:0:0:
192,192,88089,1,0,0:0:0:0:
64,192,88243,1,0,0:0:0:0:
192,192,88396,1,0,0:0:0:0:
448,192,88396,128,0,90704:0:0:0:0:
320,192,88704,1,0,0:0:0:0:
192,192,88858,1,0,0:0:0:0:
320,192,88935,1,0,0:0:0:0:
64,192,89012,1,0,0:0:0:0:
192,192,89166,1,0,0:0:0:0:
320,192,89319,1,0,0:0:0:0:
192,192,89627,1,0,0:0:0:0:
64,192,89627,128,0,90704:0:0:0:0:
192,192,89781,1,0,0:0:0:0:
320,192,89935,1,0,0:0:0:0:
192,192,90089,1,0,0:0:0:0:
320,192,90166,1,0,0:0:0:0:
192,192,90243,1,0,0:0:0:0:
320,192,90396,1,0,0:0:0:0:
192,192,90550,1,0,0:0:0:0:
320,192,90550,1,0,0:0:0:0:
192,192,90704,128,0,91166:0:0:0:0:
320,192,90704,128,0,90858:0:0:0:0:
320,192,91012,1,0,0:0:0:0:
64,192,91166,1,0,0:0:0:0:
448,192,91166,1,0,0:0:0:0:
320,192,91781,1,0,0:0:0:0:
192,192,92396,1,0,0:0:0:0:
320,192,93012,1,0,0:0:0:0:
192,192,93627,1,0,0:0:0:0:
320,192,94243,1,0,0:0:0:0:
64,192,94396,1,0,0:0:0:0:
448,192,94396,1,0,0:0:0:0:
320,192,94704,1,0,0:0:0:0:
192,192,94858,1,0,0:0:0:0:
448,192,95012,1,0,0:0:0:0:
192,192,95319,1,0,0:0:0:0:
64,192,95473,1,0,0:0:0:0:
192,192,95627,1,0,0:0:0:0:
320,192,95704,1,0,0:0:0:0:
448,192,95781,1,0,0:0:0:0:
64,192,95781,1,0,0:0:0:0:
192,192,96089,1,0,0:0:0:0:
320,192,96089,1,0,0:0:0:0:
192,192,96704,1,0,0:0:0:0:
320,192,97319,1,0,0:0:0:0:
192,192,97935,1,0,0:0:0:0:
320,192,98550,1,0,0:0:0:0:
192,192,99166,1,0,0:0:0:0:
448,192,99473,1,0,0:0:0:0:
320,192,99550,1,0,0:0:0:0:
192,192,99627,1,0,0:0:0:0:
320,192,99704,1,0,0:0:0:0:
192,192,99781,1,0,0:0:0:0:
64,192,99858,1,0,0:0:0:0:
192,192,99935,1,0,0:0:0:0:
320,192,100012,1,0,0:0:0:0:
192,192,100089,1,0,0:0:0:0:
320,192,100166,1,0,0:0:0:0:
448,192,100243,128,0,100704:0:0:0:0:
192,192,100396,1,0,0:0:0:0:
64,192,100704,1,0,0:0:0:0:
320,192,100704,1,0,0:0:0:0:
64,192,101012,1,0,0:0:0:0:
448,192,101012,1,0,0:0:0:0:
448,192,101166,1,0,0:0:0:0:
64,192,101166,1,0,0:0:0:0:
64,192,101627,1,0,0:0:0:0:
448,192,101627,1,0,0:0:0:0:
448,192,102243,1,0,0:0:0:0:
64,192,102243,1,0,0:0:0:0:
64,192,102396,1,0,0:0:0:0:
448,192,102396,1,0,0:0:0:0:
64,192,102858,1,0,0:0:0:0:
448,192,102858,1,0,0:0:0:0:
192,192,103473,1,0,0:0:0:0:
448,192,103473,1,0,0:0:0:0:
192,192,103627,1,0,0:0:0:0:
448,192,103627,1,0,0:0:0:0:
192,192,104089,1,0,0:0:0:0:
448,192,104089,1,0,0:0:0:0:
448,192,104704,1,0,0:0:0:0:
192,192,104704,1,0,0:0:0:0:
192,192,104858,1,0,0:0:0:0:
448,192,104858,1,0,0:0:0:0:
192,192,105319,1,0,0:0:0:0:
448,192,105319,1,0,0:0:0:0:
320,192,105935,1,0,0:0:0:0:
64,192,105935,1,0,0:0:0:0:
320,192,106089,1,0,0:0:0:0:
64,192,106089,1,0,0:0:0:0:
64,192,106550,1,0,0:0:0:0:
320,192,106550,1,0,0:0:0:0:
320,192,107166,1,0,0:0:0:0:
64,192,107166,1,0,0:0:0:0:
64,192,107319,1,0,0:0:0:0:
320,192,107319,1,0,0:0:0:0:
64,192,107627,1,0,0:0:0:0:
448,192,107627,1,0,0:0:0:0:
320,192,107781,1,0,0:0:0:0:
192,192,107935,1,0,0:0:0:0:
64,192,108089,128,0,108473:0:0:0:0:
320,192,108089,128,0,108473:0:0:0:0:
192,192,108550,128,0,108935:0:0:0:0:
320,192,108550,128,0,108935:0:0:0:0:
192,192,109012,128,0,109396:0:0:0:0:
448,192,109012,128,0,109396:0:0:0:0:
320,192,109473,128,0,109704:0:0:0:0:
448,192,109473,128,0,109704:0:0:0:0:
192,192,109781,1,0,0:0:0:0:
64,192,109935,1,0,0:0:0:0:
448,192,110089,1,0,0:0:0:0:
320,192,110166,1,0,0:0:0:0:
192,192,110243,1,0,0:0:0:0:
64,192,110550,128,0,110704:0:0:0:0:
448,192,110550,1,0,0:0:0:0:
192,192,110704,128,0,110858:0:0:0:0:
448,192,110858,128,0,111012:0:0:0:0:
320,192,110858,1,0,0:0:0:0:
64,192,110858,1,0,0:0:0:0:
320,192,111012,128,0,111166:0:0:0:0:
192,192,111166,128,0,111319:0:0:0:0:
448,192,111166,1,0,0:0:0:0:
64,192,111319,128,0,111473:0:0:0:0:
320,192,111319,1,0,0:0:0:0:
448,192,111473,128,0,111627:0:0:0:0:
192,192,111473,1,0,0:0:0:0:
320,192,111627,128,0,111781:0:0:0:0:
64,192,111627,1,0,0:0:0:0:
448,192,111935,128,0,112089:0:0:0:0:
192,192,111935,1,0,0:0:0:0:
320,192,112089,128,0,112243:0:0:0:0:
64,192,112089,1,0,0:0:0:0:
448,192,112243,128,0,112396:0:0:0:0:
192,192,112396,128,0,112550:0:0:0:0:
320,192,112396,1,0,0:0:0:0:
64,192,112550,128,0,112704:0:0:0:0:
320,192,112550,1,0,0:0:0:0:
192,192,112704,128,0,112858:0:0:0:0:
448,192,112704,1,0,0:0:0:0:
320,192,112858,128,0,113012:0:0:0:0:
448,192,112858,1,0,0:0:0:0:
192,192,113012,1,0,0:0:0:0:
448,192,113166,128,0,113319:0:0:0:0:
320,192,113319,128,0,113473:0:0:0:0:
192,192,113319,1,0,0:0:0:0:
64,192,113319,1,0,0:0:0:0:
448,192,113473,128,0,113627:0:0:0:0:
192,192,113627,128,0,113781:0:0:0:0:
64,192,113627,1,0,0:0:0:0:
320,192,113781,128,0,113935:0:0:0:0:
448,192,113781,1,0,0:0:0:0:
64,192,113935,128,0,114089:0:0:0:0:
192,192,113935,1,0,0:0:0:0:
448,192,114089,128,0,114243:0:0:0:0:
320,192,114089,1,0,0:0:0:0:
192,192,114396,128,0,114550:0:0:0:0:
448,192,114396,1,0,0:0:0:0:
64,192,114550,128,0,114704:0:0:0:0:
320,192,114550,1,0,0:0:0:0:
448,192,114704,128,0,114858:0:0:0:0:
320,192,114858,128,0,115012:0:0:0:0:
192,192,114858,1,0,0:0:0:0:
192,192,115012,128,0,115166:0:0:0:0:
448,192,115012,1,0,0:0:0:0:
64,192,115166,128,0,115319:0:0:0:0:
320,192,115166,1,0,0:0:0:0:
192,192,115319,128,0,115473:0:0:0:0:
448,192,115319,1,0,0:0:0:0:
320,192,115473,1,0,0:0:0:0:
320,192,115627,128,0,115781:0:0:0:0:
448,192,115781,128,0,115935:0:0:0:0:
192,192,115781,1,0,0:0:0:0:
64,192,115781,1,0,0:0:0:0:
64,192,115935,128,0,116089:0:0:0:0:
192,192,116089,128,0,116243:0:0:0:0:
320,192,116089,1,0,0:0:0:0:
320,192,116243,128,0,116396:0:0:0:0:
64,192,116243,1,0,0:0:0:0:
448,192,116396,128,0,116550:0:0:0:0:
192,192,116396,1,0,0:0:0:0:
64,192,116550,128,0,116704:0:0:0:0:
320,192,116550,1,0,0:0:0:0:
448,192,116858,128,0,117012:0:0:0:0:
64,192,116858,1,0,0:0:0:0:
192,192,117012,128,0,117166:0:0:0:0:
320,192,117012,1,0,0:0:0:0:
64,192,117166,128,0,117319:0:0:0:0:
448,192,117166,1,0,0:0:0:0:
320,192,117319,128,0,117473:0:0:0:0:
192,192,117319,1,0,0:0:0:0:
192,192,117473,128,0,117627:0:0:0:0:
448,192,117473,1,0,0:0:0:0:
64,192,117627,128,0,117781:0:0:0:0:
320,192,117627,1,0,0:0:0:0:
192,192,117781,1,0,0:0:0:0:
448,192,117781,1,0,0:0:0:0:
64,192,118089,128,0,118243:0:0:0:0:
192,192,118089,1,0,0:0:0:0:
192,192,118243,128,0,118396:0:0:0:0:
320,192,118243,1,0,0:0:0:0:
320,192,118396,128,0,118550:0:0:0:0:
448,192,118396,1,0,0:0:0:0:
448,192,118550,128,0,118704:0:0:0:0:
64,192,118550,1,0,0:0:0:0:
320,192,118704,128,0,118858:0:0:0:0:
192,192,118704,1,0,0:0:0:0:
192,192,118858,128,0,119012:0:0:0:0:
64,192,118858,1,0,0:0:0:0:
320,192,119012,1,0,0:0:0:0:
64,192,119012,128,0,119319:0:0:0:0:
320,192,119319,1,0,0:0:0:0:
192,192,119319,1,0,0:0:0:0:
448,192,119627,128,0,119935:0:0:0:0:
64,192,119627,128,0,119935:0:0:0:0:
192,192,119935,1,0,0:0:0:0:
320,192,120089,1,0,0:0:0:0:
192,192,120243,1,0,0:0:0:0:
64,192,120396,1,0,0:0:0:0:
448,192,120396,1,0,0:0:0:0:
192,192,120704,1,0,0:0:0:0:
320,192,120858,1,0,0:0:0:0:
64,192,120858,1,0,0:0:0:0:
320,192,121012,128,0,121319:0:0:0:0:
64,192,121166,1,0,0:0:0:0:
192,192,121319,1,0,0:0:0:0:
448,192,121319,1,0,0:0:0:0:
320,192,121473,1,0,0:0:0:0:
448,192,121627,128,0,121781:0:0:0:0:
64,192,121627,1,0,0:0:0:0:
64,192,121781,1,0,0:0:0:0:
320,192,121935,1,0,0:0:0:0:
448,192,122089,128,0,122550:0:0:0:0:
192,192,122089,1,0,0:0:0:0:
192,192,122396,1,0,0:0:0:0:
64,192,122550,1,0,0:0:0:0:
320,192,122550,1,0,0:0:0:0:
192,192,122704,1,0,0:0:0:0:
320,192,122858,128,0,123012:0:0:0:0:
64,192,122858,1,0,0:0:0:0:
64,192,123012,1,0,0:0:0:0:
320,192,123166,1,0,0:0:0:0:
192,192,123166,1,0,0:0:0:0:
320,192,123319,128,0,123627:0:0:0:0:
64,192,123319,1,0,0:0:0:0:
192,192,123627,1,0,0:0:0:0:
448,192,123627,1,0,0:0:0:0:
320,192,123781,1,0,0:0:0:0:
64,192,123781,1,0,0:0:0:0:
192,192,123935,1,0,0:0:0:0:
448,192,123935,128,0,124166:0:0:0:0:
320,192,124243,128,0,124473:0:0:0:0:
64,192,124243,1,0,0:0:0:0:
448,192,124396,1,0,0:0:0:0:
192,192,124550,128,0,124781:0:0:0:0:
64,192,124550,1,0,0:0:0:0:
64,192,124858,128,0,125012:0:0:0:0:
320,192,125012,128,0,125166:0:0:0:0:
448,192,125012,1,0,0:0:0:0:
192,192,125166,128,0,125319:0:0:0:0:
64,192,125166,1,0,0:0:0:0:
448,192,125319,128,0,125627:0:0:0:0:
320,192,125319,1,0,0:0:0:0:
64,192,125627,1,0,0:0:0:0:
320,192,125627,1,0,0:0:0:0:
64,192,125781,128,0,126243:0:0:0:0:
320,192,125781,1,0,0:0:0:0:
320,192,126089,1,0,0:0:0:0:
192,192,126243,1,0,0:0:0:0:
448,192,126243,1,0,0:0:0:0:
320,192,126396,1,0,0:0:0:0:
448,192,126550,128,0,126704:0:0:0:0:
192,192,126550,1,0,0:0:0:0:
320,192,126704,1,0,0:0:0:0:
64,192,126858,1,0,0:0:0:0:
448,192,127012,128,0,127473:0:0:0:0:
64,192,127012,1,0,0:0:0:0:
320,192,127319,1,0,0:0:0:0:
64,192,127473,1,0,0:0:0:0:
64,192,127627,1,0,0:0:0:0:
448,192,127627,1,0,0:0:0:0:
192,192,127704,1,0,0:0:0:0:
320,192,127704,1,0,0:0:0:0:
64,192,127781,1,0,0:0:0:0:
448,192,127781,1,0,0:0:0:0:
192,192,128089,1,0,0:0:0:0:
448,192,128089,1,0,0:0:0:0:
320,192,128396,1,0,0:0:0:0:
320,192,128550,1,0,0:0:0:0:
64,192,128704,1,0,0:0:0:0:
192,192,128858,1,0,0:0:0:0:
192,192,129166,1,0,0:0:0:0:
448,192,129319,1,0,0:0:0:0:
64,192,129319,1,0,0:0:0:0:
320,192,129627,1,0,0:0:0:0:
320,192,129781,1,0,0:0:0:0:
448,192,129935,1,0,0:0:0:0:
320,192,130089,1,0,0:0:0:0:
192,192,130166,1,0,0:0:0:0:
64,192,130243,1,0,0:0:0:0:
448,192,130243,1,0,0:0:0:0:
192,192,130550,1,0,0:0:0:0:
320,192,130550,1,0,0:0:0:0:
448,192,130858,1,0,0:0:0:0:
448,192,131012,1,0,0:0:0:0:
192,192,131166,1,0,0:0:0:0:
64,192,131319,1,0,0:0:0:0:
448,192,131319,1,0,0:0:0:0:
64,192,131627,1,0,0:0:0:0:
192,192,131627,1,0,0:0:0:0:
320,192,131781,1,0,0:0:0:0:
192,192,131781,1,0,0:0:0:0:
320,192,131935,1,0,0:0:0:0:
448,192,131935,1,0,0:0:0:0:
320,192,132089,1,0,0:0:0:0:
192,192,132089,1,0,0:0:0:0:
64,192,132166,1,0,0:0:0:0:
192,192,132243,1,0,0:0:0:0:
320,192,132319,1,0,0:0:0:0:
448,192,132396,1,0,0:0:0:0:
320,192,132473,1,0,0:0:0:0:
192,192,132550,1,0,0:0:0:0:
64,192,132627,1,0,0:0:0:0:
192,192,132704,128,0,135166:0:0:0:0:
448,192,132704,1,0,0:0:0:0:
64,192,133012,128,0,133319:0:0:0:0:
320,192,133012,1,0,0:0:0:0:
448,192,133012,1,0,0:0:0:0:
320,192,133319,1,0,0:0:0:0:
320,192,133473,1,0,0:0:0:0:
448,192,133627,1,0,0:0:0:0:
64,192,133781,1,0,0:0:0:0:
320,192,134089,1,0,0:0:0:0:
448,192,134243,1,0,0:0:0:0:
64,192,134243,1,0,0:0:0:0:
320,192,134550,1,0,0:0:0:0:
320,192,134704,1,0,0:0:0:0:
64,192,134858,1,0,0:0:0:0:
448,192,135012,1,0,0:0:0:0:
320,192,135166,128,0,137627:0:0:0:0:
64,192,135166,1,0,0:0:0:0:
448,192,135319,1,0,0:0:0:0:
192,192,135473,1,0,0:0:0:0:
64,192,135473,1,0,0:0:0:0:
64,192,135627,128,0,135935:0:0:0:0:
448,192,135935,1,0,0:0:0:0:
192,192,136089,1,0,0:0:0:0:
64,192,136089,1,0,0:0:0:0:
64,192,136243,128,0,136550:0:0:0:0:
448,192,136550,1,0,0:0:0:0:
64,192,136704,1,0,0:0:0:0:
192,192,136704,1,0,0:0:0:0:
192,192,136858,128,0,137166:0:0:0:0:
64,192,137166,1,0,0:0:0:0:
192,192,137319,1,0,0:0:0:0:
448,192,137473,1,0,0:0:0:0:
64,192,137473,1,0,0:0:0:0:
192,192,137550,1,0,0:0:0:0:
64,192,137627,128,0,138704:0:0:0:0:
448,192,137627,1,0,0:0:0:0:
448,192,137935,128,0,138243:0:0:0:0:
320,192,137935,1,0,0:0:0:0:
192,192,137935,1,0,0:0:0:0:
192,192,138243,1,0,0:0:0:0:
192,192,138396,1,0,0:0:0:0:
320,192,138550,1,0,0:0:0:0:
192,192,138704,128,0,139319:0:0:0:0:
320,192,138704,128,0,139012:0:0:0:0:
448,192,138704,1,0,0:0:0:0:
448,192,139012,1,0,0:0:0:0:
64,192,139166,1,0,0:0:0:0:
448,192,139319,128,0,139935:0:0:0:0:
64,192,139319,128,0,139627:0:0:0:0:
320,192,139319,1,0,0:0:0:0:
320,192,139627,1,0,0:0:0:0:
64,192,139781,1,0,0:0:0:0:
320,192,139935,1,0,0:0:0:0:
192,192,139935,128,0,141166:0:0:0:0:
448,192,140243,1,0,0:0:0:0:
320,192,140396,1,0,0:0:0:0:
64,192,140396,1,0,0:0:0:0:
448,192,140704,1,0,0:0:0:0:
320,192,140858,1,0,0:0:0:0:
64,192,140858,1,0,0:0:0:0:
64,192,141012,1,0,0:0:0:0:
320,192,141012,1,0,0:0:0:0:
448,192,141166,128,0,142089:0:0:0:0:
320,192,141166,1,0,0:0:0:0:
320,192,141473,1,0,0:0:0:0:
192,192,141473,1,0,0:0:0:0:
320,192,141627,1,0,0:0:0:0:
64,192,141627,1,0,0:0:0:0:
64,192,141781,1,0,0:0:0:0:
192,192,141781,1,0,0:0:0:0:
64,192,141935,1,0,0:0:0:0:
320,192,141935,1,0,0:0:0:0:
64,192,142089,1,0,0:0:0:0:
192,192,142166,1,0,0:0:0:0:
320,192,142243,1,0,0:0:0:0:
448,192,142319,1,0,0:0:0:0:
320,192,142396,1,0,0:0:0:0:
192,192,142473,1,0,0:0:0:0:
320,192,142550,128,0,143781:0:0:0:0:
64,192,142550,1,0,0:0:0:0:
64,192,142858,128,0,143166:0:0:0:0:
192,192,142858,1,0,0:0:0:0:
448,192,142858,1,0,0:0:0:0:
448,192,143166,1,0,0:0:0:0:
448,192,143319,1,0,0:0:0:0:
64,192,143473,1,0,0:0:0:0:
192,192,143627,1,0,0:0:0:0:
448,192,143627,1,0,0:0:0:0:
64,192,143781,128,0,145012:0:0:0:0:
192,192,144089,1,0,0:0:0:0:
320,192,144089,1,0,0:0:0:0:
320,192,144243,1,0,0:0:0:0:
320,192,144396,1,0,0:0:0:0:
448,192,144396,1,0,0:0:0:0:
448,192,144550,1,0,0:0:0:0:
448,192,144704,1,0,0:0:0:0:
192,192,144704,1,0,0:0:0:0:
192,192,144858,1,0,0:0:0:0:
448,192,145012,128,0,147473:0:0:0:0:
192,192,145012,1,0,0:0:0:0:
320,192,145012,1,0,0:0:0:0:
64,192,145166,1,0,0:0:0:0:
192,192,145319,1,0,0:0:0:0:
320,192,145319,1,0,0:0:0:0:
320,192,145473,128,0,145781:0:0:0:0:
192,192,145627,1,0,0:0:0:0:
64,192,145781,1,0,0:0:0:0:
192,192,145935,1,0,0:0:0:0:
320,192,145935,1,0,0:0:0:0:
320,192,146089,128,0,146396:0:0:0:0:
192,192,146396,1,0,0:0:0:0:
320,192,146550,1,0,0:0:0:0:
64,192,146704,128,0,147012:0:0:0:0:
192,192,146704,1,0,0:0:0:0:
320,192,146781,1,0,0:0:0:0:
192,192,146858,1,0,0:0:0:0:
320,192,147012,1,0,0:0:0:0:
192,192,147166,1,0,0:0:0:0:
64,192,147319,128,0,147473:0:0:0:0:
320,192,147473,128,0,148550:0:0:0:0:
192,192,147473,1,0,0:0:0:0:
192,192,147781,128,0,148089:0:0:0:0:
64,192,147781,1,0,0:0:0:0:
448,192,147781,1,0,0:0:0:0:
64,192,148089,1,0,0:0:0:0:
64,192,148243,1,0,0:0:0:0:
448,192,148396,1,0,0:0:0:0:
64,192,148550,128,0,149166:0:0:0:0:
192,192,148550,1,0,0:0:0:0:
448,192,148858,128,0,149166:0:0:0:0:
320,192,148858,1,0,0:0:0:0:
192,192,149012,1,0,0:0:0:0:
192,192,149166,128,0,149935:0:0:0:0:
320,192,149166,1,0,0:0:0:0:
320,192,149473,128,0,149935:0:0:0:0:
64,192,149473,1,0,0:0:0:0:
448,192,149627,1,0,0:0:0:0:
64,192,149781,1,0,0:0:0:0:
448,192,149935,1,0,0:0:0:0:
64,192,150243,1,0,0:0:0:0:
320,192,150319,1,0,0:0:0:0:
192,192,150396,1,0,0:0:0:0:
448,192,150550,1,0,0:0:0:0:
448,192,150704,1,0,0:0:0:0:
192,192,150858,1,0,0:0:0:0:
320,192,151012,1,0,0:0:0:0:
64,192,151166,1,0,0:0:0:0:
448,192,151319,1,0,0:0:0:0:
192,192,151473,1,0,0:0:0:0:
320,192,151627,1,0,0:0:0:0:
192,192,151704,1,0,0:0:0:0:
64,192,151781,1,0,0:0:0:0:
448,192,151781,1,0,0:0:0:0:
320,192,151935,1,0,0:0:0:0:
448,192,152089,1,0,0:0:0:0:
192,192,152089,1,0,0:0:0:0:
320,192,152243,1,0,0:0:0:0:
64,192,152243,1,0,0:0:0:0:
320,192,152704,1,0,0:0:0:0:
192,192,152704,1,0,0:0:0:0:
192,192,152858,1,0,0:0:0:0:
320,192,152858,1,0,0:0:0:0:
320,192,153319,1,0,0:0:0:0:
192,192,153319,1,0,0:0:0:0:
192,192,153473,1,0,0:0:0:0:
320,192,153473,1,0,0:0:0:0:
320,192,153935,1,0,0:0:0:0:
192,192,153935,1,0,0:0:0:0:
192,192,154089,1,0,0:0:0:0:
320,192,154089,1,0,0:0:0:0:
320,192,154550,1,0,0:0:0:0:
192,192,154550,1,0,0:0:0:0:
192,192,154704,1,0,0:0:0:0:
320,192,154704,1,0,0:0:0:0:
320,192,155166,1,0,0:0:0:0:
192,192,155166,1,0,0:0:0:0:
192,192,155319,1,0,0:0:0:0:
320,192,155319,1,0,0:0:0:0:
320,192,155781,1,0,0:0:0:0:
192,192,155781,1,0,0:0:0:0:
192,192,155935,1,0,0:0:0:0:
320,192,155935,1,0,0:0:0:0:
320,192,156396,1,0,0:0:0:0:
192,192,156396,1,0,0:0:0:0:
192,192,156550,1,0,0:0:0:0:
320,192,156550,1,0,0:0:0:0:
448,192,156550,1,0,0:0:0:0:
64,192,156858,1,0,0:0:0:0:
320,192,157012,1,0,0:0:0:0:
192,192,157166,1,0,0:0:0:0:
320,192,157243,1,0,0:0:0:0:
448,192,157319,1,0,0:0:0:0:
64,192,157319,1,0,0:0:0:0:
64,192,157627,1,0,0:0:0:0:
448,192,157627,1,0,0:0:0:0:
64,192,157781,1,0,0:0:0:0:
448,192,157781,1,0,0:0:0:0:
448,192,158243,1,0,0:0:0:0:
64,192,158243,1,0,0:0:0:0:
448,192,158858,1,0,0:0:0:0:
64,192,158858,1,0,0:0:0:0:
64,192,159012,1,0,0:0:0:0:
448,192,159012,1,0,0:0:0:0:
448,192,159473,1,0,0:0:0:0:
64,192,159473,1,0,0:0:0:0:
448,192,160089,1,0,0:0:0:0:
64,192,160089,1,0,0:0:0:0:
64,192,160243,1,0,0:0:0:0:
448,192,160243,1,0,0:0:0:0:
448,192,160704,1,0,0:0:0:0:
64,192,160704,1,0,0:0:0:0:
64,192,161012,1,0,0:0:0:0:
320,192,161089,1,0,0:0:0:0:
192,192,161166,1,0,0:0:0:0:
448,192,161243,1,0,0:0:0:0:
192,192,161319,1,0,0:0:0:0:
320,192,161396,1,0,0:0:0:0:
64,192,161473,1,0,0:0:0:0:
320,192,161550,1,0,0:0:0:0:
192,192,161627,1,0,0:0:0:0:
448,192,161627,1,0,0:0:0:0:
320,192,161781,1,0,0:0:0:0:
64,192,161781,1,0,0:0:0:0:
64,192,162243,1,0,0:0:0:0:
448,192,162243,1,0,0:0:0:0:
64,192,162396,128,0,162550:0:0:0:0:
192,192,162550,128,0,162704:0:0:0:0:
320,192,162550,1,0,0:0:0:0:
448,192,162550,1,0,0:0:0:0:
320,192,162704,128,0,162858:0:0:0:0:
64,192,162704,1,0,0:0:0:0:
192,192,162858,128,0,163166:0:0:0:0:
448,192,162858,1,0,0:0:0:0:
64,192,163012,1,0,0:0:0:0:
448,192,163166,128,0,163319:0:0:0:0:
320,192,163166,1,0,0:0:0:0:
320,192,163319,128,0,163473:0:0:0:0:
64,192,163319,1,0,0:0:0:0:
192,192,163473,128,0,163627:0:0:0:0:
320,192,163627,128,0,163781:0:0:0:0:
64,192,163627,1,0,0:0:0:0:
192,192,163781,128,0,163935:0:0:0:0:
448,192,163781,1,0,0:0:0:0:
64,192,163935,128,0,164243:0:0:0:0:
320,192,164089,1,0,0:0:0:0:
192,192,164243,128,0,164396:0:0:0:0:
448,192,164243,1,0,0:0:0:0:
320,192,164396,128,0,164550:0:0:0:0:
64,192,164396,1,0,0:0:0:0:
448,192,164550,128,0,164858:0:0:0:0:
192,192,164858,128,0,165012:0:0:0:0:
320,192,164858,1,0,0:0:0:0:
320,192,165012,128,0,165166:0:0:0:0:
64,192,165012,1,0,0:0:0:0:
448,192,165166,128,0,165473:0:0:0:0:
192,192,165166,1,0,0:0:0:0:
64,192,165243,1,0,0:0:0:0:
320,192,165319,1,0,0:0:0:0:
192,192,165473,128,0,165627:0:0:0:0:
320,192,165627,128,0,165781:0:0:0:0:
64,192,165627,1,0,0:0:0:0:
448,192,165781,128,0,165935:0:0:0:0:
192,192,165781,1,0,0:0:0:0:
320,192,165935,1,0,0:0:0:0:
192,192,166012,1,0,0:0:0:0:
64,192,166089,128,0,166243:0:0:0:0:
320,192,166089,1,0,0:0:0:0:
192,192,166243,1,0,0:0:0:0:
448,192,166243,1,0,0:0:0:0:
320,192,166319,1,0,0:0:0:0:
448,192,166396,128,0,166550:0:0:0:0:
64,192,166396,1,0,0:0:0:0:
320,192,166550,128,0,166704:0:0:0:0:
192,192,166550,1,0,0:0:0:0:
448,192,166704,1,0,0:0:0:0:
192,192,166781,1,0,0:0:0:0:
64,192,166858,128,0,167012:0:0:0:0:
320,192,166858,1,0,0:0:0:0:
320,192,167012,128,0,167166:0:0:0:0:
192,192,167012,1,0,0:0:0:0:
448,192,167166,1,0,0:0:0:0:
320,192,167243,1,0,0:0:0:0:
192,192,167319,128,0,167473:0:0:0:0:
64,192,167319,1,0,0:0:0:0:
64,192,167473,128,0,167627:0:0:0:0:
448,192,167473,1,0,0:0:0:0:
192,192,167627,1,0,0:0:0:0:
320,192,167704,1,0,0:0:0:0:
448,192,167781,128,0,167935:0:0:0:0:
192,192,167781,1,0,0:0:0:0:
320,192,167935,1,0,0:0:0:0:
192,192,168012,1,0,0:0:0:0:
64,192,168089,1,0,0:0:0:0:
448,192,168089,1,0,0:0:0:0:
192,192,168166,1,0,0:0:0:0:
320,192,168243,128,0,168704:0:0:0:0:
448,192,168243,1,0,0:0:0:0:
192,192,168550,1,0,0:0:0:0:
448,192,168704,128,0,168858:0:0:0:0:
64,192,168704,1,0,0:0:0:0:
320,192,168858,128,0,169012:0:0:0:0:
192,192,169012,128,0,169166:0:0:0:0:
448,192,169012,1,0,0:0:0:0:
64,192,169166,1,0,0:0:0:0:
320,192,169166,1,0,0:0:0:0:
192,192,169243,1,0,0:0:0:0:
320,192,169319,128,0,169473:0:0:0:0:
448,192,169319,1,0,0:0:0:0:
64,192,169473,128,0,169781:0:0:0:0:
192,192,169473,1,0,0:0:0:0:
320,192,169781,1,0,0:0:0:0:
448,192,169781,1,0,0:0:0:0:
192,192,169858,1,0,0:0:0:0:
64,192,169935,128,0,170089:0:0:0:0:
320,192,169935,1,0,0:0:0:0:
448,192,170089,1,0,0:0:0:0:
320,192,170166,1,0,0:0:0:0:
192,192,170243,128,0,170396:0:0:0:0:
448,192,170243,1,0,0:0:0:0:
64,192,170396,1,0,0:0:0:0:
320,192,170396,1,0,0:0:0:0:
192,192,170473,1,0,0:0:0:0:
448,192,170473,1,0,0:0:0:0:
320,192,170550,128,0,170704:0:0:0:0:
64,192,170550,1,0,0:0:0:0:
448,192,170704,128,0,171012:0:0:0:0:
192,192,170704,1,0,0:0:0:0:
64,192,170704,1,0,0:0:0:0:
320,192,171012,128,0,171166:0:0:0:0:
64,192,171012,1,0,0:0:0:0:
192,192,171166,128,0,171319:0:0:0:0:
448,192,171166,1,0,0:0:0:0:
64,192,171319,128,0,172089:0:0:0:0:
448,192,171319,128,0,172089:0:0:0:0:
320,192,171319,1,0,0:0:0:0:
192,192,171473,1,0,0:0:0:0:
320,192,171550,1,0,0:0:0:0:
192,192,171627,1,0,0:0:0:0:
320,192,171704,1,0,0:0:0:0:
192,192,171781,1,0,0:0:0:0:
320,192,171858,1,0,0:0:0:0:
192,192,171935,1,0,0:0:0:0:
320,192,172012,1,0,0:0:0:0:
192,192,172089,1,0,0:0:0:0:
64,192,172550,128,0,172627:0:0:0:0:
192,192,172627,128,0,172704:0:0:0:0:
320,192,172704,128,0,172781:0:0:0:0:
192,192,172781,128,0,172858:0:0:0:0:
320,192,172858,128,0,172935:0:0:0:0:
448,192,172935,128,0,173012:0:0:0:0:
320,192,173012,128,0,173089:0:0:0:0:
192,192,173089,128,0,173166:0:0:0:0:
64,192,173166,128,0,174550:0:0:0:0:
320,192,173166,1,0,0:0:0:0:
448,192,173166,1,0,0:0:0:0:
320,192,173627,1,0,0:0:0:0:
192,192,173627,1,0,0:0:0:0:
320,192,173935,1,0,0:0:0:0:
448,192,173935,1,0,0:0:0:0:
320,192,174243,1,0,0:0:0:0:
192,192,174243,1,0,0:0:0:0:
192,192,174550,128,0,177012:0:0:0:0:
320,192,174550,1,0,0:0:0:0:
448,192,174704,1,0,0:0:0:0:
64,192,174704,1,0,0:0:0:0:
320,192,174858,1,0,0:0:0:0:
64,192,174858,1,0,0:0:0:0:
64,192,175012,128,0,175319:0:0:0:0:
448,192,175319,1,0,0:0:0:0:
320,192,175473,1,0,0:0:0:0:
64,192,175473,1,0,0:0:0:0:
64,192,175627,128,0,175935:0:0:0:0:
448,192,175627,1,0,0:0:0:0:
320,192,175935,1,0,0:0:0:0:
448,192,176089,1,0,0:0:0:0:
64,192,176089,1,0,0:0:0:0:
64,192,176243,128,0,176396:0:0:0:0:
320,192,176396,1,0,0:0:0:0:
448,192,176473,1,0,0:0:0:0:
320,192,176550,1,0,0:0:0:0:
64,192,176627,1,0,0:0:0:0:
320,192,176704,1,0,0:0:0:0:
448,192,176781,1,0,0:0:0:0:
320,192,176858,1,0,0:0:0:0:
64,192,176935,1,0,0:0:0:0:
320,192,177012,1,0,0:0:0:0:
448,192,177012,128,0,178089:0:0:0:0:
64,192,177319,128,0,177627:0:0:0:0:
192,192,177319,1,0,0:0:0:0:
320,192,177319,1,0,0:0:0:0:
320,192,177627,1,0,0:0:0:0:
320,192,177781,1,0,0:0:0:0:
192,192,177935,1,0,0:0:0:0:
320,192,178089,128,0,178704:0:0:0:0:
192,192,178089,128,0,178396:0:0:0:0:
64,192,178089,1,0,0:0:0:0:
448,192,178396,1,0,0:0:0:0:
192,192,178550,1,0,0:0:0:0:
64,192,178704,128,0,181935:0:0:0:0:
192,192,178704,128,0,179012:0:0:0:0:
448,192,178704,1,0,0:0:0:0:
320,192,179012,1,0,0:0:0:0:
192,192,179166,1,0,0:0:0:0:
448,192,179319,1,0,0:0:0:0:
320,192,179319,128,0,179627:0:0:0:0:
192,192,179627,1,0,0:0:0:0:
192,192,179781,1,0,0:0:0:0:
320,192,179935,1,0,0:0:0:0:
448,192,180012,1,0,0:0:0:0:
192,192,180089,1,0,0:0:0:0:
320,192,180243,1,0,0:0:0:0:
448,192,180243,1,0,0:0:0:0:
448,192,180396,1,0,0:0:0:0:
320,192,180396,1,0,0:0:0:0:
448,192,180550,128,0,180858:0:0:0:0:
192,192,180550,1,0,0:0:0:0:
192,192,180858,128,0,181012:0:0:0:0:
320,192,180858,1,0,0:0:0:0:
320,192,181012,128,0,181166:0:0:0:0:
448,192,181012,1,0,0:0:0:0:
448,192,181166,128,0,181319:0:0:0:0:
192,192,181166,1,0,0:0:0:0:
320,192,181319,128,0,181473:0:0:0:0:
192,192,181319,1,0,0:0:0:0:
448,192,181473,1,0,0:0:0:0:
320,192,181550,1,0,0:0:0:0:
192,192,181627,1,0,0:0:0:0:
320,192,181704,1,0,0:0:0:0:
448,192,181781,1,0,0:0:0:0:
320,192,181858,1,0,0:0:0:0:
448,192,181935,128,0,183012:0:0:0:0:
192,192,181935,128,0,182243:0:0:0:0:
320,192,182243,128,0,182550:0:0:0:0:
64,192,182243,1,0,0:0:0:0:
192,192,182396,1,0,0:0:0:0:
64,192,182473,1,0,0:0:0:0:
192,192,182550,1,0,0:0:0:0:
320,192,182704,1,0,0:0:0:0:
64,192,182858,1,0,0:0:0:0:
320,192,183012,128,0,184396:0:0:0:0:
64,192,183012,1,0,0:0:0:0:
192,192,183012,1,0,0:0:0:0:
64,192,183319,1,0,0:0:0:0:
448,192,183319,1,0,0:0:0:0:
64,192,183473,128,0,183704:0:0:0:0:
192,192,183473,1,0,0:0:0:0:
192,192,183627,1,0,0:0:0:0:
192,192,183781,128,0,184012:0:0:0:0:
448,192,183781,1,0,0:0:0:0:
64,192,183781,1,0,0:0:0:0:
448,192,183935,1,0,0:0:0:0:
448,192,184089,128,0,184319:0:0:0:0:
192,192,184089,1,0,0:0:0:0:
448,192,184396,128,0,185473:0:0:0:0:
64,192,184396,1,0,0:0:0:0:
192,192,184396,1,0,0:0:0:0:
320,192,184550,1,0,0:0:0:0:
192,192,184704,1,0,0:0:0:0:
64,192,184704,1,0,0:0:0:0:
64,192,184858,128,0,185166:0:0:0:0:
320,192,184858,1,0,0:0:0:0:
320,192,185166,1,0,0:0:0:0:
192,192,185319,1,0,0:0:0:0:
64,192,185319,1,0,0:0:0:0:
320,192,185473,128,0,186858:0:0:0:0:
64,192,185473,128,0,185781:0:0:0:0:
192,192,185473,1,0,0:0:0:0:
192,192,185781,1,0,0:0:0:0:
448,192,185935,1,0,0:0:0:0:
64,192,185935,1,0,0:0:0:0:
64,192,186089,128,0,186396:0:0:0:0:
448,192,186089,1,0,0:0:0:0:
192,192,186166,1,0,0:0:0:0:
448,192,186243,1,0,0:0:0:0:
192,192,186396,1,0,0:0:0:0:
64,192,186550,1,0,0:0:0:0:
448,192,186704,128,0,186858:0:0:0:0:
64,192,186858,128,0,187935:0:0:0:0:
192,192,186858,1,0,0:0:0:0:
320,192,187166,128,0,187473:0:0:0:0:
448,192,187166,1,0,0:0:0:0:
192,192,187473,1,0,0:0:0:0:
320,192,187627,1,0,0:0:0:0:
448,192,187781,1,0,0:0:0:0:
192,192,187935,128,0,188243:0:0:0:0:
320,192,187935,1,0,0:0:0:0:
448,192,188243,128,0,188396:0:0:0:0:
320,192,188243,1,0,0:0:0:0:
320,192,188396,128,0,188550:0:0:0:0:
192,192,188396,1,0,0:0:0:0:
192,192,188550,128,0,189319:0:0:0:0:
64,192,188550,1,0,0:0:0:0:
448,192,188858,1,0,0:0:0:0:
320,192,189012,1,0,0:0:0:0:
448,192,189166,1,0,0:0:0:0:
64,192,189166,1,0,0:0:0:0:
320,192,189243,1,0,0:0:0:0:
64,192,189319,1,0,0:0:0:0:
448,192,189319,128,0,193012:0:0:0:0:
192,192,189627,1,0,0:0:0:0:
320,192,189627,1,0,0:0:0:0:
64,192,189781,1,0,0:0:0:0:
192,192,189858,1,0,0:0:0:0:
320,192,189935,1,0,0:0:0:0:
320,192,190089,1,0,0:0:0:0:
64,192,190243,1,0,0:0:0:0:
192,192,190396,1,0,0:0:0:0:
320,192,190550,128,0,193012:0:0:0:0:
64,192,190550,1,0,0:0:0:0:
192,192,190550,1,0,0:0:0:0:
192,192,190858,1,0,0:0:0:0:
64,192,191012,1,0,0:0:0:0:
192,192,191089,1,0,0:0:0:0:
64,192,191166,1,0,0:0:0:0:
64,192,191319,1,0,0:0:0:0:
192,192,191473,1,0,0:0:0:0:
64,192,191627,1,0,0:0:0:0:
192,192,191781,128,0,193012:0:0:0:0:
64,192,191935,1,0,0:0:0:0:
64,192,192089,1,0,0:0:0:0:
64,192,192243,128,0,192396:0:0:0:0:
64,192,192550,1,0,0:0:0:0:
64,192,192704,1,0,0:0:0:0:
64,192,192858,1,0,0:0:0:0:
64,192,193012,128,0,193166:0:0:0:0:
192,192,193166,128,0,193473:0:0:0:0:
320,192,193166,1,0,0:0:0:0:
448,192,193319,1,0,0:0:0:0:
320,192,193473,128,0,193627:0:0:0:0:
64,192,193473,1,0,0:0:0:0:
192,192,193550,1,0,0:0:0:0:
448,192,193627,128,0,193935:0:0:0:0:
64,192,193627,1,0,0:0:0:0:
192,192,193781,1,0,0:0:0:0:
192,192,193935,128,0,194089:0:0:0:0:
320,192,193935,1,0,0:0:0:0:
64,192,194089,128,0,194396:0:0:0:0:
320,192,194089,1,0,0:0:0:0:
448,192,194089,1,0,0:0:0:0:
192,192,194396,1,0,0:0:0:0:
320,192,194396,1,0,0:0:0:0:
64,192,194550,1,0,0:0:0:0:
320,192,194550,1,0,0:0:0:0:
448,192,194550,128,0,194858:0:0:0:0:
192,192,194858,1,0,0:0:0:0:
64,192,194858,1,0,0:0:0:0:
192,192,195166,1,0,0:0:0:0:
64,192,195319,1,0,0:0:0:0:
320,192,195319,1,0,0:0:0:0:
320,192,195627,128,0,195781:0:0:0:0:
192,192,195627,1,0,0:0:0:0:
64,192,195781,128,0,195935:0:0:0:0:
448,192,195781,1,0,0:0:0:0:
448,192,195935,128,0,196089:0:0:0:0:
192,192,195935,1,0,0:0:0:0:
192,192,196089,128,0,196243:0:0:0:0:
320,192,196089,1,0,0:0:0:0:
320,192,196243,128,0,196396:0:0:0:0:
64,192,196243,1,0,0:0:0:0:
192,192,196396,128,0,196550:0:0:0:0:
64,192,196396,1,0,0:0:0:0:
64,192,196550,128,0,197012:0:0:0:0:
320,192,196550,1,0,0:0:0:0:
448,192,196704,128,0,196858:0:0:0:0:
192,192,196704,1,0,0:0:0:0:
320,192,196858,128,0,197012:0:0:0:0:
192,192,196858,1,0,0:0:0:0:
192,192,197012,128,0,197781:0:0:0:0:
448,192,197012,1,0,0:0:0:0:
64,192,197166,1,0,0:0:0:0:
448,192,197319,1,0,0:0:0:0:
64,192,197473,128,0,197627:0:0:0:0:
320,192,197473,1,0,0:0:0:0:
448,192,197627,128,0,197781:0:0:0:0:
320,192,197627,1,0,0:0:0:0:
320,192,197781,128,0,198396:0:0:0:0:
64,192,197781,1,0,0:0:0:0:
192,192,197935,1,0,0:0:0:0:
64,192,198089,128,0,198243:0:0:0:0:
448,192,198089,1,0,0:0:0:0:
192,192,198243,128,0,198396:0:0:0:0:
448,192,198243,1,0,0:0:0:0:
448,192,198396,128,0,199012:0:0:0:0:
64,192,198550,1,0,0:0:0:0:
192,192,198627,1,0,0:0:0:0:
320,192,198704,1,0,0:0:0:0:
192,192,198781,1,0,0:0:0:0:
64,192,198858,1,0,0:0:0:0:
192,192,198935,1,0,0:0:0:0:
320,192,199012,1,0,0:0:0:0:
64,192,199012,1,0,0:0:0:0:
320,192,199319,1,0,0:0:0:0:
192,192,199473,1,0,0:0:0:0:
64,192,199473,128,0,199781:0:0:0:0:
448,192,199473,1,0,0:0:0:0:
320,192,199781,1,0,0:0:0:0:
320,192,199935,1,0,0:0:0:0:
64,192,200089,1,0,0:0:0:0:
192,192,200243,1,0,0:0:0:0:
448,192,200243,1,0,0:0:0:0:
320,192,200550,1,0,0:0:0:0:
192,192,200704,128,0,200858:0:0:0:0:
448,192,200704,1,0,0:0:0:0:
64,192,200704,1,0,0:0:0:0:
448,192,200858,128,0,201012:0:0:0:0:
320,192,200858,1,0,0:0:0:0:
64,192,201012,128,0,201166:0:0:0:0:
192,192,201012,1,0,0:0:0:0:
320,192,201166,128,0,201319:0:0:0:0:
448,192,201166,1,0,0:0:0:0:
192,192,201319,1,0,0:0:0:0:
192,192,201473,1,0,0:0:0:0:
64,192,201473,1,0,0:0:0:0:
320,192,201781,128,0,201935:0:0:0:0:
64,192,201781,1,0,0:0:0:0:
448,192,201781,1,0,0:0:0:0:
192,192,201935,128,0,202089:0:0:0:0:
64,192,201935,1,0,0:0:0:0:
64,192,202089,128,0,202396:0:0:0:0:
448,192,202089,1,0,0:0:0:0:
320,192,202166,1,0,0:0:0:0:
192,192,202243,1,0,0:0:0:0:
448,192,202396,128,0,202550:0:0:0:0:
192,192,202396,1,0,0:0:0:0:
320,192,202550,128,0,202704:0:0:0:0:
192,192,202550,1,0,0:0:0:0:
192,192,202704,128,0,202935:0:0:0:0:
64,192,202704,1,0,0:0:0:0:
320,192,203012,128,0,203243:0:0:0:0:
192,192,203012,1,0,0:0:0:0:
448,192,203319,128,0,203550:0:0:0:0:
320,192,203319,1,0,0:0:0:0:
64,192,203473,1,0,0:0:0:0:
192,192,203550,1,0,0:0:0:0:
320,192,203627,1,0,0:0:0:0:
448,192,203627,1,0,0:0:0:0:
192,192,203704,1,0,0:0:0:0:
64,192,203781,1,0,0:0:0:0:
448,192,203781,1,0,0:0:0:0:
192,192,203858,1,0,0:0:0:0:
320,192,203935,1,0,0:0:0:0:
448,192,204089,1,0,0:0:0:0:
192,192,204243,1,0,0:0:0:0:
448,192,204396,128,0,204704:0:0:0:0:
64,192,204396,128,0,204704:0:0:0:0:
192,192,204704,1,0,0:0:0:0:
192,192,204858,1,0,0:0:0:0:
448,192,205012,1,0,0:0:0:0:
320,192,205166,1,0,0:0:0:0:
64,192,205166,1,0,0:0:0:0:
64,192,205473,128,0,205627:0:0:0:0:
192,192,205473,1,0,0:0:0:0:
320,192,205627,128,0,205781:0:0:0:0:
448,192,205627,1,0,0:0:0:0:
192,192,205781,128,0,205935:0:0:0:0:
64,192,205781,1,0,0:0:0:0:
448,192,205935,128,0,206089:0:0:0:0:
320,192,205935,1,0,0:0:0:0:
192,192,206089,1,0,0:0:0:0:
64,192,206089,1,0,0:0:0:0:
192,192,206243,1,0,0:0:0:0:
320,192,206243,1,0,0:0:0:0:
448,192,206396,128,0,206704:0:0:0:0:
320,192,206396,128,0,206704:0:0:0:0:
64,192,206396,1,0,0:0:0:0:
64,192,206704,1,0,0:0:0:0:
192,192,206704,1,0,0:0:0:0:
192,192,206858,1,0,0:0:0:0:
320,192,206858,1,0,0:0:0:0:
320,192,207012,128,0,207319:0:0:0:0:
448,192,207012,128,0,207319:0:0:0:0:
64,192,207012,1,0,0:0:0:0:
192,192,207319,1,0,0:0:0:0:
64,192,207319,1,0,0:0:0:0:
320,192,207473,1,0,0:0:0:0:
448,192,207473,1,0,0:0:0:0:
320,192,207627,128,0,207935:0:0:0:0:
192,192,207627,128,0,207935:0:0:0:0:
64,192,207627,1,0,0:0:0:0:
448,192,207935,1,0,0:0:0:0:
64,192,207935,1,0,0:0:0:0:
192,192,208089,1,0,0:0:0:0:
320,192,208089,1,0,0:0:0:0:
64,192,208243,128,0,208550:0:0:0:0:
448,192,208243,128,0,208550:0:0:0:0:
192,192,208550,1,0,0:0:0:0:
320,192,208550,1,0,0:0:0:0:
448,192,208704,1,0,0:0:0:0:
64,192,208704,1,0,0:0:0:0:
192,192,208858,128,0,209166:0:0:0:0:
320,192,208858,128,0,209166:0:0:0:0:
448,192,209166,1,0,0:0:0:0:
64,192,209166,1,0,0:0:0:0:
448,192,209319,128,0,209627:0:0:0:0:
64,192,209319,1,0,0:0:0:0:
192,192,209319,128,0,209473:0:0:0:0:
320,192,209627,1,0,0:0:0:0:
192,192,209781,1,0,0:0:0:0:
64,192,209935,1,0,0:0:0:0:
64,192,210089,1,0,0:0:0:0:
192,192,210396,1,0,0:0:0:0:
448,192,210550,1,0,0:0:0:0:
320,192,210627,1,0,0:0:0:0:
192,192,210704,1,0,0:0:0:0:
320,192,210781,1,0,0:0:0:0:
448,192,210858,1,0,0:0:0:0:
320,192,210935,1,0,0:0:0:0:
448,192,211012,1,0,0:0:0:0:
64,192,211012,128,0,211166:0:0:0:0:
192,192,211166,1,0,0:0:0:0:
320,192,211166,128,0,211319:0:0:0:0:
192,192,211319,1,0,0:0:0:0:
64,192,211319,1,0,0:0:0:0:
448,192,211319,128,0,211550:0:0:0:0:
64,192,211627,128,0,211781:0:0:0:0:
192,192,211781,128,0,211935:0:0:0:0:
320,192,211935,128,0,212166:0:0:0:0:
448,192,212243,128,0,212473:0:0:0:0:
64,192,212550,128,0,212781:0:0:0:0:
448,192,212704,1,0,0:0:0:0:
192,192,212858,128,0,213012:0:0:0:0:
320,192,212858,1,0,0:0:0:0:
320,192,213012,128,0,213166:0:0:0:0:
64,192,213012,1,0,0:0:0:0:
64,192,213166,128,0,213319:0:0:0:0:
448,192,213166,1,0,0:0:0:0:
448,192,213319,128,0,213473:0:0:0:0:
320,192,213319,1,0,0:0:0:0:
320,192,213473,128,0,213627:0:0:0:0:
192,192,213473,1,0,0:0:0:0:
192,192,213627,128,0,213781:0:0:0:0:
64,192,213627,1,0,0:0:0:0:
64,192,213781,128,0,213935:0:0:0:0:
448,192,213781,1,0,0:0:0:0:
64,192,214243,128,0,214550:0:0:0:0:
448,192,214243,128,0,214550:0:0:0:0:
192,192,214243,1,0,0:0:0:0:
320,192,214243,1,0,0:0:0:0:
