osu file format v14

[General]
AudioFilename: Childhood Blues.mp3
AudioLeadIn: 0
PreviewTime: 80742
Countdown: 0
SampleSet: Soft
StackLeniency: 0.7
Mode: 0
LetterboxInBreaks: 1
WidescreenStoryboard: 0

[Editor]
Bookmarks: 3107,16485,43039,68985,80945,120877,134458,146823,172769,185742,224661,237634,251215
DistanceSpacing: 0.8
BeatDivisor: 4
GridSize: 4
TimelineZoom: 1

[Metadata]
Title:Osanana Blue
TitleUnicode:オサナナブルー
Artist:yuikonnu
ArtistUnicode:ゆいこんぬ
Creator:-July-
Version:Insane
Source:
Tags:Utaite Gumi Vocaloid Childhood Blues Last Note
BeatmapID:638915
BeatmapSetID:282547

[Difficulty]
HPDrainRate:7
CircleSize:4
OverallDifficulty:7
ApproachRate:9
SliderMultiplier:2
SliderTickRate:2

[Events]
//Background and Video events
Video,0,"CBVIDEO.avi"
0,0,"BG.png",0,0
//Break Periods
2,30266,42439
2,108104,118656
2,202158,224061
//Storyboard Layer 0 (Background)
//Storyboard Layer 1 (Fail)
//Storyboard Layer 2 (Pass)
//Storyboard Layer 3 (Foreground)
//Storyboard Sound Samples

[TimingPoints]
4121,405.405405405405,4,2,0,100,1,0
4121,-133.333333333333,4,2,0,70,0,0
30066,-133.333333333333,4,2,0,100,0,0
43039,-100,4,2,0,70,0,0
81148,-200,4,3,0,70,0,0
81958,-100,4,2,0,100,0,1
106283,-100,4,2,0,100,0,0
146823,-100,4,2,0,100,0,1
171148,-100,4,2,0,100,0,0
172769,-133.333333333333,4,3,0,100,0,0
185641,-100,4,2,0,100,0,0
224661,-133.333333333333,4,2,0,60,0,0
237634,-133.333333333333,4,3,0,100,0,0
246350,-100,4,3,0,100,0,0
252229,-100,4,2,0,100,0,1
276553,-100,4,2,0,100,0,0
291148,416.666666666667,4,2,0,100,1,0
291148,-133.333333333333,4,2,0,30,0,0
292813,447.761194029851,4,2,0,30,1,0
294604,483.870967741935,4,2,0,30,1,0
296539,576.923076923077,4,2,0,30,1,0
297692,769.230769230769,4,2,0,30,1,0
298461,882.352941176471,4,2,0,30,1,0
299343,-60.0961538461538,4,2,0,30,0,0

[Colours]
Combo1 : 255,128,64
Combo2 : 255,255,128
Combo3 : 255,128,128
Combo4 : 128,64,64
Combo5 : 128,255,255
Combo6 : 128,128,192

[HitObjects]
232,56,3107,5,0,0:0:0:0:
152,72,3310,1,0,0:0:0:0:
80,112,3512,1,0,0:0:0:0:
48,188,3715,1,0,0:0:0:0:
68,268,3918,1,0,0:0:0:0:
116,332,4121,6,0,P|192:352|264:332,1,150.000005722046,2|0,0:0|0:0,0:0:0:0:
320,280,4729,2,0,P|400:268|488:296,2,150.000005722046
236,248,5742,2,0,L|136:232,1,75.0000028610231,2|0,0:0|0:0,0:0:0:0:
84,148,6148,2,0,L|172:164,1,75.0000028610231
232,124,6553,1,2,0:0:0:0:
304,80,6756,2,0,P|376:84|440:136,1,150.000005722046
412,208,7364,6,0,L|352:152,1,75.0000028610231,2|0,0:0|0:0,0:0:0:0:
324,240,7769,2,0,L|256:196,1,75.0000028610231
232,284,8175,2,0,L|164:252,1,75.0000028610231,2|0,0:0|0:0,0:0:0:0:
84,276,8580,1,0,0:0:0:0:
84,276,8783,6,0,P|48:204|72:128,1,150.000005722046
128,96,9391,1,0,0:0:0:0:
200,60,9593,2,0,P|284:76|360:52,2,150.000005722046
128,96,10607,6,0,P|156:136|200:156,1,75.0000028610231,2|0,0:0|0:0,0:0:0:0:
92,180,11012,2,0,P|112:224|152:251,1,75.0000028610231
168,312,11418,1,2,0:0:0:0:
244,344,11620,2,0,P|320:328|408:352,2,150.000005722046
168,312,12634,1,0,0:0:0:0:
100,268,12837,2,0,P|116:192|88:112,1,150.000005722046
160,76,13445,5,0,0:0:0:0:
240,40,13648,1,0,0:0:0:0:
320,76,13850,1,2,0:0:0:0:
360,156,14053,2,0,L|456:136,1,75.0000028610231
312,224,14458,2,0,L|213:220,1,75.0000028610231,0|2,0:0|0:0,0:0:0:0:
364,284,14864,2,0,L|461:298,1,75.0000028610231
316,348,15269,2,0,P|244:360|164:336,1,150.000005722046
104,292,15877,1,0,0:0:0:0:
56,228,16080,1,0,0:0:0:0:
408,92,16485,5,0,0:0:0:0:
456,156,16688,1,0,0:0:0:0:
420,228,16891,1,0,0:0:0:0:
456,300,17093,2,0,P|420:316|376:344,1,75.0000028610231,2|0,0:0|0:0,0:0:0:0:
316,312,17499,1,0,0:0:0:0:
244,276,17702,1,0,0:0:0:0:
180,324,17904,2,0,P|144:314|112:296,1,75.0000028610231,2|0,0:0|0:0,0:0:0:0:
248,192,18310,2,0,P|283:203|312:228,1,75.0000028610231
184,144,18715,1,2,0:0:0:0:
152,64,18918,1,0,0:0:0:0:
240,76,19120,6,0,P|276:84|324:108,1,75.0000028610231
392,236,19526,2,0,P|356:228|308:204,1,75.0000028610231,2|0,0:0|0:0,0:0:0:0:
244,236,19931,1,0,0:0:0:0:
168,276,20134,1,0,0:0:0:0:
100,232,20337,2,0,P|76:156|112:88,1,150.000005722046,2|0,0:0|0:0,0:0:0:0:
172,48,20945,1,0,0:0:0:0:
236,100,21148,2,0,P|272:104|328:96,1,75.0000028610231,2|0,0:0|0:0,0:0:0:0:
396,272,21553,2,0,P|360:268|312:280,1,75.0000028610231
468,84,21958,5,2,0:0:0:0:
412,148,22161,1,0,0:0:0:0:
464,216,22364,1,0,0:0:0:0:
396,272,22566,1,0,0:0:0:0:
328,320,22769,2,0,P|288:316|240:320,1,75.0000028610231,2|0,0:0|0:0,0:0:0:0:
172,292,23175,1,0,0:0:0:0:
244,240,23377,1,0,0:0:0:0:
168,212,23580,2,0,P|136:140|208:80,1,150.000005722046,2|0,0:0|0:0,0:0:0:0:
216,152,24188,5,0,0:0:0:0:
292,168,24391,2,0,P|320:196|332:256,1,75.0000028610231,2|0,0:0|0:0,0:0:0:0:
308,304,24796,1,0,0:0:0:0:
236,348,24999,1,0,0:0:0:0:
168,304,25202,1,2,0:0:0:0:
176,124,25810,5,0,0:0:0:0:
176,124,26012,2,0,L|240:56,1,75.0000028610231,2|0,0:0|0:0,0:0:0:0:
188,212,26418,2,0,L|272:176,1,75.0000028610231
252,280,26823,2,0,L|408:252,2,150.000005722046,2|0|2,0:0|0:0|0:0,0:0:0:0:
196,344,27837,1,0,0:0:0:0:
76,340,28039,2,0,P|64:304|68:252,1,75.0000028610231,0|0,0:0|0:0,0:0:0:0:
120,128,28445,6,0,P|140:160|148:220,1,75.0000028610231,2|0,0:0|0:0,0:0:0:0:
284,288,28850,2,0,P|268:252|264:184,1,75.0000028610231,2|0,0:0|0:0,0:0:0:0:
296,64,29256,2,0,P|312:100|312:144,1,75.0000028610231,2|0,0:0|0:0,0:0:0:0:
440,292,29661,5,2,0:0:0:0:
424,268,29762,1,0,0:0:0:0:
416,240,29863,1,0,0:0:0:0:
420,212,29965,1,0,0:0:0:0:
440,184,30066,1,4,0:0:0:0:
372,64,43039,6,0,P|404:104|416:156,1,100
384,272,43445,1,0,0:0:0:0:
248,200,43648,2,0,P|260:248|236:316,2,100
120,144,44256,2,0,P|108:96|132:28,1,100
292,96,44661,1,0,0:0:0:0:
296,264,44864,1,0,0:0:0:0:
120,144,45066,1,0,0:0:0:0:
100,300,45269,1,0,0:0:0:0:
280,348,45472,1,0,0:0:0:0:
320,360,45573,1,0,0:0:0:0:
356,344,45675,1,0,0:0:0:0:
280,168,45877,5,0,0:0:0:0:
168,308,46080,1,0,0:0:0:0:
132,296,46181,1,0,0:0:0:0:
100,276,46282,2,0,P|80:216|124:140,2,150
368,212,47093,2,0,P|372:140|324:76,2,150
200,180,47904,5,0,0:0:0:0:
200,180,48006,1,0,0:0:0:0:
200,180,48107,1,0,0:0:0:0:
128,84,48310,1,0,0:0:0:0:
248,64,48512,1,0,0:0:0:0:
200,216,48715,1,0,0:0:0:0:
100,88,48918,1,0,0:0:0:0:
164,236,49120,1,0,0:0:0:0:
280,48,49323,1,0,0:0:0:0:
316,64,49425,1,0,0:0:0:0:
344,96,49526,1,0,0:0:0:0:
248,228,49729,6,0,P|284:268|348:292,2,100
160,156,50337,2,0,P|88:184|56:248,2,150
256,140,51148,1,0,0:0:0:0:
256,140,51249,1,0,0:0:0:0:
256,140,51350,1,0,0:0:0:0:
336,84,51553,2,0,P|384:76|440:96,1,100
160,156,51958,2,0,P|112:164|56:144,1,100
256,140,52364,2,0,P|292:180|304:232,1,100
196,292,52769,6,0,P|260:328|352:320,2,150
256,140,53580,2,0,P|191:103|117:105,2,150
356,236,54391,2,0,L|416:136,1,100
308,55,54796,2,0,L|248:155,1,100
184,52,55202,1,0,0:0:0:0:
184,52,55303,1,0,0:0:0:0:
184,52,55404,1,0,0:0:0:0:
72,112,55607,1,0,0:0:0:0:
184,184,55810,2,0,L|240:200,1,50
76,240,56012,1,0,0:0:0:0:
152,332,56215,6,0,P|200:320|280:344,2,100
80,240,56824,1,0,0:0:0:0:
48,216,56925,1,0,0:0:0:0:
28,180,57026,1,0,0:0:0:0:
248,104,57229,2,0,P|296:136|320:180,1,100
160,180,57634,2,0,P|112:156|92:92,2,100
192,168,58141,1,0,0:0:0:0:
232,156,58242,1,0,0:0:0:0:
300,276,58445,2,0,P|348:288|408:272,1,100
488,104,58850,2,0,P|440:92|384:116,1,100
380,208,59256,6,0,P|396:280|368:352,2,150
170,213,60066,2,0,P|144:144|160:71,2,150
328,256,60877,2,0,P|314:303|280:339,1,100
200,184,61283,2,0,P|236:224|248:276,1,100
132,316,61688,1,0,0:0:0:0:
132,316,61789,1,0,0:0:0:0:
132,316,61891,1,0,0:0:0:0:
64,176,62093,1,0,0:0:0:0:
172,56,62296,1,0,0:0:0:0:
328,112,62499,1,4,0:0:0:0:
316,268,62702,6,0,P|360:296|424:300,2,100
164,164,63310,2,0,P|120:116|8:96,2,150
211,310,64120,1,0,0:0:0:0:
244,332,64222,1,0,0:0:0:0:
284,340,64323,2,0,P|337:337|385:306,2,100
220,96,64932,1,0,0:0:0:0:
192,68,65033,1,0,0:0:0:0:
156,52,65134,1,0,0:0:0:0:
260,248,65337,2,0,P|260:196|288:136,1,100
368,112,65742,6,0,P|444:92|508:36,2,150
192,68,66553,2,0,P|112:68|48:112,2,150
448,175,67364,2,0,L|388:96,1,100
360,268,67769,2,0,L|438:332,1,100
244,300,68175,2,0,L|141:233,1,100
60,284,68580,5,0,0:0:0:0:
36,252,68681,1,0,0:0:0:0:
28,212,68783,1,0,0:0:0:0:
36,172,68884,1,0,0:0:0:0:
64,144,68985,2,0,P|176:152|224:44,1,200
128,72,69593,2,0,P|172:168|272:212,2,200
128,72,70607,2,0,P|76:60|20:76,1,100
253,209,71012,2,0,P|301:213|353:173,1,100
168,184,71418,5,0,0:0:0:0:
168,184,71519,1,0,0:0:0:0:
168,184,71620,1,0,0:0:0:0:
340,180,71823,1,0,0:0:0:0:
192,284,72026,1,0,0:0:0:0:
252,112,72229,1,4,0:0:0:0:
316,280,72431,1,4,0:0:0:0:
192,284,72837,6,0,P|140:216|164:108,2,200
316,280,73850,2,0,P|376:280|420:288,1,100
225,142,74256,2,0,P|166:153|122:153,1,100
384,186,74661,1,0,0:0:0:0:
392,146,74762,1,0,0:0:0:0:
380,106,74864,1,0,0:0:0:0:
128,198,75066,1,0,0:0:0:0:
120,238,75167,1,0,0:0:0:0:
132,278,75269,1,0,0:0:0:0:
216,68,75472,6,0,P|284:132|396:80,1,200
308,40,76080,2,0,P|300:144|360:224,2,200
216,68,77093,5,0,0:0:0:0:
140,88,77296,1,0,0:0:0:0:
88,148,77499,1,0,0:0:0:0:
68,224,77702,1,0,0:0:0:0:
104,296,77904,1,0,0:0:0:0:
136,324,78006,1,0,0:0:0:0:
176,332,78107,1,0,0:0:0:0:
408,88,78310,1,0,0:0:0:0:
376,60,78412,1,0,0:0:0:0:
336,52,78513,1,0,0:0:0:0:
256,292,78715,5,0,0:0:0:0:
256,96,78918,1,0,0:0:0:0:
336,248,79120,1,0,0:0:0:0:
184,136,79323,1,0,0:0:0:0:
328,136,79526,1,0,0:0:0:0:
176,248,79729,1,0,0:0:0:0:
336,248,79931,1,0,0:0:0:0:
256,96,80134,1,0,0:0:0:0:
168,224,80337,2,0,P|264:260|352:216,1,200
348,220,81148,1,0,0:0:0:0:
348,220,81553,5,0,0:0:0:0:
360,204,81654,1,0,0:0:0:0:
368,184,81756,1,0,0:0:0:0:
372,164,81857,1,0,0:0:0:0:
376,144,81958,2,0,P|336:116|280:108,1,100
188,176,82364,2,0,P|232:204|296:208,1,100
219,64,82769,1,0,0:0:0:0:
179,72,82870,1,0,0:0:0:0:
144,88,82972,6,0,P|118:130|113:180,1,100
336,300,83377,2,0,P|361:257|366:207,1,100
272,120,83783,1,0,0:0:0:0:
144,88,83985,2,0,P|80:144|92:256,1,200
108,288,84492,1,0,0:0:0:0:
140,312,84593,1,0,0:0:0:0:
176,328,84695,1,0,0:0:0:0:
216,336,84796,1,0,0:0:0:0:
312,144,84999,6,0,P|260:116|204:116,1,100
116,184,85404,2,0,P|168:212|224:212,1,100
348,256,85810,1,0,0:0:0:0:
396,192,86012,1,0,0:0:0:0:
404,112,86215,1,0,0:0:0:0:
352,52,86418,1,0,0:0:0:0:
352,52,86620,6,0,P|300:40|244:64,1,100
164,272,87026,2,0,P|216:288|268:260,1,100
232,144,87431,1,0,0:0:0:0:
172,248,87634,1,0,0:0:0:0:
292,248,87837,1,0,0:0:0:0:
232,144,88039,1,0,0:0:0:0:
196,124,88141,1,0,0:0:0:0:
160,104,88242,6,0,L|60:44,2,100
172,244,88850,2,0,P|192:292|192:356,1,100
232,140,89256,2,0,P|248:88|304:56,1,100
408,192,89661,2,0,P|391:253|353:289,1,100
299,320,90066,1,0,0:0:0:0:
218,327,90269,1,0,0:0:0:0:
144,295,90472,1,0,0:0:0:0:
104,226,90675,1,0,0:0:0:0:
104,226,90776,1,0,0:0:0:0:
104,226,90877,1,0,0:0:0:0:
156,72,91080,5,0,0:0:0:0:
228,216,91283,1,0,0:0:0:0:
300,72,91485,1,0,0:0:0:0:
300,72,91688,2,0,P|400:88|452:184,1,200
384,248,92296,1,0,0:0:0:0:
284,276,92499,2,0,P|272:328|224:368,2,100
196,216,93107,2,0,P|152:124|240:72,1,200
396,60,93715,5,0,0:0:0:0:
428,84,93816,1,0,0:0:0:0:
428,124,93918,1,0,0:0:0:0:
392,232,94120,1,0,0:0:0:0:
292,272,94323,1,0,0:0:0:0:
204,192,94526,1,0,0:0:0:0:
168,172,94627,1,0,0:0:0:0:
148,140,94729,1,0,0:0:0:0:
136,100,94830,1,0,0:0:0:0:
124,60,94931,6,0,P|100:160|0:224,1,200
100,308,95539,2,0,P|148:316|196:360,1,100
388,336,95945,2,0,P|340:328|292:284,1,100
192,224,96350,1,0,0:0:0:0:
168,192,96452,1,0,0:0:0:0:
160,152,96553,6,0,P|168:104|220:56,1,100
308,176,96958,2,0,P|300:224|236:272,1,100
224,344,97364,2,0,P|232:296|296:248,1,100
340,232,97769,1,0,0:0:0:0:
372,204,97870,1,0,0:0:0:0:
384,164,97972,1,0,0:0:0:0:
312,68,98175,1,0,0:0:0:0:
192,52,98377,1,0,0:0:0:0:
112,140,98580,1,0,0:0:0:0:
52,240,98783,6,0,P|96:268|124:320,1,100
224,344,99188,2,0,P|272:356|340:340,1,100
276,244,99593,2,0,P|312:152|408:88,2,200
296,280,100506,1,0,0:0:0:0:
332,300,100607,1,0,0:0:0:0:
484,208,100810,1,0,0:0:0:0:
316,140,101012,1,0,0:0:0:0:
332,300,101215,1,0,0:0:0:0:
388,164,101418,2,0,P|360:80|256:92,1,200
196,168,102026,6,0,P|148:188|76:184,1,100
8,312,102431,2,0,P|56:292|128:296,1,100
200,328,102837,2,0,P|248:328|316:320,1,100
356,88,103445,1,0,0:0:0:0:
408,272,103648,1,0,0:0:0:0:
256,192,103850,1,0,0:0:0:0:
220,172,103952,1,0,0:0:0:0:
200,140,104053,1,0,0:0:0:0:
344,64,104256,1,0,0:0:0:0:
464,196,104458,1,0,0:0:0:0:
356,260,104661,5,0,0:0:0:0:
288,304,104864,1,0,0:0:0:0:
208,312,105066,2,0,P|156:292|124:248,1,100
200,56,105472,2,0,P|252:76|284:120,1,100
248,220,105877,2,0,P|212:176|207:122,1,100
388,32,106283,2,0,P|423:75|428:129,1,100
424,156,106587,1,0,0:0:0:0:
400,188,106688,1,0,0:0:0:0:
256,100,106891,6,0,P|180:84|152:96,1,100
80,184,107296,1,0,0:0:0:0:
160,316,107499,2,0,L|212:272,1,50
320,192,107702,2,0,L|376:256,1,50
460,336,107904,1,0,0:0:0:0:
256,192,119256,12,0,120877,0:0:0:0:
400,296,121080,5,0,0:0:0:0:
400,296,121283,2,0,P|348:280|304:232,1,100
344,64,121688,1,0,0:0:0:0:
204,128,121891,2,0,P|160:92|96:76,1,100
80,76,122195,1,0,0:0:0:0:
40,84,122296,1,0,0:0:0:0:
240,328,122499,6,0,P|292:312|324:260,1,100
168,116,122904,2,0,P|116:132|84:184,1,100
100,260,123310,1,0,0:0:0:0:
100,260,123411,1,0,0:0:0:0:
100,260,123512,1,0,0:0:0:0:
244,188,123715,1,0,0:0:0:0:
128,76,123918,1,0,0:0:0:0:
104,108,124019,1,0,0:0:0:0:
96,148,124120,6,0,P|96:220|144:308,2,150
244,188,124931,2,0,P|274:254|353:315,2,150
304,104,125742,1,0,0:0:0:0:
336,80,125843,1,0,0:0:0:0:
372,60,125945,2,0,P|428:56|488:76,1,100
349,317,126350,2,0,P|293:321|233:301,1,100
216,288,126654,1,0,0:0:0:0:
192,256,126756,1,0,0:0:0:0:
304,104,126958,1,0,0:0:0:0:
112,320,127161,6,0,B|112:256|112:256|72:232|48:192|56:128,1,200
172,156,127769,2,0,P|224:164|292:148,1,100
368,132,128175,2,0,B|384:184|344:220|344:220|372:260|320:300,2,150
268,60,128985,6,0,P|216:56|164:56,1,100
32,196,129391,2,0,P|84:200|136:200,1,100
168,216,129695,1,0,0:0:0:0:
200,236,129796,1,0,0:0:0:0:
292,192,129999,2,0,P|352:208|412:196,2,100
168,216,130607,2,0,P|144:284|52:324,2,150
40,196,131418,2,0,P|64:128|156:88,2,150
160,264,132229,2,0,P|208:312|248:332,1,100
352,120,132634,2,0,P|304:72|264:52,1,100
196,68,133039,5,0,0:0:0:0:
164,92,133141,1,0,0:0:0:0:
144,128,133242,1,0,0:0:0:0:
148,168,133343,1,0,0:0:0:0:
160,208,133445,1,0,0:0:0:0:
188,240,133546,1,0,0:0:0:0:
224,260,133648,1,0,0:0:0:0:
460,148,133850,6,0,P|384:84|280:80,1,200
152,324,134458,2,0,P|231:345|328:273,2,200
160,56,135472,2,0,P|114:74|89:116,1,100
324,283,135877,2,0,P|370:267|394:224,1,100
237,34,136283,1,0,0:0:0:0:
197,38,136384,1,0,0:0:0:0:
159,56,136485,1,0,0:0:0:0:
240,292,136688,2,0,P|196:276|132:296,1,100
108,304,136992,1,0,0:0:0:0:
80,332,137093,1,0,0:0:0:0:
328,104,137296,5,0,0:0:0:0:
172,300,138107,1,0,0:0:0:0:
328,104,138310,6,0,P|374:121|406:159,1,100
170,301,138714,1,0,0:0:0:0:
130,301,138816,1,0,0:0:0:0:
94,281,138917,1,0,0:0:0:0:
30,33,139121,2,0,P|79:37|124:60,1,100
301,194,139526,2,0,P|252:190|208:168,1,100
338,305,139931,2,0,P|387:309|432:332,1,100
267,204,140337,6,0,P|192:267|94:280,1,200
88,359,140945,2,0,P|89:263|16:200,2,200
100,116,141958,2,0,P|142:88|191:85,1,100
437,233,142364,2,0,P|401:265|352:272,1,100
304,128,142769,1,0,0:0:0:0:
344,136,142870,1,0,0:0:0:0:
379,155,142972,2,0,P|416:189|437:234,1,100
288,316,143377,1,0,0:0:0:0:
288,68,143580,6,0,P|360:80|416:68,1,100
236,304,143985,2,0,P|164:292|108:304,1,100
224,112,144391,1,0,0:0:0:0:
300,264,144593,1,0,0:0:0:0:
188,180,144796,1,0,0:0:0:0:
336,196,144999,1,0,0:0:0:0:
220,256,145202,2,0,P|288:344|368:312,1,200
360,322,146012,1,0,0:0:0:0:
360,322,146418,5,0,0:0:0:0:
368,304,146519,1,0,0:0:0:0:
372,284,146620,1,0,0:0:0:0:
372,264,146722,1,0,0:0:0:0:
372,244,146823,2,0,P|352:196|304:160,1,100
140,140,147229,2,0,P|160:188|208:224,1,100
372,244,147634,5,0,0:0:0:0:
396,212,147735,1,0,0:0:0:0:
404,172,147837,1,0,0:0:0:0:
140,140,148039,2,0,P|108:184|126:262,1,100
240,188,148445,2,0,P|208:232|226:310,1,100
320,188,148850,2,0,P|260:112|168:152,1,200
156,176,149357,1,0,0:0:0:0:
148,216,149458,1,0,0:0:0:0:
148,256,149560,1,0,0:0:0:0:
160,296,149661,1,0,0:0:0:0:
326,285,149864,6,0,P|330:221|306:161,1,100
240,48,150269,2,0,P|236:112|260:172,1,100
380,200,150675,1,0,0:0:0:0:
440,284,150877,1,0,0:0:0:0:
208,264,151080,1,0,0:0:0:0:
132,196,151282,1,0,0:0:0:0:
132,292,151485,2,0,P|160:328|212:344,1,100
384,100,151891,2,0,P|356:64|304:48,1,100
256,192,152296,5,0,0:0:0:0:
288,220,152398,1,0,0:0:0:0:
324,240,152499,2,0,P|376:252|428:240,1,100
252,108,152904,1,0,0:0:0:0:
216,88,153006,1,0,0:0:0:0:
180,72,153107,2,0,P|124:68|64:96,1,100
40,152,153512,1,0,0:0:0:0:
24,232,153715,1,0,0:0:0:0:
40,312,153918,1,0,0:0:0:0:
108,352,154120,5,0,0:0:0:0:
108,352,154222,1,0,0:0:0:0:
108,352,154323,1,0,0:0:0:0:
220,232,154526,1,0,0:0:0:0:
112,232,154729,1,0,0:0:0:0:
224,352,154931,2,0,P|272:328|296:276,1,100
284,72,155337,2,0,P|236:96|212:148,1,100
296,288,155742,1,0,0:0:0:0:
214,135,155945,1,0,0:0:0:0:
224,352,156148,1,0,0:0:0:0:
284,72,156350,1,0,0:0:0:0:
356,168,156553,6,0,P|248:224|144:204,1,200
88,144,157161,1,0,0:0:0:0:
192,100,157364,2,0,P|164:60|108:32,2,100
180,204,157972,2,0,P|264:272|368:272,1,200
296,60,158580,1,0,0:0:0:0:
296,60,158681,1,0,0:0:0:0:
296,60,158783,1,0,0:0:0:0:
144,112,158985,2,0,P|88:100|56:60,1,100
128,256,159391,1,0,0:0:0:0:
164,240,159492,1,0,0:0:0:0:
204,240,159593,1,0,0:0:0:0:
236,264,159695,1,0,0:0:0:0:
260,296,159796,6,0,P|320:212|432:212,1,200
278,129,160404,2,0,P|316:161|332:208,1,100
289,342,160810,2,0,P|251:310|236:264,1,100
204,108,161215,1,0,0:0:0:0:
168,88,161316,1,0,0:0:0:0:
128,88,161418,2,0,P|84:100|36:164,1,100
184,272,161823,2,0,P|228:260|276:196,1,100
348,36,162229,2,0,P|304:48|256:112,1,100
248,188,162634,1,0,0:0:0:0:
268,220,162735,1,0,0:0:0:0:
300,240,162837,1,0,0:0:0:0:
348,36,163039,6,0,P|292:60|264:116,1,100
304,324,163445,2,0,P|360:300|388:244,1,100
248,76,163850,2,0,P|192:72|140:92,1,100
304,324,164256,1,0,0:0:0:0:
216,224,164458,2,0,P|288:152|240:72,2,200
176,228,165370,1,0,0:0:0:0:
136,220,165472,1,0,0:0:0:0:
104,68,165675,1,0,0:0:0:0:
264,56,165877,1,0,0:0:0:0:
376,172,166080,1,0,0:0:0:0:
315,262,166283,6,0,P|215:274|131:210,1,200
264,56,166891,2,0,P|316:72|352:112,1,100
376,132,167195,1,0,0:0:0:0:
392,168,167296,1,0,0:0:0:0:
280,336,167499,2,0,P|228:328|176:276,1,100
108,204,167904,2,0,L|108:96,1,100
216,40,168310,1,0,0:0:0:0:
428,240,168513,1,0,0:0:0:0:
392,252,168614,1,0,0:0:0:0:
356,236,168715,1,0,0:0:0:0:
400,80,168918,1,0,0:0:0:0:
256,196,169120,1,0,0:0:0:0:
80,128,169323,1,0,0:0:0:0:
216,40,169526,6,0,P|264:27|313:35,1,100
428,240,169931,2,0,P|379:252|330:244,1,100
164,100,170337,1,0,0:0:0:0:
376,172,170539,1,0,0:0:0:0:
176,180,170742,1,0,0:0:0:0:
368,92,170945,1,0,0:0:0:0:
224,248,171148,1,0,0:0:0:0:
316,28,171350,1,0,0:0:0:0:
128,232,171553,6,0,P|173:250|223:247,1,100
367,91,171958,2,0,P|322:73|272:76,1,100
224,276,172364,5,0,0:0:0:0:
264,288,172465,1,0,0:0:0:0:
304,288,172566,1,0,0:0:0:0:
344,276,172668,1,0,0:0:0:0:
380,256,172769,1,0,0:0:0:0:
272,76,172972,2,0,P|216:122|213:195,2,150
256,296,173985,1,0,0:0:0:0:
348,156,174188,1,0,0:0:0:0:
160,156,174391,1,0,0:0:0:0:
400,228,174593,6,0,P|436:160|412:88,2,150.000005722046
72,220,175810,1,0,0:0:0:0:
72,220,176012,2,0,P|56:140|96:72,1,150.000005722046
85,81,176823,1,0,0:0:0:0:
256,48,177026,2,0,L|272:121,1,75.0000028610231
408,168,177432,2,0,L|409:242,1,75.0000028610231
284,296,177837,2,0,P|364:292|412:228,2,150.000005722046
184,184,178850,1,0,0:0:0:0:
344,156,179053,1,0,0:0:0:0:
156,304,179256,5,0,0:0:0:0:
156,304,179458,2,0,P|224:264|220:184,1,150.000005722046
304,104,180066,1,0,0:0:0:0:
228,200,180269,1,0,0:0:0:0:
304,292,180472,1,0,0:0:0:0:
420,244,180675,1,0,0:0:0:0:
416,128,180877,1,0,0:0:0:0:
304,104,181080,1,0,0:0:0:0:
304,292,181283,1,0,0:0:0:0:
416,128,181485,2,0,P|408:56|336:4,2,150.000005722046
256,192,182499,5,0,0:0:0:0:
96,232,182702,2,0,P|104:304|176:356,1,150.000005722046
256,192,183310,2,0,P|248:120|176:68,2,150.000005722046
224,308,184323,1,0,0:0:0:0:
296,340,184526,1,0,0:0:0:0:
368,312,184729,1,0,0:0:0:0:
408,244,184931,1,0,0:0:0:0:
364,132,185134,5,0,0:0:0:0:
256,80,185337,1,0,0:0:0:0:
144,128,185539,1,0,0:0:0:0:
116,244,185742,2,0,P|140:288|200:312,1,100
396,140,186148,2,0,P|372:96|312:72,1,100
116,244,186553,2,0,L|223:232,1,100
328,72,186958,2,0,L|220:83,1,100
284,264,187364,5,0,0:0:0:0:
156,56,187566,1,0,0:0:0:0:
300,344,187769,1,0,0:0:0:0:
168,132,187972,1,0,0:0:0:0:
364,288,188175,1,0,0:0:0:0:
92,104,188377,1,0,0:0:0:0:
320,144,188580,1,0,0:0:0:0:
340,108,188681,1,0,0:0:0:0:
328,68,188783,1,0,0:0:0:0:
88,120,188985,6,0,P|80:224|144:300,1,200
240,204,189593,1,0,0:0:0:0:
160,200,189796,1,0,0:0:0:0:
208,336,189999,1,0,0:0:0:0:
268,280,190202,1,0,0:0:0:0:
268,280,190404,2,0,P|320:196|260:124,2,200
228,280,191316,1,0,0:0:0:0:
192,264,191418,1,0,0:0:0:0:
160,240,191519,1,0,0:0:0:0:
144,204,191620,1,0,0:0:0:0:
265,126,191823,2,0,L|372:148,1,100
228,280,192229,6,0,L|104:240,2,100
208,44,192837,2,0,P|300:52|364:144,2,200
133,249,193850,2,0,P|125:321|65:349,2,100
364,176,194458,2,0,P|328:132|404:28,2,200
196,328,195472,2,0,L|284:256,2,100
228,92,196080,2,0,P|124:96|60:192,1,200
120,340,196688,2,0,L|84:236,1,100
152,72,197093,2,0,P|156:124|196:164,1,100
288,304,197499,2,0,L|388:316,1,100
400,132,197904,2,0,L|300:120,1,100
128,136,198309,5,0,0:0:0:0:
100,164,198411,1,0,0:0:0:0:
84,200,198512,1,0,0:0:0:0:
96,240,198613,1,0,0:0:0:0:
124,272,198715,1,0,0:0:0:0:
256,192,198816,12,0,201958,0:0:0:0:
176,80,224661,6,0,P|128:136|144:212,1,150.000005722046
336,304,225269,2,0,P|384:248|368:172,2,150.000005722046
288,192,226485,6,0,P|300:120|388:100,2,150.000005722046
176,236,227702,1,0,0:0:0:0:
248,196,228310,5,0,0:0:0:0:
248,196,228512,2,0,P|234:124|173:84,1,150.000005722046
100,112,229120,1,0,0:0:0:0:
248,196,229323,2,0,P|320:168|340:80,1,150.000005722046
174,85,230134,2,0,P|118:125|106:213,1,150.000005722046
156,264,230742,6,0,P|196:268|232:288,1,75.0000028610231
296,328,231148,2,0,P|328:256|292:188,1,150.000005722046
220,56,231756,2,0,P|188:128|224:196,1,150.000005722046
301,195,232566,2,0,P|365:203|429:275,2,150.000005722046
128,280,233580,2,0,P|160:304|220:308,1,75.0000028610231
408,124,233985,2,0,P|376:100|316:96,1,75.0000028610231
272,240,234391,2,0,P|175:220|135:164,1,150.000005722046
252,60,235202,2,0,P|288:68|332:108,1,75.0000028610231
340,268,235607,2,0,P|304:260|260:220,1,75.0000028610231
256,192,236012,12,0,237229,0:0:0:0:
108,88,237431,5,0,0:0:0:0:
108,88,237634,2,0,P|92:144|140:220,1,150.000005722046
404,296,238242,2,0,P|420:240|372:164,1,150.000005722046
308,124,238850,1,0,0:0:0:0:
204,260,239053,2,0,P|296:272|356:224,2,150.000005722046
144,208,240066,1,0,0:0:0:0:
260,64,240269,2,0,P|332:52|384:112,1,150.000005722046
204,260,240877,1,0,0:0:0:0:
144,208,241080,1,0,0:0:0:0:
112,136,241283,1,0,0:0:0:0:
140,64,241485,1,0,0:0:0:0:
208,24,241688,1,0,0:0:0:0:
428,192,242093,5,0,0:0:0:0:
428,192,242296,2,0,P|400:272|312:284,2,150.000005722046
344,104,243512,2,0,P|312:80|268:72,1,75.0000028610231
164,280,243918,2,0,P|196:304|240:312,1,75.0000028610231
104,200,244323,2,0,P|68:192|24:200,1,75.0000028610231
216,200,244729,2,0,P|268:148|216:80,2,150.000005722046
344,320,245945,2,0,P|412:340|484:288,1,150.000005722046
404,268,246553,6,0,P|444:220|444:168,1,100
128,52,246958,2,0,P|88:100|88:152,1,100
372,196,247364,2,0,P|366:133|329:97,1,100
160,120,247769,2,0,P|165:182|202:218,1,100
256,84,248175,1,0,0:0:0:0:
256,304,248377,1,0,0:0:0:0:
260,188,248580,5,0,0:0:0:0:
228,164,248681,1,0,0:0:0:0:
188,164,248783,1,0,0:0:0:0:
160,192,248884,1,0,0:0:0:0:
148,232,248985,1,0,0:0:0:0:
256,192,249391,12,0,250607,0:0:0:0:
260,192,251012,5,0,0:0:0:0:
164,60,251215,2,0,P|112:84|88:140,1,100
384,296,251620,2,0,P|436:272|460:216,1,100
464,196,251925,1,0,0:0:0:0:
468,156,252026,1,0,0:0:0:0:
164,60,252229,6,0,L|136:164,1,100
348,324,252634,2,0,L|376:220,1,100
108,176,253039,1,0,0:0:0:0:
108,176,253141,1,0,0:0:0:0:
108,176,253242,1,0,0:0:0:0:
328,120,253445,1,0,0:0:0:0:
132,100,253648,6,0,P|40:136|60:241,2,200
336,296,254661,2,0,P|388:276|424:224,1,100
336,140,255066,2,0,P|284:160|248:212,1,100
272,348,255472,2,0,P|316:370|365:375,1,100
404,88,255877,2,0,P|359:65|310:60,1,100
152,84,256283,1,0,0:0:0:0:
136,120,256384,1,0,0:0:0:0:
140,160,256485,1,0,0:0:0:0:
260,232,256688,1,0,0:0:0:0:
352,148,256891,6,0,P|404:156|444:200,1,100
220,328,257296,2,0,P|168:320|128:276,1,100
228,92,257702,2,0,P|259:134|256:193,1,100
244,216,258006,1,0,0:0:0:0:
212,244,258107,1,0,0:0:0:0:
96,208,258310,1,0,0:0:0:0:
68,92,258512,1,0,0:0:0:0:
228,92,258715,6,0,P|312:104|376:216,1,200
164,208,259323,2,0,P|188:252|240:276,1,100
440,260,259729,2,0,P|416:216|364:192,1,100
136,108,260134,1,0,0:0:0:0:
92,176,260337,1,0,0:0:0:0:
104,256,260539,1,0,0:0:0:0:
168,304,260742,1,0,0:0:0:0:
168,304,260843,1,0,0:0:0:0:
168,304,260945,1,0,0:0:0:0:
404,184,261148,5,0,0:0:0:0:
284,184,261350,1,0,0:0:0:0:
380,112,261553,1,0,0:0:0:0:
344,232,261756,1,0,0:0:0:0:
308,116,261958,2,0,P|236:68|132:112,1,200
52,260,262566,1,0,0:0:0:0:
232,304,262769,2,0,P|196:336|132:336,2,100
164,176,263377,2,0,P|252:136|316:204,1,200
236,228,263985,5,0,0:0:0:0:
236,228,264087,1,0,0:0:0:0:
236,228,264188,1,0,0:0:0:0:
164,72,264391,1,0,0:0:0:0:
328,72,264593,1,0,0:0:0:0:
432,180,264796,1,0,0:0:0:0:
440,220,264898,1,0,0:0:0:0:
432,260,264999,1,0,0:0:0:0:
408,292,265100,1,0,0:0:0:0:
380,320,265202,6,0,P|288:348|180:316,1,200
120,92,265810,2,0,P|152:128|164:192,1,100
236,152,266215,2,0,P|233:200|196:253,1,100
276,276,266620,2,0,P|240:308|176:320,1,100
152,328,266925,1,0,0:0:0:0:
116,308,267026,1,0,0:0:0:0:
120,92,267229,6,0,L|232:92,1,100
384,192,267634,2,0,L|264:192,1,100
244,192,267938,1,0,0:0:0:0:
204,192,268039,1,0,0:0:0:0:
116,308,268242,1,0,0:0:0:0:
224,268,268445,1,0,0:0:0:0:
320,192,268648,5,0,0:0:0:0:
224,268,268850,1,0,0:0:0:0:
124,204,269053,1,0,0:0:0:0:
152,88,269256,1,0,0:0:0:0:
272,84,269458,1,0,0:0:0:0:
220,164,269661,1,0,0:0:0:0:
220,164,269864,6,0,P|276:240|304:360,2,200
188,136,270776,1,0,0:0:0:0:
148,128,270877,1,0,0:0:0:0:
72,308,271080,2,0,P|120:319|166:302,1,100
116,136,271485,1,0,0:0:0:0:
348,220,271688,2,0,P|340:316|288:284,1,200
268,208,272296,5,0,0:0:0:0:
224,140,272499,1,0,0:0:0:0:
144,124,272702,1,0,0:0:0:0:
76,164,272904,1,0,0:0:0:0:
76,164,273006,1,0,0:0:0:0:
76,164,273107,1,0,0:0:0:0:
64,288,273310,2,0,P|156:328|228:244,1,200
288,316,273918,6,0,P|288:224|180:200,1,200
164,212,274425,1,0,0:0:0:0:
140,248,274526,1,0,0:0:0:0:
140,84,274729,1,0,0:0:0:0:
312,300,274932,2,0,P|356:260|364:204,1,100
260,76,275337,2,0,P|216:116|208:172,1,100
172,224,275742,2,0,P|231:226|276:192,1,100
352,60,276148,2,0,P|292:57|247:91,1,100
232,108,276452,1,0,0:0:0:0:
216,144,276553,1,0,0:0:0:0:
256,192,276756,12,2,278175,0:0:0:0:
256,112,278580,5,0,0:0:0:0:
256,272,278782,1,0,0:0:0:0:
328,80,278985,1,0,0:0:0:0:
184,304,279188,1,0,0:0:0:0:
400,112,279391,2,0,P|440:136|456:200,1,100
112,264,279796,2,0,P|72:240|56:168,1,100
304,152,280201,2,0,L|392:216,1,100
216,232,280607,2,0,L|136:160,1,100
120,136,280911,5,0,0:0:0:0:
104,96,281012,1,0,0:0:0:0:
224,328,281215,1,0,0:0:0:0:
304,152,281418,2,0,P|336:192|344:256,1,100
216,232,281824,2,0,P|184:192|176:128,1,100
38,165,282229,2,0,P|62:122|104:96,1,100
184,72,282634,1,0,0:0:0:0:
256,160,282836,1,0,0:0:0:0:
320,72,283039,1,0,0:0:0:0:
280,272,283242,5,0,0:0:0:0:
280,272,283343,1,0,0:0:0:0:
280,272,283445,1,0,0:0:0:0:
112,272,283647,1,0,0:0:0:0:
200,136,283850,1,0,0:0:0:0:
200,136,283952,1,0,0:0:0:0:
200,136,284053,2,0,P|200:80|248:40,1,100
344,232,284458,2,0,P|360:280|328:328,1,100
304,344,284762,1,0,0:0:0:0:
264,344,284864,1,0,0:0:0:0:
304,168,285066,6,0,P|352:152|400:184,1,100
264,232,285472,2,0,P|224:184|240:128,1,100
280,96,285877,1,0,0:0:0:0:
216,296,286080,1,0,0:0:0:0:
350,75,286282,2,0,P|301:23|232:39,2,150
151,333,287093,2,0,P|215:367|280:336,2,150
216,152,287904,5,0,0:0:0:0:
336,280,288107,1,0,0:0:0:0:
176,216,288309,1,0,0:0:0:0:
368,208,288512,1,0,0:0:0:0:
144,288,288715,1,0,0:0:0:0:
144,288,288816,1,0,0:0:0:0:
144,288,288918,1,0,0:0:0:0:
136,152,289120,5,0,0:0:0:0:
256,216,289323,1,0,0:0:0:0:
80,336,289526,2,0,L|48:240,1,100
312,160,289931,2,0,L|392:256,1,100
400,272,290235,1,0,0:0:0:0:
400,312,290336,1,0,0:0:0:0:
208,280,290539,1,0,0:0:0:0:
288,88,290742,1,0,0:0:0:0:
448,216,290945,1,0,0:0:0:0:
160,216,291148,5,0,0:0:0:0:
144,160,291356,1,0,0:0:0:0:
168,104,291564,1,0,0:0:0:0:
216,64,291773,2,0,P|288:48|368:88,1,150.000005722046
368,248,292398,1,0,0:0:0:0:
320,280,292606,1,0,0:0:0:0:
264,288,292814,1,0,0:0:0:0:
344,168,293036,5,0,0:0:0:0:
400,168,293260,1,0,0:0:0:0:
448,208,293484,1,0,0:0:0:0:
464,264,293708,1,0,0:0:0:0:
160,304,293932,1,0,0:0:0:0:
128,248,294156,1,0,0:0:0:0:
128,184,294380,1,0,0:0:0:0:
152,128,294604,5,0,0:0:0:0:
200,88,294845,1,0,0:0:0:0:
256,72,295087,1,0,0:0:0:0:
368,216,295329,2,0,P|344:288|224:328,1,200
408,160,296055,5,0,0:0:0:0:
432,216,296297,1,0,0:0:0:0:
208,248,296539,2,0,P|192:184|224:128,1,100
240,104,297115,1,0,0:0:0:0:
304,88,297404,1,0,0:0:0:0:
272,288,297692,2,0,P|224:320|160:312,1,100
64,240,298461,1,0,0:0:0:0:
56,80,298902,1,0,0:0:0:0:
232,112,299343,6,0,B|160:56|104:88|120:176|96:224|160:248|256:320|256:320|352:240|416:224|384:176|408:88|344:56|272:120,1,748.8000073125
