osu file format v14

[General]
AudioFilename: kakusigoto.mp3
AudioLeadIn: 0
PreviewTime: -1
Countdown: 0
SampleSet: None
StackLeniency: 0.7
Mode: 0
LetterboxInBreaks: 1
WidescreenStoryboard: 1

[Editor]
DistanceSpacing: 1.1
BeatDivisor: 4
GridSize: 8
TimelineZoom: 0.9999996

[Metadata]
Title:Kakushigoto
TitleUnicode:Kakushigoto
Artist:yuikonnu
ArtistUnicode:yuikonnu
Creator:ohad1881
Version:extrad1881 (ar 9.5)
Source:
Tags:challenge challenges extra difficulty
BeatmapID:1181217
BeatmapSetID:558407

[Difficulty]
HPDrainRate:4
CircleSize:4
OverallDifficulty:8.5
ApproachRate:9.5
SliderMultiplier:1.8
SliderTickRate:1

[Events]
//Background and Video events
0,0,"37904033 (2).jpg",0,0
//Break Periods
2,73423,81098
//Storyboard Layer 0 (Background)
//Storyboard Layer 1 (Fail)
//Storyboard Layer 2 (Pass)
//Storyboard Layer 3 (Foreground)
//Storyboard Sound Samples

[TimingPoints]
1223,300,4,2,0,50,1,0
1223,-100,4,2,0,25,0,0
2423,-66.6666666666667,4,2,0,75,0,0
13223,-133.333333333333,4,2,0,35,0,0
21923,-125,4,2,0,40,0,0
22223,-100,4,2,0,50,0,0
22373,-100,4,2,0,60,0,0
22823,-80,4,2,0,63,0,0
32423,-100,4,2,0,50,0,0
42023,-80,4,2,0,63,0,0
51023,-133.333333333333,4,2,0,63,0,0
51623,-55.5555555555556,4,2,0,100,0,1
70823,-55.5555555555556,4,2,0,100,0,0
81623,-133.333333333333,4,2,0,35,0,0
90023,-100,4,2,0,50,0,0
91223,-80,4,2,0,63,0,0
100823,-100,4,2,0,50,0,0
110423,-80,4,2,0,63,0,0
120023,-55.5555555555556,4,2,0,100,0,1
139223,-66.6666666666667,4,2,0,75,0,0
178823,-133.333333333333,4,2,0,20,0,0
187823,-200,4,2,0,20,0,0
187973,-200,4,2,0,5,0,0
189623,-55.5555555555556,4,2,0,100,0,1
205223,-100,4,2,0,50,0,1
205523,-66.6666666666667,4,2,0,75,0,1
205823,-55.5555555555556,4,2,0,100,0,1
234023,-66.6666666666667,4,2,0,25,0,0

[Colours]
Combo1 : 255,255,255
Combo2 : 255,255,255
Combo3 : 255,255,255

[HitObjects]
256,192,1223,6,0,P|181:206|97:181,1,135,4|0,0:0|0:0,0:0:0:0:
256,192,1523,2,0,P|331:178|415:203,1,135,4|0,0:0|0:0,0:0:0:0:
412,209,1823,5,8,0:0:0:0:
433,231,1898,1,0,0:0:0:0:
448,259,1973,1,0,0:0:0:0:
455,290,2048,1,0,0:0:0:0:
454,321,2123,1,0,0:0:0:0:
397,334,2198,1,0,0:0:0:0:
338,335,2273,1,0,0:0:0:0:
281,324,2348,1,0,0:0:0:0:
228,300,2423,6,0,P|145:265|78:272,1,135.000005149842,12|0,0:0|0:0,0:0:0:0:
273,91,2723,2,0,P|345:36|373:-24,1,135.000005149842
326,240,3023,1,8,0:0:0:0:
190,38,3173,1,0,0:0:0:0:
190,38,3248,1,0,0:0:0:0:
190,38,3323,1,0,0:0:0:0:
338,335,3473,6,0,P|416:273|336:143,1,270.000010299683,8|0,0:0|0:0,0:0:0:0:
82,211,3923,2,0,B|128:232|128:232|233:238,1,135.000005149842
352,101,4223,2,0,L|380:25,1,67.5000025749208,8|0,0:0|0:0,0:0:0:0:
434,161,4373,2,0,L|406:237,1,67.5000025749208
290,129,4523,2,0,L|363:95,1,67.5000025749208
305,229,4673,2,0,L|231:262,1,67.5000025749208
192,77,4823,6,0,L|317:18,1,135.000005149842,8|0,0:0|0:0,0:0:0:0:
43,46,5123,2,0,P|36:124|76:180,1,135.000005149842
87,203,5348,1,0,0:0:0:0:
111,234,5423,2,0,P|120:299|89:358,1,135.000005149842,8|0,0:0|0:0,0:0:0:0:
195,137,5723,1,0,0:0:0:0:
359,351,5873,6,0,P|434:329|319:272,1,270.000010299683,8|0,0:0|0:0,0:0:0:0:
132,358,6323,2,0,P|100:299|110:233,1,135.000005149842
266,47,6623,1,8,0:0:0:0:
229,287,6773,1,0,0:0:0:0:
75,98,6923,1,0,0:0:0:0:
99,138,6998,1,0,0:0:0:0:
135,168,7073,1,0,0:0:0:0:
179,186,7148,1,0,0:0:0:0:
226,189,7223,6,0,P|304:175|364:192,1,135.000005149842,8|0,0:0|0:0,0:0:0:0:
163,41,7523,1,0,0:0:0:0:
176,283,7673,1,0,0:0:0:0:
176,283,7748,1,0,0:0:0:0:
176,283,7823,1,8,0:0:0:0:
212,110,7973,1,0,0:0:0:0:
83,226,8123,1,0,0:0:0:0:
318,93,8273,6,0,B|296:144|296:144|300:369,1,270.000010299683,8|0,0:0|0:0,0:0:0:0:
500,177,8723,2,0,P|428:160|368:178,1,135.000005149842
173,320,9023,5,8,0:0:0:0:
120,312,9098,1,0,0:0:0:0:
81,275,9173,1,0,0:0:0:0:
71,223,9248,1,0,0:0:0:0:
93,175,9323,1,0,0:0:0:0:
139,148,9398,1,0,0:0:0:0:
191,152,9473,1,0,0:0:0:0:
232,187,9548,1,0,0:0:0:0:
243,239,9623,6,0,L|245:313,2,67.5000025749208,8|0|0,0:0|0:0|0:0,0:0:0:0:
105,38,9923,1,0,0:0:0:0:
105,38,9998,1,0,0:0:0:0:
105,38,10073,1,0,0:0:0:0:
336,113,10223,2,0,L|418:111,2,67.5000025749208,8|0|0,0:0|0:0|0:0,0:0:0:0:
111,205,10523,2,0,L|29:203,2,67.5000025749208
354,228,10823,5,8,0:0:0:0:
391,255,10898,1,0,0:0:0:0:
407,299,10973,1,0,0:0:0:0:
396,344,11048,1,0,0:0:0:0:
361,375,11123,1,0,0:0:0:0:
315,381,11198,1,0,0:0:0:0:
273,361,11273,1,0,0:0:0:0:
250,320,11348,1,0,0:0:0:0:
254,274,11423,1,8,0:0:0:0:
272,230,11498,1,0,0:0:0:0:
280,183,11573,1,0,0:0:0:0:
271,136,11648,1,0,0:0:0:0:
244,97,11723,5,2,0:0:0:0:
303,128,11798,1,2,0:0:0:0:
370,135,11873,1,2,0:0:0:0:
435,118,11948,1,2,0:0:0:0:
429,160,13223,6,0,L|423:239,1,67.5000025749208
319,165,13523,2,0,L|313:244,1,67.5000025749208
209,170,13823,2,0,L|203:249,1,67.5000025749208
99,175,14123,2,0,L|93:254,1,67.5000025749208
33,121,14423,1,8,0:0:0:0:
314,49,15623,6,0,P|325:106|319:142,1,67.5000025749208
191,90,15923,2,0,P|180:147|186:183,1,67.5000025749208
293,230,16223,2,0,P|304:287|298:323,1,67.5000025749208
170,271,16523,2,0,P|159:328|165:364,1,67.5000025749208
221,217,16823,1,8,0:0:0:0:
220,200,17273,5,2,0:0:0:0:
220,200,17423,2,2,L|211:119,1,67.5000025749208
330,67,17723,2,2,L|339:-14,1,67.5000025749208
437,90,18023,5,8,0:0:0:0:
360,156,18173,1,0,0:0:0:0:
262,127,18323,2,0,P|225:81|218:49,1,67.5000025749208
132,26,18623,1,8,0:0:0:0:
119,126,18773,1,0,0:0:0:0:
43,58,18923,2,0,L|31:145,1,67.5000025749208
60,223,19223,5,8,0:0:0:0:
146,169,19373,1,0,0:0:0:0:
67,232,19523,1,0,0:0:0:0:
153,178,19673,1,0,0:0:0:0:
73,241,19823,1,8,0:0:0:0:
159,187,19973,1,0,0:0:0:0:
149,313,20123,2,0,P|90:344|66:342,1,67.5000025749208
226,345,20423,5,8,0:0:0:0:
261,250,20573,1,0,0:0:0:0:
256,148,20723,1,0,0:0:0:0:
215,55,20873,1,0,0:0:0:0:
348,105,21023,1,8,0:0:0:0:
256,148,21173,1,0,0:0:0:0:
157,125,21323,1,0,0:0:0:0:
102,39,21473,1,0,0:0:0:0:
76,216,21623,6,0,L|65:305,1,67.5000025749208,4|0,0:0|0:0,0:0:0:0:
157,125,21923,2,0,L|170:24,1,72,4|0,0:0|0:0,0:0:0:0:
204,229,22223,1,8,0:0:0:0:
279,31,22373,1,0,0:0:0:0:
279,31,22448,1,0,0:0:0:0:
279,31,22523,1,0,0:0:0:0:
287,79,22598,1,0,0:0:0:0:
297,127,22673,1,0,0:0:0:0:
307,175,22748,1,0,0:0:0:0:
318,223,22823,6,0,L|272:338,1,112.5,12|0,0:0|0:0,0:0:0:0:
132,185,23123,2,0,L|55:87,1,112.5
263,74,23423,2,0,L|496:28,1,225,8|0,0:0|0:0,0:0:0:0:
404,218,23873,1,0,0:0:0:0:
263,74,24023,2,0,P|193:57|141:68,1,112.5,8|0,0:0|0:0,0:0:0:0:
221,255,24323,2,0,P|291:272|343:261,1,112.5
134,152,24623,6,0,P|88:258|147:369,1,225,8|0,0:0|0:0,0:0:0:0:
221,255,25073,1,0,0:0:0:0:
47,149,25223,2,0,P|36:88|53:23,1,112.5,8|0,0:0|0:0,0:0:0:0:
249,37,25523,2,0,P|259:97|243:163,1,112.5
226,186,25748,1,0,0:0:0:0:
200,223,25823,2,0,P|190:278|200:333,1,112.5,8|0,0:0|0:0,0:0:0:0:
396,281,26123,2,0,B|358:272|358:272|277:279,1,112.5
454,164,26423,5,8,0:0:0:0:
407,361,26573,1,0,0:0:0:0:
387,102,26723,1,0,0:0:0:0:
407,361,26873,1,0,0:0:0:0:
340,30,27023,2,0,B|373:58|388:103|388:103|360:170|345:268,1,225,8|0,0:0|0:0,0:0:0:0:
167,147,27473,1,0,0:0:0:0:
252,330,27623,2,0,P|307:371|367:376,1,112.5,8|0,0:0|0:0,0:0:0:0:
357,175,27923,2,0,P|365:106|339:52,1,112.5
166,156,28223,2,0,P|102:183|63:363,1,225,8|0,0:0|0:0,0:0:0:0:
60,117,28673,1,0,0:0:0:0:
236,256,28823,6,0,L|352:261,1,112.5,8|0,0:0|0:0,0:0:0:0:
251,55,29123,2,0,P|191:43|135:60,1,112.5
360,109,29423,2,0,B|355:153|355:153|375:238,1,112.5,8|0,0:0|0:0,0:0:0:0:
145,243,29723,2,0,B|150:287|150:287|130:372,1,112.5
100,322,29948,1,0,0:0:0:0:
75,284,30023,6,0,P|49:204|62:159,1,112.5,8|0,0:0|0:0,0:0:0:0:
246,116,30323,2,0,P|166:142|121:129,1,112.5
322,49,30623,2,0,L|325:168,1,112.5,8|0,0:0|0:0,0:0:0:0:
511,243,30923,2,0,B|458:273|458:273|417:317,1,112.5
238,228,31223,1,8,0:0:0:0:
485,365,31373,1,0,0:0:0:0:
485,365,31448,1,0,0:0:0:0:
485,365,31523,1,0,0:0:0:0:
371,117,31673,2,0,L|356:190,1,56.25
301,323,31823,5,8,0:0:0:0:
289,55,31973,5,0,0:0:0:0:
323,26,32048,1,0,0:0:0:0:
366,15,32123,1,0,0:0:0:0:
410,23,32198,1,0,0:0:0:0:
446,49,32273,1,0,0:0:0:0:
468,88,32348,1,0,0:0:0:0:
470,133,32423,6,0,P|464:201|441:241,1,90,4|0,0:0|0:0,0:0:0:0:
275,242,32723,2,0,P|281:309|304:349,1,90
151,214,33023,2,0,L|39:215,1,90
201,102,33323,2,0,L|89:103,1,90
289,55,33623,5,4,0:0:0:0:
289,55,33773,1,0,0:0:0:0:
310,233,33923,1,0,0:0:0:0:
310,233,34073,1,0,0:0:0:0:
420,90,34223,2,0,P|369:131|328:136,1,90
92,90,34523,2,0,P|143:131|184:136,1,90
400,221,34823,6,0,P|375:294|264:310,1,180,4|0,0:0|0:0,0:0:0:0:
257,138,35273,1,0,0:0:0:0:
112,245,35423,2,0,P|99:297|103:336,1,90
247,225,35723,2,0,P|259:182|257:138,1,90
18,81,36023,2,0,B|58:123|58:123|192:173,1,180,4|0,0:0|0:0,0:0:0:0:
66,18,36473,1,0,0:0:0:0:
234,82,36623,2,0,P|280:94|324:84,1,90
501,82,36923,2,0,P|455:94|411:84,1,90
265,187,37223,6,0,B|215:184|177:200|177:200|141:179|87:184,1,180,4|0,0:0|0:0,0:0:0:0:
238,284,37673,1,0,0:0:0:0:
116,284,37823,2,0,B|111:232|132:196|132:196|116:158|119:108,1,180
299,123,38273,1,0,0:0:0:0:
238,284,38423,2,0,P|220:341|190:378,1,90,4|0,0:0|0:0,0:0:0:0:
324,231,38723,2,0,P|342:288|372:325,1,90
212,55,39023,6,0,P|201:125|117:229,1,180
45,59,39473,1,0,0:0:0:0:
299,123,39623,2,0,P|310:193|394:297,1,180,4|0,0:0|0:0,0:0:0:0:
461,125,40073,1,0,0:0:0:0:
256,290,40223,6,0,P|200:299|146:282,1,90
54,150,40523,2,0,P|110:141|164:158,1,90
256,290,40823,1,4,0:0:0:0:
192,65,40973,1,0,0:0:0:0:
192,65,41048,1,0,0:0:0:0:
192,65,41123,1,0,0:0:0:0:
303,205,41273,1,0,0:0:0:0:
54,150,41423,5,4,0:0:0:0:
43,193,41498,1,0,0:0:0:0:
50,237,41573,1,0,0:0:0:0:
74,275,41648,1,0,0:0:0:0:
150,227,41723,1,0,0:0:0:0:
174,190,41798,1,0,0:0:0:0:
181,146,41873,1,0,0:0:0:0:
170,102,41948,1,0,0:0:0:0:
94,150,42023,6,0,P|148:190|299:157,1,225,12|0,0:0|0:0,0:0:0:0:
201,5,42473,1,0,0:0:0:0:
376,106,42623,2,0,P|392:165|372:228,1,112.5,8|0,0:0|0:0,0:0:0:0:
221,339,42923,2,0,P|205:280|225:217,1,112.5
238,191,43148,1,0,0:0:0:0:
260,152,43223,2,0,B|168:214|168:214|52:253,1,225,8|0,0:0|0:0,0:0:0:0:
153,69,43673,1,0,0:0:0:0:
259,240,43823,2,0,L|273:365,1,112.5,8|0,0:0|0:0,0:0:0:0:
401,194,44123,2,0,P|417:135|413:82,1,112.5
219,18,44423,6,0,B|244:109|304:170|304:170|312:100,1,225,8|0,0:0|0:0,0:0:0:0:
115,58,44873,1,0,0:0:0:0:
203,240,45023,2,0,P|207:305|196:350,1,112.5,8|0,0:0|0:0,0:0:0:0:
107,168,45323,2,0,P|103:103|114:58,1,112.5
165,35,45548,1,0,0:0:0:0:
219,18,45623,2,0,P|317:41|458:17,1,225,8|0,0:0|0:0,0:0:0:0:
326,192,46073,1,0,0:0:0:0:
219,18,46223,5,8,0:0:0:0:
219,18,46298,1,0,0:0:0:0:
219,18,46373,2,0,L|218:89,1,56.25
214,175,46523,1,0,0:0:0:0:
195,227,46598,1,0,0:0:0:0:
157,268,46673,1,0,0:0:0:0:
105,289,46748,1,0,0:0:0:0:
49,287,46823,5,12,0:0:0:0:
92,159,46973,1,0,0:0:0:0:
44,285,47123,1,0,0:0:0:0:
86,156,47273,1,0,0:0:0:0:
103,380,47423,5,4,0:0:0:0:
243,204,47573,1,0,0:0:0:0:
30,278,47723,1,0,0:0:0:0:
240,197,47873,1,0,0:0:0:0:
21,373,48023,5,4,0:0:0:0:
144,120,48173,1,0,0:0:0:0:
258,376,48323,1,0,0:0:0:0:
201,53,48473,1,0,0:0:0:0:
201,53,48548,1,0,0:0:0:0:
201,53,48623,1,4,0:0:0:0:
131,384,48773,1,0,0:0:0:0:
352,127,48923,6,0,L|367:188,1,56.25
276,98,49073,2,0,L|289:43,1,56.25
200,151,49223,5,8,0:0:0:0:
156,185,49298,1,0,0:0:0:0:
101,188,49373,1,0,0:0:0:0:
53,159,49448,1,0,0:0:0:0:
31,109,49523,1,0,0:0:0:0:
41,54,49598,1,0,0:0:0:0:
81,16,49673,1,0,0:0:0:0:
136,7,49748,1,0,0:0:0:0:
186,30,49823,1,8,0:0:0:0:
211,81,49898,1,0,0:0:0:0:
205,136,49973,1,0,0:0:0:0:
179,186,50048,1,0,0:0:0:0:
166,240,50123,1,0,0:0:0:0:
169,296,50198,1,0,0:0:0:0:
198,343,50273,1,0,0:0:0:0:
248,367,50348,1,0,0:0:0:0:
304,363,50423,6,0,P|354:350|411:290,1,112.5,8|12,0:0|0:0,0:0:0:0:
434,278,50873,1,12,0:0:0:0:
210,302,51023,6,0,P|136:252|233:238,1,236.250009012223,4|0,0:0|0:0,0:0:0:0:
272,256,51623,6,0,P|352:232|224:144,1,323.999990112305,12|0,0:0|0:0,0:0:0:0:
76,363,52073,1,0,0:0:0:0:
119,74,52223,2,0,B|114:131|114:131|142:253,1,161.999995056153,8|0,0:0|0:0,0:0:0:0:
346,26,52523,2,0,B|350:83|350:83|323:205,1,161.999995056153
278,187,52748,1,0,0:0:0:0:
229,185,52823,2,0,B|205:83|205:83|210:25,1,161.999995056153,8|0,0:0|0:0,0:0:0:0:
302,304,53123,1,0,0:0:0:0:
119,74,53273,1,0,0:0:0:0:
409,283,53423,6,0,B|299:304|299:304|181:269|181:269|52:290,1,323.999990112305,8|0,0:0|0:0,0:0:0:0:
256,147,53873,1,0,0:0:0:0:
69,371,54023,1,8,0:0:0:0:
174,99,54173,1,0,0:0:0:0:
261,377,54323,2,0,P|356:382|427:359,1,161.999995056153
308,91,54623,1,8,0:0:0:0:
261,377,54773,1,0,0:0:0:0:
484,189,54923,2,0,P|388:184|317:207,1,161.999995056153
283,225,55148,1,0,0:0:0:0:
239,245,55223,6,0,B|152:253|-4:210|-4:210|84:198,1,323.999990112305,8|0,0:0|0:0,0:0:0:0:
308,91,55673,1,0,0:0:0:0:
149,336,55823,1,8,0:0:0:0:
155,44,55973,1,0,0:0:0:0:
345,264,56123,1,0,0:0:0:0:
382,279,56198,1,0,0:0:0:0:
422,285,56273,1,0,0:0:0:0:
462,282,56348,1,0,0:0:0:0:
511,257,56423,6,0,P|375:277|288:98,1,323.999990112305,12|0,0:0|0:0,0:0:0:0:
490,17,56873,1,0,0:0:0:0:
211,103,57023,2,0,P|212:203|255:275,1,161.999995056153,8|0,0:0|0:0,0:0:0:0:
383,3,57323,2,0,P|382:103|339:175,1,161.999995056153
77,60,57623,2,0,P|118:208|270:232,1,323.999990112305,8|0,0:0|0:0,0:0:0:0:
77,61,58073,1,0,0:0:0:0:
355,147,58223,2,0,P|387:246|353:315,1,161.999995056153,8|0,0:0|0:0,0:0:0:0:
62,154,58523,2,0,B|128:149|159:109|159:109|226:101,1,161.999995056153
421,68,58823,5,8,0:0:0:0:
419,124,58898,1,0,0:0:0:0:
418,181,58973,1,0,0:0:0:0:
417,238,59048,1,0,0:0:0:0:
416,294,59123,1,2,0:0:0:0:
255,51,59273,1,0,0:0:0:0:
95,294,59423,5,8,0:0:0:0:
94,238,59498,1,0,0:0:0:0:
93,181,59573,1,0,0:0:0:0:
92,124,59648,1,0,0:0:0:0:
91,68,59723,1,2,0:0:0:0:
255,333,59873,1,0,0:0:0:0:
255,51,60023,5,8,0:0:0:0:
243,89,60098,1,0,0:0:0:0:
241,129,60173,1,0,0:0:0:0:
248,169,60248,1,0,0:0:0:0:
265,206,60323,1,0,0:0:0:0:
303,191,60398,1,0,0:0:0:0:
336,168,60473,1,0,0:0:0:0:
362,137,60548,1,0,0:0:0:0:
381,102,60623,5,8,0:0:0:0:
318,90,60698,1,0,0:0:0:0:
259,115,60773,1,0,0:0:0:0:
225,169,60848,1,0,0:0:0:0:
227,233,60923,1,0,0:0:0:0:
265,284,60998,1,0,0:0:0:0:
325,306,61073,1,0,0:0:0:0:
387,290,61148,1,0,0:0:0:0:
429,242,61223,6,0,B|325:189|325:189|118:193,1,323.999990112305,12|0,0:0|0:0,0:0:0:0:
358,24,61673,1,0,0:0:0:0:
93,319,61823,2,0,P|5:253|125:64,1,323.999990112305,8|0,0:0|0:0,0:0:0:0:
255,297,62273,1,0,0:0:0:0:
178,15,62423,6,0,B|176:66|176:66|147:190,1,161.999995056153,8|0,0:0|0:0,0:0:0:0:
442,169,62723,1,0,0:0:0:0:
182,302,62873,1,0,0:0:0:0:
182,302,62948,1,0,0:0:0:0:
182,302,63023,1,8,0:0:0:0:
302,36,63173,1,0,0:0:0:0:
418,303,63323,2,0,L|432:387,1,80.9999975280763
314,270,63473,2,0,L|327:190,1,80.9999975280763
217,308,63623,6,0,P|121:325|45:297,1,161.999995056153,8|0,0:0|0:0,0:0:0:0:
317,104,63923,2,0,P|413:87|489:115,1,161.999995056153
158,185,64223,2,0,B|141:107|141:107|146:17,1,161.999995056153,8|0,0:0|0:0,0:0:0:0:
393,233,64523,2,0,B|410:155|410:155|405:65,1,161.999995056153
182,302,64823,2,0,P|64:256|141:68,1,323.999990112305,8|0,0:0|0:0,0:0:0:0:
311,305,65273,1,0,0:0:0:0:
180,26,65423,6,0,L|84:10,1,80.9999975280763,8|0,0:0|0:0,0:0:0:0:
182,145,65573,2,0,L|278:129,1,80.9999975280763
401,67,65723,1,0,0:0:0:0:
395,123,65798,1,0,0:0:0:0:
390,179,65873,1,0,0:0:0:0:
384,236,65948,1,0,0:0:0:0:
379,292,66023,5,12,0:0:0:0:
287,50,66173,1,0,0:0:0:0:
199,293,66323,1,0,0:0:0:0:
287,50,66473,1,0,0:0:0:0:
379,292,66623,2,0,L|398:113,1,161.999995056153,8|0,0:0|0:0,0:0:0:0:
115,131,66923,2,0,L|132:292,1,161.999995056153
287,5,67223,5,12,0:0:0:0:
292,328,67373,1,0,0:0:0:0:
78,84,67523,1,0,0:0:0:0:
292,328,67673,1,0,0:0:0:0:
287,5,67823,2,0,B|277:60|277:60|288:219,1,161.999995056153,8|0,0:0|0:0,0:0:0:0:
22,183,68123,2,0,P|93:243|178:249,1,161.999995056153
145,89,68423,5,12,0:0:0:0:
252,209,68573,1,0,0:0:0:0:
62,100,68723,1,0,0:0:0:0:
333,200,68873,1,0,0:0:0:0:
207,30,69023,1,12,0:0:0:0:
163,236,69173,1,0,0:0:0:0:
287,5,69323,1,0,0:0:0:0:
80,258,69473,1,0,0:0:0:0:
371,115,69623,5,12,0:0:0:0:
425,126,69698,1,0,0:0:0:0:
464,167,69773,1,0,0:0:0:0:
473,222,69848,1,0,0:0:0:0:
450,273,69923,1,0,0:0:0:0:
403,302,69998,1,0,0:0:0:0:
347,300,70073,1,0,0:0:0:0:
302,267,70148,1,0,0:0:0:0:
283,214,70223,5,12,0:0:0:0:
248,286,70298,1,0,0:0:0:0:
178,323,70373,1,0,0:0:0:0:
99,310,70448,1,0,0:0:0:0:
43,253,70523,1,0,0:0:0:0:
32,174,70598,1,0,0:0:0:0:
71,104,70673,1,0,0:0:0:0:
143,71,70748,1,0,0:0:0:0:
221,87,70823,5,12,0:0:0:0:
256,192,70898,12,0,73223,0:0:0:0:
162,127,81623,6,0,P|155:178|172:216,1,67.5000025749208
268,113,81923,2,0,P|217:106|179:123,1,67.5000025749208
285,216,82223,2,0,P|292:165|275:127,1,67.5000025749208
179,230,82523,2,0,P|230:237|268:220,1,67.5000025749208
97,164,82823,1,8,0:0:0:0:
254,56,84023,6,0,L|254:148,1,67.5000025749208
258,328,84323,2,0,L|258:236,1,67.5000025749208
140,192,84623,2,0,L|48:192,1,67.5000025749208
372,192,84923,2,0,L|464:192,1,67.5000025749208
256,192,85223,1,8,0:0:0:0:
240,162,85673,5,2,0:0:0:0:
240,162,85823,2,2,L|229:253,1,67.5000025749208
363,124,86123,2,2,L|372:192,1,67.5000025749208
294,80,86423,5,8,0:0:0:0:
201,39,86573,1,0,0:0:0:0:
106,74,86723,2,0,L|39:139,1,67.5000025749208
107,209,87023,5,8,0:0:0:0:
200,250,87173,1,0,0:0:0:0:
295,215,87323,2,0,L|362:150,1,67.5000025749208
412,92,87623,5,8,0:0:0:0:
432,191,87773,1,0,0:0:0:0:
407,289,87923,1,0,0:0:0:0:
343,367,88073,1,0,0:0:0:0:
295,215,88223,2,0,P|291:178|298:134,1,67.5000025749208,8|0,0:0|0:0,0:0:0:0:
199,317,88523,2,0,P|202:283|199:249,1,67.5000025749208
94,164,88823,5,8,0:0:0:0:
194,171,88973,1,0,0:0:0:0:
278,115,89123,1,0,0:0:0:0:
312,19,89273,1,0,0:0:0:0:
350,176,89423,2,0,P|317:202|283:220,1,67.5000025749208,8|0,0:0|0:0,0:0:0:0:
136,35,89723,2,0,P|169:61|203:79,1,67.5000025749208
371,86,90023,5,4,0:0:0:0:
270,234,90173,1,4,0:0:0:0:
191,73,90323,1,4,0:0:0:0:
417,220,90473,1,12,0:0:0:0:
270,234,91223,6,0,P|188:248|136:230,1,112.5,8|0,0:0|0:0,0:0:0:0:
260,63,91523,1,0,0:0:0:0:
347,245,91673,1,0,0:0:0:0:
347,245,91748,1,0,0:0:0:0:
347,245,91823,2,0,L|366:370,1,112.5,8|0,0:0|0:0,0:0:0:0:
474,186,92123,2,0,L|490:74,1,112.5
299,145,92423,5,8,0:0:0:0:
425,250,92573,1,0,0:0:0:0:
370,54,92723,1,0,0:0:0:0:
353,218,92873,1,0,0:0:0:0:
230,28,93023,2,0,P|168:9|5:35,1,225,8|0,0:0|0:0,0:0:0:0:
111,233,93473,1,0,0:0:0:0:
274,113,93623,6,0,P|322:57|324:8,1,112.5,8|0,0:0|0:0,0:0:0:0:
353,218,93923,2,0,P|364:272|404:310,1,112.5
212,242,94223,2,0,P|139:162|177:8,1,225,8|0,0:0|0:0,0:0:0:0:
274,113,94673,1,0,0:0:0:0:
291,314,94823,2,0,P|216:348|165:338,1,112.5,8|0,0:0|0:0,0:0:0:0:
353,218,95123,2,0,P|428:252|479:242,1,112.5
336,59,95423,6,0,B|299:80|273:114|273:114|198:108|87:130,1,225,8|0,0:0|0:0,0:0:0:0:
277,265,95873,1,0,0:0:0:0:
85,197,96023,2,0,L|69:308,1,112.5,8|0,0:0|0:0,0:0:0:0:
277,265,96323,2,0,P|278:209|253:158,1,112.5
316,352,96623,6,0,B|358:283|358:283|383:104,1,225,8|0,0:0|0:0,0:0:0:0:
204,34,97073,1,0,0:0:0:0:
403,68,97223,2,0,P|473:89|536:77,1,112.5,8|0,0:0|0:0,0:0:0:0:
313,133,97523,2,0,P|243:154|180:142,1,112.5
14,27,97823,2,0,B|33:169|33:169|75:238,1,225,8|0,0:0|0:0,0:0:0:0:
204,34,98273,1,0,0:0:0:0:
188,258,98423,6,0,P|161:312|107:351,1,112.5,8|0,0:0|0:0,0:0:0:0:
309,219,98723,2,0,P|369:215|430:242,1,112.5
209,142,99023,2,0,P|175:91|168:25,1,112.5,8|0,0:0|0:0,0:0:0:0:
344,40,99323,2,0,P|334:95|303:142,1,112.5
84,81,99623,5,8,0:0:0:0:
254,227,99773,1,0,0:0:0:0:
254,227,99848,1,0,0:0:0:0:
254,227,99923,1,0,0:0:0:0:
172,17,100073,2,0,L|167:90,1,56.25
140,183,100223,1,8,0:0:0:0:
344,40,100373,5,0,0:0:0:0:
344,40,100448,1,0,0:0:0:0:
344,40,100523,1,0,0:0:0:0:
343,90,100598,1,0,0:0:0:0:
342,141,100673,1,0,0:0:0:0:
342,191,100748,1,0,0:0:0:0:
341,242,100823,6,0,L|309:345,1,90,4|0,0:0|0:0,0:0:0:0:
229,211,101123,2,0,L|196:313,1,90
174,67,101423,2,0,P|221:59|274:75,1,90
229,211,101723,2,0,P|272:220|316:212,1,90
433,126,102023,5,4,0:0:0:0:
437,269,102173,1,0,0:0:0:0:
461,127,102323,1,0,0:0:0:0:
465,270,102473,1,0,0:0:0:0:
345,189,102623,2,0,P|301:179|257:187,1,90
119,233,102923,2,0,P|75:241|31:231,1,90
155,96,103223,6,0,B|204:96|204:96|330:56,1,180,4|0,0:0|0:0,0:0:0:0:
258,181,103673,1,0,0:0:0:0:
114,166,103823,2,0,P|76:119|77:82,1,90
258,181,104123,2,0,P|250:224|218:255,1,90
197,56,104423,2,0,P|244:29|358:61,1,180,4|0,0:0|0:0,0:0:0:0:
411,196,104873,1,0,0:0:0:0:
274,142,105023,2,0,L|258:235,1,90
115,212,105323,2,0,L|131:305,1,90
308,330,105623,6,0,P|372:289|411:186,1,180,4|0,0:0|0:0,0:0:0:0:
257,248,106073,1,0,0:0:0:0:
101,195,106223,2,0,P|131:278|204:330,1,180
257,176,106673,1,0,0:0:0:0:
351,307,106823,6,0,P|415:328|464:323,1,90,4|0,0:0|0:0,0:0:0:0:
423,165,107123,2,0,P|359:144|310:149,1,90
203,265,107423,2,0,P|174:201|206:88,1,180
377,82,107873,1,0,0:0:0:0:
377,82,107948,1,0,0:0:0:0:
377,82,108023,2,0,P|313:111|200:79,1,180,4|0,0:0|0:0,0:0:0:0:
44,12,108473,1,0,0:0:0:0:
136,166,108623,6,0,P|149:223|143:269,1,90
327,252,108923,2,0,P|314:309|320:355,1,90
402,180,109223,5,4,0:0:0:0:
223,158,109373,1,0,0:0:0:0:
223,158,109448,1,0,0:0:0:0:
223,158,109523,1,0,0:0:0:0:
432,299,109673,1,0,0:0:0:0:
291,35,109823,5,12,0:0:0:0:
287,70,109898,1,0,0:0:0:0:
283,106,109973,1,0,0:0:0:0:
280,142,110048,1,0,0:0:0:0:
276,178,110123,1,0,0:0:0:0:
272,214,110198,1,0,0:0:0:0:
269,249,110273,1,0,0:0:0:0:
265,285,110348,1,0,0:0:0:0:
243,330,110423,6,0,P|168:352|13:315,1,225,12|0,0:0|0:0,0:0:0:0:
136,126,110873,1,0,0:0:0:0:
329,241,111023,2,0,P|339:316|315:365,1,112.5,8|0,0:0|0:0,0:0:0:0:
278,128,111323,2,0,P|353:118|402:142,1,112.5
184,231,111623,2,0,B|179:170|136:126|136:126|157:75|138:8,1,225,8|0,0:0|0:0,0:0:0:0:
62,233,112073,1,0,0:0:0:0:
264,134,112223,2,0,P|324:98|352:67,1,112.5,8|0,0:0|0:0,0:0:0:0:
135,134,112523,2,0,P|75:98|47:67,1,112.5
198,234,112823,6,0,B|253:269|384:291|384:291|345:249,1,225,8|0,0:0|0:0,0:0:0:0:
257,69,113273,1,0,0:0:0:0:
108,238,113423,2,0,L|96:357,1,112.5,8|0,0:0|0:0,0:0:0:0:
312,285,113723,2,0,L|300:173,1,112.5
132,20,114023,5,8,0:0:0:0:
47,161,114173,2,0,L|-10:204,2,56.25
257,69,114473,2,0,L|323:64,2,56.25,0|0|8,0:0|0:0|0:0,0:0:0:0:
89,272,114773,2,0,L|73:340,1,56.25
178,279,114923,2,0,L|207:167,1,112.5
342,94,115223,5,8,0:0:0:0:
270,214,115373,1,0,0:0:0:0:
406,138,115523,1,0,0:0:0:0:
206,170,115673,1,0,0:0:0:0:
435,210,115823,1,8,0:0:0:0:
177,98,115973,1,0,0:0:0:0:
438,285,116123,1,0,0:0:0:0:
174,23,116273,1,0,0:0:0:0:
331,228,116423,6,0,P|346:287|330:342,1,112.5,8|0,0:0|0:0,0:0:0:0:
284,350,116648,1,0,0:0:0:0:
234,341,116723,2,0,P|221:286|236:233,1,112.5
263,178,116948,1,0,0:0:0:0:
283,119,117023,2,0,P|295:64|280:11,1,112.5,8|0,0:0|0:0,0:0:0:0:
78,123,117323,2,0,P|62:176|75:230,1,112.5
299,216,117623,5,12,0:0:0:0:
328,201,117698,1,0,0:0:0:0:
354,179,117773,1,0,0:0:0:0:
371,150,117848,1,0,0:0:0:0:
379,118,117923,1,0,0:0:0:0:
378,85,117998,1,0,0:0:0:0:
366,53,118073,1,0,0:0:0:0:
346,25,118148,1,0,0:0:0:0:
319,6,118223,5,8,0:0:0:0:
385,0,118298,1,0,0:0:0:0:
445,25,118373,1,0,0:0:0:0:
483,80,118448,1,0,0:0:0:0:
485,146,118523,1,0,0:0:0:0:
453,205,118598,1,0,0:0:0:0:
395,237,118673,1,0,0:0:0:0:
328,234,118748,1,0,0:0:0:0:
273,197,118823,6,0,L|274:326,1,112.5,8|12,0:0|0:0,0:0:0:0:
247,333,119273,1,12,0:0:0:0:
215,110,119423,1,8,0:0:0:0:
223,95,119498,5,0,0:0:0:0:
242,83,119573,1,0,0:0:0:0:
273,70,119648,1,0,0:0:0:0:
317,78,119723,1,0,0:0:0:0:
360,113,119798,1,0,0:0:0:0:
379,172,119873,1,0,0:0:0:0:
348,232,119948,1,0,0:0:0:0:
281,262,120023,6,0,B|278:141|278:141|331:5|331:5|346:92,1,323.999990112305,12|0,0:0|0:0,0:0:0:0:
333,354,120473,1,0,0:0:0:0:
158,120,120623,2,0,P|87:102|-8:123,1,161.999995056153,8|0,0:0|0:0,0:0:0:0:
176,352,120923,2,0,P|247:370|342:349,1,161.999995056153
256,71,121223,5,8,0:0:0:0:
96,315,121373,1,0,0:0:0:0:
370,216,121523,1,0,0:0:0:0:
92,126,121673,1,0,0:0:0:0:
92,126,121748,1,0,0:0:0:0:
92,126,121823,1,8,0:0:0:0:
272,355,121973,1,0,0:0:0:0:
170,81,122123,2,0,L|181:-2,1,80.9999975280763
330,63,122273,2,0,L|340:143,1,80.9999975280763
192,208,122423,6,0,P|106:223|18:199,1,161.999995056153,8|0,0:0|0:0,0:0:0:0:
254,12,122723,1,0,0:0:0:0:
252,303,122873,1,0,0:0:0:0:
424,67,123023,1,8,0:0:0:0:
192,208,123173,1,0,0:0:0:0:
467,222,123323,1,0,0:0:0:0:
299,160,123473,1,0,0:0:0:0:
366,324,123623,6,0,B|383:230|383:230|366:89|366:89|392:2,1,323.999990112305,8|0,0:0|0:0,0:0:0:0:
256,265,124073,1,0,0:0:0:0:
73,37,124223,2,0,L|53:135,1,80.9999975280763,8|0,0:0|0:0,0:0:0:0:
185,185,124373,2,0,L|168:105,1,80.9999975280763
301,171,124523,1,0,0:0:0:0:
343,209,124598,1,0,0:0:0:0:
393,235,124673,1,0,0:0:0:0:
448,248,124748,1,0,0:0:0:0:
505,247,124823,6,0,P|431:309|212:274,1,323.999990112305,12|0,0:0|0:0,0:0:0:0:
73,37,125273,1,0,0:0:0:0:
96,327,125423,2,0,B|119:253|119:253|123:162,1,161.999995056153,8|0,0:0|0:0,0:0:0:0:
386,44,125723,2,0,B|389:128|389:128|412:202,1,161.999995056153
181,21,126023,2,0,B|169:187|169:187|96:327,1,323.999990112305,8|0,0:0|0:0,0:0:0:0:
73,37,126473,1,0,0:0:0:0:
282,240,126623,2,0,P|370:259|457:239,1,161.999995056153,8|0,0:0|0:0,0:0:0:0:
158,162,126923,2,0,P|70:181|-17:161,1,161.999995056153
296,80,127223,5,8,0:0:0:0:
350,61,127298,1,0,0:0:0:0:
404,43,127373,1,0,0:0:0:0:
457,24,127448,1,0,0:0:0:0:
511,5,127523,1,4,0:0:0:0:
425,283,127673,1,0,0:0:0:0:
216,80,127823,5,8,0:0:0:0:
162,61,127898,1,0,0:0:0:0:
108,43,127973,1,0,0:0:0:0:
55,24,128048,1,0,0:0:0:0:
1,5,128123,1,4,0:0:0:0:
87,283,128273,1,0,0:0:0:0:
350,157,128423,5,8,0:0:0:0:
389,153,128498,1,0,0:0:0:0:
426,168,128573,1,0,0:0:0:0:
452,200,128648,1,0,0:0:0:0:
459,239,128723,1,0,0:0:0:0:
447,277,128798,1,0,0:0:0:0:
418,305,128873,1,0,0:0:0:0:
379,316,128948,1,0,0:0:0:0:
340,307,129023,5,8,0:0:0:0:
285,274,129098,1,0,0:0:0:0:
243,225,129173,1,0,0:0:0:0:
218,165,129248,1,0,0:0:0:0:
212,101,129323,1,0,0:0:0:0:
274,85,129398,1,0,0:0:0:0:
338,90,129473,1,0,0:0:0:0:
398,115,129548,1,0,0:0:0:0:
447,156,129623,6,0,B|346:193|346:193|122:192,1,323.999990112305,12|0,0:0|0:0,0:0:0:0:
361,11,130073,1,0,0:0:0:0:
60,130,130223,2,0,P|38:209|92:287,1,161.999995056153,8|0,0:0|0:0,0:0:0:0:
360,206,130523,2,0,B|310:186|310:186|189:187,1,161.999995056153
455,42,130823,5,8,0:0:0:0:
377,323,130973,1,0,0:0:0:0:
259,56,131123,1,0,0:0:0:0:
371,218,131273,1,0,0:0:0:0:
148,30,131423,2,0,B|145:78|158:116|158:116|116:361,1,323.999990112305,8|0,0:0|0:0,0:0:0:0:
255,90,131873,1,0,0:0:0:0:
361,365,132023,6,0,P|394:293|371:218,1,161.999995056153,8|0,0:0|0:0,0:0:0:0:
87,287,132323,2,0,P|159:319|234:296,1,161.999995056153
51,69,132623,1,8,0:0:0:0:
34,360,132773,1,0,0:0:0:0:
195,117,132923,1,0,0:0:0:0:
34,360,133073,1,0,0:0:0:0:
170,8,133223,2,0,B|198:65|195:118|195:118|265:204|302:307,1,323.999990112305,8|0,0:0|0:0,0:0:0:0:
98,87,133673,1,0,0:0:0:0:
350,233,133823,5,8,0:0:0:0:
404,219,133898,1,0,0:0:0:0:
450,186,133973,1,0,0:0:0:0:
482,139,134048,1,0,0:0:0:0:
494,84,134123,1,0,0:0:0:0:
421,118,134198,1,0,0:0:0:0:
341,130,134273,1,0,0:0:0:0:
261,119,134348,1,0,0:0:0:0:
188,86,134423,5,12,0:0:0:0:
436,12,134573,1,0,0:0:0:0:
191,228,134723,1,0,0:0:0:0:
313,0,134873,1,0,0:0:0:0:
262,319,135023,5,8,0:0:0:0:
210,340,135098,1,0,0:0:0:0:
154,334,135173,1,0,0:0:0:0:
107,303,135248,1,0,0:0:0:0:
81,253,135323,5,0,0:0:0:0:
161,239,135398,1,0,0:0:0:0:
241,225,135473,1,0,0:0:0:0:
320,211,135548,1,0,0:0:0:0:
400,198,135623,5,12,0:0:0:0:
144,158,135773,1,0,0:0:0:0:
458,82,135923,1,0,0:0:0:0:
248,235,136073,1,0,0:0:0:0:
458,82,136223,5,8,0:0:0:0:
471,136,136298,1,0,0:0:0:0:
470,193,136373,1,0,0:0:0:0:
456,248,136448,1,0,0:0:0:0:
428,297,136523,1,0,0:0:0:0:
382,231,136598,1,0,0:0:0:0:
360,153,136673,1,0,0:0:0:0:
366,73,136748,1,0,0:0:0:0:
398,0,136823,5,12,0:0:0:0:
275,150,136973,1,0,0:0:0:0:
466,114,137123,1,0,0:0:0:0:
303,7,137273,1,0,0:0:0:0:
408,257,137423,1,12,0:0:0:0:
135,152,137573,1,0,0:0:0:0:
416,75,137723,1,0,0:0:0:0:
237,305,137873,1,0,0:0:0:0:
259,14,138023,5,12,0:0:0:0:
259,58,138098,1,0,0:0:0:0:
260,103,138173,1,0,0:0:0:0:
260,147,138248,1,0,0:0:0:0:
261,192,138323,1,0,0:0:0:0:
261,236,138398,1,0,0:0:0:0:
262,281,138473,1,0,0:0:0:0:
262,325,138548,1,0,0:0:0:0:
264,370,138623,5,12,0:0:0:0:
203,317,138698,1,0,0:0:0:0:
186,239,138773,1,0,0:0:0:0:
218,166,138848,1,0,0:0:0:0:
287,126,138923,1,0,0:0:0:0:
366,135,138998,1,0,0:0:0:0:
425,189,139073,1,0,0:0:0:0:
440,267,139148,1,0,0:0:0:0:
407,339,139223,6,0,P|333:355|243:328,1,135.000005149842,12|0,0:0|0:0,0:0:0:0:
132,266,139523,2,0,P|65:255|0:271,1,135.000005149842
214,103,139823,2,0,L|228:265,1,135.000005149842,8|0,0:0|0:0,0:0:0:0:
341,37,140123,2,0,L|327:199,1,135.000005149842
256,26,140423,5,8,0:0:0:0:
411,71,140573,1,0,0:0:0:0:
252,39,140723,2,0,P|180:24|90:58,1,135.000005149842
74,193,141023,1,8,0:0:0:0:
43,33,141173,1,0,0:0:0:0:
84,189,141323,2,0,P|156:204|246:170,1,135.000005149842
344,90,141623,5,8,0:0:0:0:
294,244,141773,1,0,0:0:0:0:
294,244,141848,1,0,0:0:0:0:
294,244,141923,1,0,0:0:0:0:
222,98,142073,1,0,0:0:0:0:
397,199,142223,1,8,0:0:0:0:
219,295,142373,1,0,0:0:0:0:
219,295,142448,1,0,0:0:0:0:
219,295,142523,1,0,0:0:0:0:
344,90,142673,1,0,0:0:0:0:
278,351,142823,6,0,B|209:332|209:332|134:340,1,135.000005149842,8|0,0:0|0:0,0:0:0:0:
10,168,143123,2,0,B|79:187|79:187|154:179,1,135.000005149842
291,24,143423,1,8,0:0:0:0:
244,188,143573,1,0,0:0:0:0:
244,179,143648,1,0,0:0:0:0:
243,169,143723,5,0,0:0:0:0:
273,205,143798,1,0,0:0:0:0:
303,242,143873,1,0,0:0:0:0:
333,278,143948,1,0,0:0:0:0:
363,315,144023,6,0,L|362:170,1,135.000005149842,8|0,0:0|0:0,0:0:0:0:
164,89,144323,1,0,0:0:0:0:
372,33,144473,2,0,L|312:82,1,67.5000025749208
243,169,144623,2,0,L|242:303,1,135.000005149842,8|0,0:0|0:0,0:0:0:0:
164,89,144923,1,0,0:0:0:0:
349,199,145073,1,0,0:0:0:0:
349,199,145148,1,0,0:0:0:0:
349,199,145223,6,0,P|432:216|490:192,1,135.000005149842,8|0,0:0|0:0,0:0:0:0:
270,260,145523,2,0,P|316:330|374:354,1,135.000005149842
175,193,145823,5,8,0:0:0:0:
417,214,145973,1,0,0:0:0:0:
223,361,146123,1,0,0:0:0:0:
315,136,146273,2,0,L|346:68,1,67.5000025749208
417,214,146423,6,0,P|430:297|416:356,1,135.000005149842,8|0,0:0|0:0,0:0:0:0:
379,347,146648,1,0,0:0:0:0:
338,343,146723,2,0,P|327:276|340:210,1,135.000005149842,8|0,0:0|0:0,0:0:0:0:
381,174,146948,1,0,0:0:0:0:
413,132,147023,2,0,P|423:65|410:0,1,135.000005149842,8|0,0:0|0:0,0:0:0:0:
344,17,147248,1,0,0:0:0:0:
278,34,147323,2,0,B|210:47|210:47|79:42,1,135.000005149842,8|0,0:0|0:0,0:0:0:0:
73,22,147548,1,0,0:0:0:0:
1,2,147623,6,0,L|11:137,1,135.000005149842,8|0,0:0|0:0,0:0:0:0:
210,96,147923,5,0,0:0:0:0:
201,142,147998,1,0,0:0:0:0:
178,183,148073,1,0,0:0:0:0:
143,214,148148,1,0,0:0:0:0:
100,233,148223,5,8,0:0:0:0:
99,167,148298,1,0,0:0:0:0:
139,114,148373,1,0,0:0:0:0:
203,96,148448,1,0,0:0:0:0:
264,120,148523,1,0,0:0:0:0:
298,177,148598,1,0,0:0:0:0:
291,243,148673,1,0,0:0:0:0:
245,291,148748,1,0,0:0:0:0:
179,301,148823,6,0,P|112:271|72:200,1,135.000005149842,12|0,0:0|0:0,0:0:0:0:
257,57,149123,1,0,0:0:0:0:
433,222,149273,2,0,P|394:275|332:301,1,135.000005149842,4|0,0:0|0:0,0:0:0:0:
354,120,149573,2,0,P|407:160|433:222,1,135.000005149842,4|0,0:0|0:0,0:0:0:0:
188,222,149873,1,0,0:0:0:0:
433,221,150023,6,0,P|407:282|354:322,1,135.000005149842,8|0,0:0|0:0,0:0:0:0:
78,221,150323,2,0,P|104:282|157:322,1,135.000005149842
255,99,150623,1,8,0:0:0:0:
255,341,150773,1,0,0:0:0:0:
255,341,150848,1,0,0:0:0:0:
255,341,150923,1,0,0:0:0:0:
118,140,151073,2,0,L|178:188,1,67.5000025749208
336,242,151223,6,0,P|421:259|481:236,1,135.000005149842,8|0,0:0|0:0,0:0:0:0:
309,95,151523,2,0,L|231:80,1,67.5000025749208
138,115,151673,2,0,L|60:100,1,67.5000025749208
199,23,151823,2,0,L|222:177,1,135.000005149842,8|0,0:0|0:0,0:0:0:0:
242,198,152048,1,0,0:0:0:0:
263,240,152123,2,0,L|286:394,1,135.000005149842
384,283,152423,5,8,0:0:0:0:
282,373,152573,1,0,0:0:0:0:
378,200,152723,1,0,0:0:0:0:
207,365,152873,1,0,0:0:0:0:
372,120,153023,1,8,0:0:0:0:
134,348,153173,1,0,0:0:0:0:
134,348,153248,1,0,0:0:0:0:
134,348,153323,6,0,P|124:275|135:202,1,135.000005149842
160,177,153548,1,0,0:0:0:0:
184,136,153623,2,0,P|193:63|183:-10,1,135.000005149842,12|0,0:0|0:0,0:0:0:0:
25,168,153923,1,0,0:0:0:0:
254,174,154073,1,0,0:0:0:0:
83,20,154223,5,8,0:0:0:0:
89,53,154298,1,0,0:0:0:0:
96,86,154373,1,0,0:0:0:0:
102,119,154448,1,0,0:0:0:0:
109,152,154523,1,0,0:0:0:0:
144,121,154598,1,0,0:0:0:0:
179,89,154673,1,0,0:0:0:0:
215,58,154748,1,0,0:0:0:0:
250,27,154823,5,8,0:0:0:0:
265,92,154898,1,0,0:0:0:0:
251,158,154973,1,0,0:0:0:0:
211,211,155048,1,0,0:0:0:0:
152,244,155123,1,0,0:0:0:0:
94,211,155198,1,0,0:0:0:0:
54,157,155273,1,0,0:0:0:0:
40,92,155348,1,0,0:0:0:0:
55,27,155423,1,8,0:0:0:0:
250,27,155573,5,0,0:0:0:0:
265,92,155648,1,0,0:0:0:0:
251,158,155723,1,0,0:0:0:0:
211,211,155798,1,0,0:0:0:0:
152,244,155873,1,0,0:0:0:0:
84,251,155948,1,0,0:0:0:0:
39,231,156023,5,8,0:0:0:0:
39,237,156098,1,0,0:0:0:0:
39,243,156173,1,0,0:0:0:0:
39,249,156248,1,0,0:0:0:0:
39,255,156323,5,0,0:0:0:0:
56,244,156398,1,0,0:0:0:0:
72,232,156473,1,0,0:0:0:0:
87,218,156548,1,0,0:0:0:0:
102,205,156623,5,8,0:0:0:0:
121,232,156698,1,0,0:0:0:0:
140,259,156773,1,0,0:0:0:0:
158,287,156848,1,0,0:0:0:0:
174,316,156923,5,0,0:0:0:0:
197,275,156998,1,0,0:0:0:0:
221,234,157073,1,0,0:0:0:0:
245,193,157148,1,0,0:0:0:0:
267,148,157223,5,8,0:0:0:0:
323,112,157298,1,0,0:0:0:0:
389,113,157373,1,0,0:0:0:0:
444,150,157448,1,0,0:0:0:0:
469,212,157523,1,0,0:0:0:0:
457,277,157598,1,0,0:0:0:0:
410,325,157673,1,0,0:0:0:0:
345,339,157748,1,0,0:0:0:0:
283,315,157823,5,8,0:0:0:0:
240,263,157898,1,0,0:0:0:0:
185,222,157973,1,0,0:0:0:0:
121,205,158048,1,0,0:0:0:0:
65,239,158123,1,0,0:0:0:0:
51,304,158198,1,0,0:0:0:0:
88,358,158273,1,0,0:0:0:0:
152,369,158348,1,0,0:0:0:0:
205,330,158423,6,0,P|271:320|337:331,1,135.000005149842,8|0,0:0|0:0,0:0:0:0:
251,158,158723,2,0,P|176:169|98:152,1,135.000005149842
253,46,159023,1,0,0:0:0:0:
318,208,159173,1,0,0:0:0:0:
377,42,159323,2,0,B|374:92|374:92|386:123|393:180,1,135.000005149842
222,129,159623,1,8,0:0:0:0:
273,296,159773,1,0,0:0:0:0:
112,224,159923,2,0,B|118:172|130:141|130:141|127:91,1,135.000005149842
196,253,160223,5,0,0:0:0:0:
129,355,160373,1,0,0:0:0:0:
263,151,160523,1,0,0:0:0:0:
196,253,160673,1,0,0:0:0:0:
332,51,160823,2,0,B|354:123|354:123|339:243|339:243|360:331,1,270.000010299683,8|0,0:0|0:0,0:0:0:0:
491,110,161273,1,0,0:0:0:0:
250,141,161423,6,0,P|168:152|105:138,1,135.000005149842
279,323,161723,2,0,P|213:272|178:218,1,135.000005149842
410,323,162023,2,0,B|463:273|488:129|488:129|454:188,1,270.000010299683,8|0,0:0|0:0,0:0:0:0:
341,379,162473,1,0,0:0:0:0:
342,190,162623,2,0,L|343:54,1,135.000005149842
169,55,162923,2,0,L|170:190,1,135.000005149842
255,360,163223,6,0,L|255:82,1,270.000010299683,12|0,0:0|0:0,0:0:0:0:
352,253,163673,1,0,0:0:0:0:
166,214,163823,2,0,P|89:199|17:223,1,135.000005149842
272,267,164123,2,0,P|349:252|421:276,1,135.000005149842
168,335,164423,2,0,B|166:215|166:215|205:44,1,270.000010299683,8|0,0:0|0:0,0:0:0:0:
226,68,164798,1,0,0:0:0:0:
253,68,164873,1,0,0:0:0:0:
279,68,164948,1,0,0:0:0:0:
305,68,165023,6,0,B|338:214|338:214|336:334,1,270.000010299683
431,170,165473,1,0,0:0:0:0:
193,241,165623,2,0,P|107:241|197:173,1,270.000010299683,8|0,0:0|0:0,0:0:0:0:
331,290,166073,1,0,0:0:0:0:
151,349,166223,2,0,P|64:326|26:280,1,135.000005149842
331,290,166523,2,0,P|418:267|456:221,1,135.000005149842
257,81,166823,5,8,0:0:0:0:
255,323,166973,1,0,0:0:0:0:
255,323,167048,1,0,0:0:0:0:
255,323,167123,1,0,0:0:0:0:
102,134,167273,1,0,0:0:0:0:
339,185,167423,6,0,L|437:148,1,67.5000025749208,12|0,0:0|0:0,0:0:0:0:
475,64,167573,1,0,0:0:0:0:
212,41,167723,2,0,L|197:130,1,67.5000025749208,12|0,0:0|0:0,0:0:0:0:
195,228,167873,1,0,0:0:0:0:
68,20,168023,6,0,B|75:98|75:98|47:309,1,270.000010299683,12|0,0:0|0:0,0:0:0:0:
229,124,168473,1,0,0:0:0:0:
128,345,168623,2,0,B|88:370|40:361|40:361|-3:342,1,135.000005149842,8|0,0:0|0:0,0:0:0:0:
131,137,168923,2,0,B|128:209|128:209|105:270,1,135.000005149842
69,236,169148,1,0,0:0:0:0:
40,198,169223,2,0,P|35:90|186:34,1,270.000010299683,8|0,0:0|0:0,0:0:0:0:
256,193,169673,1,0,0:0:0:0:
130,334,169823,2,0,P|60:347|-23:315,1,135.000005149842,8|0,0:0|0:0,0:0:0:0:
340,341,170123,2,0,P|270:354|187:322,1,135.000005149842
398,143,170423,6,0,B|439:237|429:345|429:345|406:279,1,270.000010299683,8|0,0:0|0:0,0:0:0:0:
257,94,170873,1,0,0:0:0:0:
103,285,171023,2,0,B|83:345|83:345|73:237|114:143,1,270.000010299683,8|0,0:0|0:0,0:0:0:0:
254,343,171473,1,0,0:0:0:0:
196,156,171623,5,8,0:0:0:0:
304,231,171773,1,0,0:0:0:0:
208,231,171923,1,0,0:0:0:0:
316,156,172073,1,0,0:0:0:0:
257,290,172223,1,8,0:0:0:0:
257,94,172373,1,0,0:0:0:0:
257,73,172448,1,0,0:0:0:0:
257,52,172523,2,0,L|259:192,1,135.000005149842
366,105,172823,5,8,0:0:0:0:
368,239,172973,1,0,0:0:0:0:
465,145,173123,1,0,0:0:0:0:
467,279,173273,1,0,0:0:0:0:
358,61,173423,1,8,0:0:0:0:
343,303,173573,1,0,0:0:0:0:
473,98,173723,1,0,0:0:0:0:
458,340,173873,1,0,0:0:0:0:
216,219,174023,5,8,0:0:0:0:
185,206,174098,1,0,0:0:0:0:
152,200,174173,1,0,0:0:0:0:
118,200,174248,1,0,0:0:0:0:
85,206,174323,1,0,0:0:0:0:
50,228,174398,1,0,0:0:0:0:
30,270,174473,1,0,0:0:0:0:
31,323,174548,1,0,0:0:0:0:
61,367,174623,5,8,0:0:0:0:
126,383,174698,1,0,0:0:0:0:
187,358,174773,1,0,0:0:0:0:
224,302,174848,1,0,0:0:0:0:
221,236,174923,1,0,0:0:0:0:
198,172,174998,1,0,0:0:0:0:
201,104,175073,1,0,0:0:0:0:
221,39,175148,1,0,0:0:0:0:
276,0,175223,6,0,L|348:4,1,67.5000025749208,8|0,0:0|0:0,0:0:0:0:
201,104,175373,2,0,L|129:108,1,67.5000025749208
339,78,175523,2,0,L|411:82,1,67.5000025749208
201,197,175673,2,0,L|129:201,1,67.5000025749208
401,158,175823,6,0,L|473:159,1,67.5000025749208,8|0,0:0|0:0,0:0:0:0:
213,70,175973,2,0,L|154:21,1,67.5000025749208
342,275,176123,2,0,L|377:337,1,67.5000025749208
323,67,176273,2,0,L|335:-8,1,67.5000025749208
201,274,176423,6,0,L|147:348,1,90.0000034332277,4|0,0:0|0:0,0:0:0:0:
311,110,176623,6,0,L|365:36,1,90.0000034332277,4|0,0:0|0:0,0:0:0:0:
155,131,176823,1,0,0:0:0:0:
83,135,176923,1,0,0:0:0:0:
12,119,177023,2,0,L|16:26,1,90.0000034332277,4|0,0:0|0:0,0:0:0:0:
213,69,177223,6,4,L|253:107,4,45.0000017166138
253,133,178823,6,0,L|255:229,1,67.5000025749208
229,152,179123,2,0,L|231:248,1,67.5000025749208
144,91,179423,2,0,L|146:187,1,67.5000025749208
120,110,179723,2,0,L|122:206,1,67.5000025749208
222,42,180023,1,0,0:0:0:0:
256,181,181223,6,0,L|257:253,2,67.5000025749208
256,72,181673,1,0,0:0:0:0:
174,218,181823,2,0,L|175:290,2,67.5000025749208
174,109,182273,1,0,0:0:0:0:
93,257,182423,6,2,L|93:285,1,16.8750006437302
37,186,182873,5,0,0:0:0:0:
37,186,183023,2,0,L|37:266,1,67.5000025749208
119,147,183323,2,0,L|119:227,1,67.5000025749208
213,102,183623,6,0,P|257:95|291:108,1,67.5000025749208
375,148,183923,2,0,P|331:141|297:154,1,67.5000025749208
175,221,184223,2,0,P|219:214|253:227,1,67.5000025749208
337,267,184523,2,0,P|293:260|259:273,1,67.5000025749208
99,318,184823,6,0,P|59:272|61:176,1,135.000005149842
141,138,185273,1,0,0:0:0:0:
211,219,185423,2,0,L|252:283,1,67.5000025749208
291,181,185723,2,0,L|250:245,1,67.5000025749208
256,75,186023,1,0,0:0:0:0:
261,105,187823,6,0,P|236:117|259:56,1,157.5
286,56,188423,6,0,P|334:72|438:39,1,157.5
466,8,189023,6,0,P|482:56|449:160,1,157.5
376,185,189623,6,0,P|269:207|196:181,1,161.999995056153,12|0,0:0|0:0,0:0:0:0:
482,320,189923,1,0,0:0:0:0:
294,96,190073,1,0,0:0:0:0:
294,96,190148,1,0,0:0:0:0:
294,96,190223,2,0,B|280:179|280:179|293:259,1,161.999995056153,8|0,0:0|0:0,0:0:0:0:
111,24,190523,2,0,B|124:107|124:107|112:187,1,161.999995056153
352,18,190823,5,8,0:0:0:0:
255,293,190973,1,0,0:0:0:0:
352,18,191123,1,0,0:0:0:0:
233,191,191273,1,0,0:0:0:0:
475,29,191423,5,8,0:0:0:0:
183,16,191573,1,0,0:0:0:0:
512,141,191723,1,0,0:0:0:0:
266,56,191873,1,0,0:0:0:0:
491,288,192023,6,0,P|419:236|387:8,1,323.999990112305,8|0,0:0|0:0,0:0:0:0:
491,288,192473,1,0,0:0:0:0:
200,268,192623,2,0,P|101:249|37:271,1,161.999995056153,8|0,0:0|0:0,0:0:0:0:
249,56,192923,1,0,0:0:0:0:
254,112,192998,1,0,0:0:0:0:
259,168,193073,1,0,0:0:0:0:
265,225,193148,1,0,0:0:0:0:
270,281,193223,6,0,P|352:251|357:26,1,323.999990112305,12|0,0:0|0:0,0:0:0:0:
88,115,193673,1,0,0:0:0:0:
224,372,193823,2,0,P|314:372|375:309,1,161.999995056153,8|0,0:0|0:0,0:0:0:0:
104,196,194123,2,0,P|166:244|245:240,1,161.999995056153
39,34,194423,2,0,B|15:139|15:139|44:374,1,323.999990112305,8|0,0:0|0:0,0:0:0:0:
190,103,194873,1,0,0:0:0:0:
341,352,195023,2,0,P|428:372|508:349,1,161.999995056153,8|0,0:0|0:0,0:0:0:0:
249,196,195323,2,0,L|58:190,1,161.999995056153
361,93,195623,5,8,0:0:0:0:
394,138,195698,1,0,0:0:0:0:
408,192,195773,1,0,0:0:0:0:
401,248,195848,1,0,0:0:0:0:
374,297,195923,1,4,0:0:0:0:
255,31,196073,1,0,0:0:0:0:
137,297,196223,5,8,0:0:0:0:
110,248,196298,1,0,0:0:0:0:
103,192,196373,1,0,0:0:0:0:
117,138,196448,1,0,0:0:0:0:
151,93,196523,1,4,0:0:0:0:
255,365,196673,1,0,0:0:0:0:
151,93,196823,5,12,0:0:0:0:
104,80,196898,1,0,0:0:0:0:
59,95,196973,1,0,0:0:0:0:
30,133,197048,1,0,0:0:0:0:
26,181,197123,1,0,0:0:0:0:
50,223,197198,1,0,0:0:0:0:
92,244,197273,1,0,0:0:0:0:
140,239,197348,1,0,0:0:0:0:
176,208,197423,5,12,0:0:0:0:
233,178,197498,1,0,0:0:0:0:
296,186,197573,1,0,0:0:0:0:
342,230,197648,1,0,0:0:0:0:
353,293,197723,1,0,0:0:0:0:
326,350,197798,1,0,0:0:0:0:
270,381,197873,1,0,0:0:0:0:
207,373,197948,1,0,0:0:0:0:
160,329,198023,6,0,B|252:286|252:286|478:293,1,323.999990112305,12|0,0:0|0:0,0:0:0:0:
258,94,198473,1,0,0:0:0:0:
66,230,198623,2,0,P|35:328|65:412,1,161.999995056153,8|0,0:0|0:0,0:0:0:0:
334,328,198923,2,0,B|277:314|277:314|154:319,1,161.999995056153
363,166,199223,5,8,0:0:0:0:
485,376,199373,1,0,0:0:0:0:
495,133,199523,1,0,0:0:0:0:
283,333,199673,1,0,0:0:0:0:
283,333,199748,1,0,0:0:0:0:
283,333,199823,1,8,0:0:0:0:
321,43,199973,1,0,0:0:0:0:
466,297,200123,2,0,L|485:378,1,80.9999975280763
368,259,200273,2,0,L|386:180,1,80.9999975280763
283,333,200423,6,0,P|176:346|97:317,1,161.999995056153,8|0,0:0|0:0,0:0:0:0:
287,123,200723,5,0,0:0:0:0:
225,261,200873,1,0,0:0:0:0:
367,123,201023,1,8,0:0:0:0:
145,261,201173,1,0,0:0:0:0:
438,157,201323,1,0,0:0:0:0:
74,227,201473,1,0,0:0:0:0:
483,220,201623,6,0,B|380:257|343:252|343:252|283:186|187:152,1,323.999990112305,8|0,0:0|0:0,0:0:0:0:
405,31,202073,1,0,0:0:0:0:
82,0,202223,5,8,0:0:0:0:
142,318,202373,1,0,0:0:0:0:
321,48,202523,1,0,0:0:0:0:
324,104,202598,1,0,0:0:0:0:
327,161,202673,1,0,0:0:0:0:
330,217,202748,1,0,0:0:0:0:
333,274,202823,6,4,L|473:372,1,161.999995056153,12|4,0:0|0:0,0:0:0:0:
214,160,203123,2,0,P|158:214|74:257,1,161.999995056153
302,11,203423,5,8,0:0:0:0:
292,334,203573,1,0,0:0:0:0:
98,74,203723,2,0,L|91:173,1,80.9999975280763
236,80,203873,2,0,L|230:0,1,80.9999975280763
170,149,204023,6,4,P|233:175|328:125,1,161.999995056153,12|4,0:0|0:0,0:0:0:0:
16,17,204323,2,4,B|19:107|19:107|1:187,1,161.999995056153
230,13,204623,5,8,0:0:0:0:
232,53,204698,1,0,0:0:0:0:
234,93,204773,1,0,0:0:0:0:
236,134,204848,1,0,0:0:0:0:
239,174,204923,1,0,0:0:0:0:
241,215,204998,1,0,0:0:0:0:
243,255,205073,1,0,0:0:0:0:
246,296,205148,1,0,0:0:0:0:
248,336,205223,6,0,L|335:192,1,135
361,197,205523,6,0,L|478:14,1,202.500007724762,12|0,0:0|0:0,0:0:0:0:
505,21,205823,6,0,P|426:39|333:16,1,161.999995056153,12|0,0:0|0:0,0:0:0:0:
119,8,206123,2,0,L|137:196,1,161.999995056153
420,112,206423,1,8,0:0:0:0:
173,268,206573,1,0,0:0:0:0:
173,268,206648,1,0,0:0:0:0:
173,268,206723,1,0,0:0:0:0:
298,119,206873,1,0,0:0:0:0:
54,280,207023,2,0,P|97:357|169:384,1,161.999995056153,8|0,0:0|0:0,0:0:0:0:
256,107,207323,5,0,0:0:0:0:
203,86,207398,1,0,0:0:0:0:
150,66,207473,1,0,0:0:0:0:
97,46,207548,1,0,0:0:0:0:
44,26,207623,6,0,L|41:189,1,161.999995056153,8|0,0:0|0:0,0:0:0:0:
319,22,207923,1,0,0:0:0:0:
41,188,208073,1,0,0:0:0:0:
364,188,208223,2,0,P|379:292|359:358,1,161.999995056153,8|0,0:0|0:0,0:0:0:0:
184,76,208523,1,0,0:0:0:0:
488,186,208673,1,0,0:0:0:0:
202,339,208823,2,0,P|186:260|202:181,1,161.999995056153,8|0,0:0|0:0,0:0:0:0:
228,139,209048,1,0,0:0:0:0:
259,101,209123,2,0,B|160:84|160:84|71:95,1,161.999995056153
373,263,209423,5,8,0:0:0:0:
176,5,209573,1,0,0:0:0:0:
483,106,209723,1,0,0:0:0:0:
485,162,209798,1,0,0:0:0:0:
487,219,209873,1,0,0:0:0:0:
490,275,209948,1,0,0:0:0:0:
492,332,210023,6,0,P|400:373|325:359,1,161.999995056153,8|0,0:0|0:0,0:0:0:0:
131,311,210323,2,0,P|36:274|-6:211,1,161.999995056153
255,27,210623,2,0,B|203:70|203:70|131:163,1,161.999995056153,8|0,0:0|0:0,0:0:0:0:
443,17,210923,2,0,B|385:91|385:91|333:134,1,161.999995056153
284,143,211148,1,0,0:0:0:0:
235,139,211223,2,0,B|183:96|183:96|125:21,1,161.999995056153,8|0,0:0|0:0,0:0:0:0:
273,309,211523,2,0,P|393:329|451:305,1,161.999995056153
235,139,211823,5,8,0:0:0:0:
273,309,211973,1,0,0:0:0:0:
271,60,212123,1,0,0:0:0:0:
236,380,212273,1,0,0:0:0:0:
90,90,212423,5,8,0:0:0:0:
87,146,212498,1,0,0:0:0:0:
85,203,212573,1,0,0:0:0:0:
82,259,212648,1,0,0:0:0:0:
80,316,212723,1,4,0:0:0:0:
255,44,212873,1,0,0:0:0:0:
431,316,213023,5,8,0:0:0:0:
429,259,213098,1,0,0:0:0:0:
426,203,213173,1,0,0:0:0:0:
424,146,213248,1,0,0:0:0:0:
422,90,213323,1,4,0:0:0:0:
256,368,213473,1,0,0:0:0:0:
255,44,213623,5,12,0:0:0:0:
255,84,213698,1,0,0:0:0:0:
255,124,213773,1,0,0:0:0:0:
255,165,213848,1,0,0:0:0:0:
255,205,213923,1,0,0:0:0:0:
255,246,213998,1,0,0:0:0:0:
255,286,214073,1,0,0:0:0:0:
255,327,214148,1,0,0:0:0:0:
256,368,214223,5,12,0:0:0:0:
201,354,214298,1,0,0:0:0:0:
151,326,214373,1,0,0:0:0:0:
112,286,214448,1,0,0:0:0:0:
85,236,214523,1,0,0:0:0:0:
72,181,214598,1,0,0:0:0:0:
75,125,214673,1,0,0:0:0:0:
94,71,214748,1,0,0:0:0:0:
126,25,214823,6,0,P|238:10|425:139,1,323.999990112305,12|0,0:0|0:0,0:0:0:0:
228,182,215273,1,0,0:0:0:0:
456,266,215423,2,0,P|470:182|441:75,1,161.999995056153,8|0,0:0|0:0,0:0:0:0:
131,103,215723,2,0,P|116:182|130:261,1,161.999995056153
347,17,216023,5,8,0:0:0:0:
228,182,216173,1,0,0:0:0:0:
499,4,216323,1,0,0:0:0:0:
344,143,216473,2,0,L|321:232,1,80.9999975280763
231,354,216623,2,0,P|101:369|56:353,1,161.999995056153,8|0,0:0|0:0,0:0:0:0:
154,46,216923,1,0,0:0:0:0:
161,102,216998,1,0,0:0:0:0:
167,158,217073,1,0,0:0:0:0:
173,215,217148,1,0,0:0:0:0:
180,271,217223,5,8,0:0:0:0:
259,41,217373,1,0,0:0:0:0:
332,271,217523,1,0,0:0:0:0:
103,149,217673,1,0,0:0:0:0:
409,149,217823,1,8,0:0:0:0:
108,23,217973,1,0,0:0:0:0:
374,305,218123,1,0,0:0:0:0:
0,113,218273,1,0,0:0:0:0:
484,66,218423,6,0,B|493:227|493:227|431:385,1,323.999990112305,8|0,0:0|0:0,0:0:0:0:
306,113,218873,1,0,0:0:0:0:
159,366,219023,2,0,P|71:382|-9:359,1,161.999995056153,8|0,0:0|0:0,0:0:0:0:
83,84,219323,1,0,0:0:0:0:
137,90,219398,1,0,0:0:0:0:
192,96,219473,1,0,0:0:0:0:
249,104,219548,1,0,0:0:0:0:
306,113,219623,6,0,L|466:46,1,161.999995056153,12|0,0:0|0:0,0:0:0:0:
207,258,219923,2,0,P|117:272|33:253,1,161.999995056153
279,28,220223,1,8,0:0:0:0:
281,351,220373,1,0,0:0:0:0:
460,81,220523,1,0,0:0:0:0:
466,137,220598,1,0,0:0:0:0:
473,193,220673,1,0,0:0:0:0:
480,249,220748,1,0,0:0:0:0:
486,306,220823,6,0,P|397:325|317:306,1,161.999995056153,8|0,0:0|0:0,0:0:0:0:
168,198,221123,2,0,P|88:184|10:203,1,161.999995056153
265,251,221423,1,8,0:0:0:0:
64,86,221573,1,0,0:0:0:0:
253,348,221723,1,0,0:0:0:0:
76,0,221873,1,0,0:0:0:0:
265,251,222023,6,0,P|367:270|436:250,1,161.999995056153,12|0,0:0|0:0,0:0:0:0:
106,173,222323,2,0,P|87:275|107:344,1,161.999995056153
255,131,222623,5,8,0:0:0:0:
337,353,222773,1,0,0:0:0:0:
256,91,222923,1,0,0:0:0:0:
175,353,223073,1,0,0:0:0:0:
408,127,223223,5,8,0:0:0:0:
84,132,223373,1,0,0:0:0:0:
430,220,223523,1,0,0:0:0:0:
57,47,223673,1,0,0:0:0:0:
501,148,223823,1,8,0:0:0:0:
9,280,223973,1,0,0:0:0:0:
503,2,224123,1,0,0:0:0:0:
494,14,224423,6,0,B|466:97|466:97|474:358,1,323.999990112305,12|0,0:0|0:0,0:0:0:0:
306,91,224873,1,0,0:0:0:0:
175,351,225023,2,0,B|146:253|146:253|151:173,1,161.999995056153,8|0,0:0|0:0,0:0:0:0:
401,344,225323,1,0,0:0:0:0:
239,101,225473,2,0,P|129:75|55:246,1,323.999990112305,4|0,0:0|0:0,0:0:0:0:
340,187,225923,2,0,P|370:103|349:26,1,161.999995056153
158,250,226223,5,8,0:0:0:0:
166,289,226298,1,0,0:0:0:0:
188,323,226373,1,0,0:0:0:0:
219,349,226448,1,0,0:0:0:0:
257,363,226523,1,0,0:0:0:0:
253,306,226598,1,0,0:0:0:0:
249,250,226673,1,0,0:0:0:0:
245,193,226748,1,0,0:0:0:0:
242,136,226823,6,0,P|154:121|69:148,1,161.999995056153,8|0,0:0|0:0,0:0:0:0:
355,25,227123,1,0,0:0:0:0:
328,315,227273,1,0,0:0:0:0:
505,83,227423,2,0,B|490:137|490:137|494:250,1,161.999995056153,8|0,0:0|0:0,0:0:0:0:
355,25,227723,1,0,0:0:0:0:
328,315,227873,2,0,B|268:250|242:136|242:136|261:77|243:1,1,323.999990112305,4|0,0:0|0:0,0:0:0:0:
0,70,228323,2,0,P|77:89|160:72,1,161.999995056153
355,25,228623,1,8,0:0:0:0:
255,246,228773,1,0,0:0:0:0:
199,9,228923,5,0,0:0:0:0:
199,9,228998,1,0,0:0:0:0:
199,9,229073,1,0,0:0:0:0:
225,49,229148,1,0,0:0:0:0:
255,86,229223,2,0,P|341:107|419:88,1,161.999995056153,8|0,0:0|0:0,0:0:0:0:
162,247,229523,2,0,P|76:268|-2:249,1,161.999995056153
24,207,229748,1,0,0:0:0:0:
43,162,229823,6,0,P|81:84|74:4,1,161.999995056153,8|0,0:0|0:0,0:0:0:0:
255,198,230123,1,0,0:0:0:0:
0,323,230273,2,0,B|86:359|233:360|233:360|326:325,1,323.999990112305,4|0,0:0|0:0,0:0:0:0:
253,94,230723,1,0,0:0:0:0:
439,250,230873,1,0,0:0:0:0:
439,250,230948,1,0,0:0:0:0:
439,250,231023,1,8,0:0:0:0:
254,4,231173,1,0,0:0:0:0:
252,311,231323,1,0,0:0:0:0:
466,26,231473,1,0,0:0:0:0:
83,254,231623,5,8,0:0:0:0:
83,254,231698,1,0,0:0:0:0:
83,254,231773,1,0,0:0:0:0:
439,250,231923,1,0,0:0:0:0:
439,250,231998,1,0,0:0:0:0:
439,250,232073,1,0,0:0:0:0:
253,94,232223,1,8,0:0:0:0:
252,150,232298,1,0,0:0:0:0:
251,207,232373,1,0,0:0:0:0:
251,264,232448,1,0,0:0:0:0:
250,320,232523,1,0,0:0:0:0:
254,4,232673,1,0,0:0:0:0:
104,152,232823,5,8,0:0:0:0:
137,174,232898,1,0,0:0:0:0:
174,191,232973,1,0,0:0:0:0:
213,202,233048,1,0,0:0:0:0:
253,208,233123,1,0,0:0:0:0:
293,206,233198,1,0,0:0:0:0:
333,199,233273,1,0,0:0:0:0:
371,186,233348,1,0,0:0:0:0:
407,166,233423,5,8,0:0:0:0:
381,107,233498,1,0,0:0:0:0:
339,58,233573,1,0,0:0:0:0:
284,25,233648,1,0,0:0:0:0:
221,10,233723,1,0,0:0:0:0:
157,16,233798,1,0,0:0:0:0:
97,40,233873,1,0,0:0:0:0:
48,82,233948,1,0,0:0:0:0:
14,137,234023,6,2,L|10:205,3,67.5000025749208
