osu file format v12

[General]
AudioFilename: kakushigoto.mp3
AudioLeadIn: 1000
PreviewTime: 51073
Countdown: 0
SampleSet: Soft
StackLeniency: 0.5
Mode: 0
LetterboxInBreaks: 0
WidescreenStoryboard: 0

[Editor]
DistanceSpacing: 1
BeatDivisor: 4
GridSize: 4

[Metadata]
Title:Kakushigoto
TitleUnicode:かくしごと
Artist:yuikonnu
ArtistUnicode:ゆいこんぬ
Creator:jonathanlfj
Version:Hard
Source:
Tags:IA vocaloid mafumafu secret nico douga
BeatmapID:314435
BeatmapSetID:122605

[Difficulty]
HPDrainRate:6
CircleSize:4
OverallDifficulty:6
ApproachRate:8
SliderMultiplier:1.5
SliderTickRate:2

[Events]
//Background and Video events
0,0,"37904033.jpg",0,0
Video,0,"video.avi"
//Break Periods
2,73473,80473
2,141873,147673
2,178873,186073
//Storyboard Layer 0 (Background)
//Storyboard Layer 1 (Fail)
//Storyboard Layer 2 (Pass)
//Storyboard Layer 3 (Foreground)
//Storyboard Sound Samples
//Background Colour Transformations
3,100,163,162,255

[TimingPoints]
1273,300,4,2,1,40,1,0
1273,-100,4,2,1,40,0,0
1798,-100,4,1,1,60,0,0
2473.52634123162,300,4,1,1,70,1,1
2548,-100,4,1,1,70,0,0
11773,-100,4,2,1,70,0,0
13273,300,4,2,1,60,1,0
13273,-125,4,2,1,60,0,0
21673,-125,4,2,1,45,0,0
21973,-125,4,2,1,55,0,0
22273,-125,4,1,1,65,0,0
22873,-100,4,1,1,70,0,0
32473,-100,4,3,1,60,0,0
41173,-100,4,1,1,65,0,0
41473,-71.4285714285714,4,1,1,80,0,0
42073,-100,4,1,1,60,0,0
46873,-100,4,1,1,60,0,0
48673,-100,4,1,1,65,0,0
49273,-100,4,1,1,70,0,0
50473,-71.4285714285714,4,1,1,70,0,0
51073,-166.666666666667,4,2,1,50,0,0
51673,-90.9090909090909,4,1,1,80,0,1
69073,-90.9090909090909,4,1,1,60,0,1
69373,-90.9090909090909,4,1,1,65,0,1
69673,-90.9090909090909,4,1,1,70,0,1
69973,-90.9090909090909,4,1,1,75,0,1
70273,-90.9090909090909,4,1,1,80,0,1
70873,-100,4,1,1,70,0,0
81673,300,4,2,1,60,1,0
81673,-125,4,2,1,60,0,0
89773,-125,4,2,1,45,0,0
90073,-125,4,2,1,55,0,0
90373,-125,4,2,1,65,0,0
90673,-166.666666666667,4,2,1,40,0,0
91273,-100,4,1,1,70,0,0
100873,-100,4,3,1,60,0,0
109573,-100,4,1,1,65,0,0
109873,-71.4285714285714,4,1,1,80,0,0
110473,-100,4,1,1,60,0,0
115273,-100,4,1,1,60,0,0
117073,-100,4,1,1,65,0,0
117673,-100,4,1,1,70,0,0
118873,-71.4285714285714,4,1,1,80,0,0
119473,-166.666666666667,4,1,1,45,0,0
119623,-166.666666666667,4,1,1,50,0,0
119773,-166.666666666667,4,1,1,55,0,0
119923,-166.666666666667,4,1,1,60,0,0
120073,-90.9090909090909,4,1,1,80,0,1
137473,-90.9090909090909,4,1,1,60,0,1
137773,-90.9090909090909,4,1,1,65,0,1
138073,-90.9090909090909,4,1,1,70,0,1
138373,-90.9090909090909,4,1,1,75,0,1
138673,-90.9090909090909,4,1,1,80,0,1
139273,-100,4,1,1,70,0,0
141673,-100,4,1,1,40,0,0
148873,-100,4,1,1,70,0,0
156673,-100,4,1,1,75,0,0
157273,-100,4,1,1,80,0,0
158473,-100,4,3,1,60,0,0
167173,-100,4,1,1,65,0,0
167473,-71.4285714285714,4,1,1,80,0,0
168073,-100,4,1,1,60,0,0
174073,-100,4,1,1,65,0,0
175273,-100,4,1,1,70,0,0
176473,-71.4285714285714,4,1,1,80,0,0
178873,300,4,1,1,80,1,0
187873,-166.666666666667,4,2,1,20,0,0
188473,-166.666666666667,4,2,1,25,0,0
189073,-166.666666666667,4,2,1,30,0,0
189673,-90.9090909090909,4,1,1,80,0,1
204373,-90.9090909090909,4,1,1,70,0,1
204673,-90.9090909090909,4,1,1,75,0,1
204973,-90.9090909090909,4,1,1,80,0,1
205273,300,4,2,1,40,1,0
205273,-166.666666666667,4,2,1,40,0,0
205573,-90.9090909090909,4,1,1,80,0,1
222673,-90.9090909090909,4,1,1,60,0,1
222973,-90.9090909090909,4,1,1,65,0,1
223273,-90.9090909090909,4,1,1,70,0,1
223573,-90.9090909090909,4,1,1,75,0,1
223873,-71.4285714285714,4,1,1,80,0,1
224473,-90.9090909090909,4,1,1,80,0,0

[Colours]
Combo1 : 202,202,202
Combo2 : 254,150,252
Combo3 : 185,102,253
Combo4 : 87,199,253
Combo5 : 251,21,21

[HitObjects]
432,64,1273,1,4,0:0:0:0:
404,212,1573,2,0,P|352:240|300:236,1,112.5,4|0,0:0|0:0,0:0:0:0:
264,224,1873,2,0,L|252:312,1,75,8|0,0:0|0:0,0:0:0:0:
164,320,2173,2,0,L|120:332,3,37.5,8|8|8|8,0:0|0:0|0:0|0:0,0:0:0:0:
164,320,2473,6,0,P|172:256|120:188,1,150,4|8,0:2|0:0,0:0:0:0:
48,196,2923,1,0,0:0:0:0:
80,128,3073,2,0,L|68:52,1,75,0|0,0:0|0:0,0:0:0:0:
168,28,3373,1,8,0:0:0:0:
168,28,3523,6,0,L|152:192,1,150,2|0,0:2|0:0,0:0:0:0:
192,240,3973,2,0,P|236:268|272:268,1,75,8|0,0:0|0:0,0:0:0:0:
304,212,4273,2,0,P|356:212|380:224,1,75,0|0,0:0|0:0,0:0:0:0:
332,284,4573,2,0,P|352:324|352:360,1,75,8|0,0:0|0:0,0:0:0:0:
436,296,4873,38,0,P|416:232|432:140,1,150,2|8,0:2|0:0,0:0:0:0:
372,100,5323,1,0,0:0:0:0:
304,128,5473,2,0,L|216:124,2,75,0|0|8,0:0|0:0|0:0,0:0:0:0:
312,52,5923,6,0,L|156:44,1,150,2|0,0:2|0:0,0:0:0:0:
96,80,6373,1,8,0:0:0:0:
96,80,6523,1,0,0:0:0:0:
128,148,6673,2,0,L|124:240,1,75,0|0,0:0|0:0,0:0:0:0:
80,284,6973,2,0,L|36:296,3,37.5,8|8|8|8,0:0|0:0|0:0|0:0,0:0:0:0:
80,284,7273,6,0,B|116:304|152:292|152:292|196:292|216:328,1,150,4|8,0:2|0:0,0:0:0:0:
288,324,7723,1,0,0:0:0:0:
332,264,7873,2,0,L|336:188,1,75,0|0,0:0|0:0,0:0:0:0:
428,244,8173,1,8,0:0:0:0:
428,244,8323,38,0,P|400:332|344:364,1,150,2|0,0:2|0:0,0:0:0:0:
288,324,8773,2,0,P|232:312|208:316,1,75,8|0,0:0|0:0,0:0:0:0:
196,240,9073,2,0,P|156:264|140:304,1,75,0|0,0:0|0:0,0:0:0:0:
156,176,9373,2,0,P|164:132|156:92,1,75,8|0,0:0|0:0,0:0:0:0:
96,60,9673,6,0,L|80:16,2,37.5,2|0|0,0:2|0:0|0:0,0:0:0:0:
224,64,9973,2,0,L|304:24,1,75,8|0,0:0|0:0,0:0:0:0:
380,104,10273,2,0,L|416:28,2,75,0|0|8,0:0|0:0|0:0,0:0:0:0:
432,200,10723,1,0,0:0:0:0:
432,200,10873,6,0,P|368:212|288:164,1,150,2|8,0:2|0:0,0:0:0:0:
244,228,11323,1,2,0:2:0:0:
244,228,11473,2,0,P|224:196|228:140,1,75,0|8,0:0|0:0,0:0:0:0:
256,92,11773,2,0,L|256:52,3,37.5,2|0|0|8,0:0|0:0|0:0|0:0,0:0:0:0:
112,152,13273,38,0,B|108:184|92:208|92:208|96:240|112:264,1,120,0|0,0:0|0:0,0:0:0:0:
192,212,13723,1,0,0:0:0:0:
192,212,13873,2,0,B|196:180|212:156|212:156|208:124|192:100,1,120,2|2,0:0|0:0,0:0:0:0:
296,36,14473,2,0,B|340:84|404:76|404:76|448:128|436:188,1,240,8|2,0:0|0:0,0:0:0:0:
384,296,15373,1,2,0:0:0:0:
272,252,15673,6,0,L|216:288,2,60,0|2|0,0:0|0:0|0:0,0:0:0:0:
252,176,16123,1,0,0:0:0:0:
252,176,16273,2,0,L|120:188,1,120,2|2,0:0|0:0,0:0:0:0:
268,60,16873,2,0,P|344:108|364:212,1,180,8|2,0:0|0:0,0:0:0:0:
336,256,17473,2,0,L|268:268,1,60,2|0,0:0|0:0,0:0:0:0:
244,332,17773,2,0,L|176:344,1,60,0|2,0:0|0:0,0:0:0:0:
120,312,18073,5,2,0:0:0:0:
152,144,18373,1,0,0:0:0:0:
180,236,18673,1,2,0:0:0:0:
56,124,18973,1,2,0:0:0:0:
200,36,19273,2,0,B|232:36|256:52|256:52|292:56|316:40,2,120,2|0|2,0:0|0:0|0:0,0:0:0:0:
136,72,20023,1,0,0:0:0:0:
152,144,20173,2,0,L|168:208,1,60,0|2,0:0|0:0,0:0:0:0:
248,260,20473,38,0,L|268:184,1,60,2|0,0:0|0:0,0:0:0:0:
324,164,20773,2,0,P|384:164|440:208,1,120,0|2,0:0|0:0,0:0:0:0:
340,308,21373,1,2,0:0:0:0:
196,324,21673,2,0,L|160:256,1,60,8|8,0:0|0:1,0:0:0:0:
80,288,21973,2,0,L|92:208,1,60,8|8,0:1|0:1,0:0:0:0:
192,192,22273,2,0,L|176:132,1,60,8|8,0:0|0:0,0:0:0:0:
172,112,22498,2,0,L|184:64,2,30,8|0|8,0:0|0:0|0:0,0:0:0:0:
284,116,22873,6,0,L|308:24,1,75,4|0,0:2|0:0,0:0:0:0:
376,32,23173,2,0,P|432:80|436:160,1,150,8|0,0:0|0:0,0:0:0:0:
404,220,23623,1,0,0:0:0:0:
332,236,23773,2,0,L|248:236,1,75,8|0,0:0|0:0,0:0:0:0:
168,236,24073,6,0,B|160:272|160:272|168:320,1,75,2|0,0:2|0:0,0:0:0:0:
256,236,24373,2,0,B|264:200|264:200|256:152,1,75,8|0,0:0|0:0,0:0:0:0:
256,312,24673,2,0,P|332:328|404:280,1,150,0|8,0:0|0:0,0:0:0:0:
404,220,25123,1,0,0:0:0:0:
352,164,25273,38,0,L|360:76,2,75,2|0|8,0:2|0:0|0:0,0:0:0:0:
268,120,25723,1,0,0:0:0:0:
268,120,25873,2,0,B|258:46|258:46|188:12,1,150,0|8,0:0|0:0,0:0:0:0:
116,28,26323,1,0,0:0:0:0:
56,76,26473,6,0,B|48:112|48:112|56:152,1,75,2|0,0:2|0:0,0:0:0:0:
148,188,26773,2,0,B|156:152|156:152|148:112,1,75,8|0,0:0|0:0,0:0:0:0:
72,236,27073,2,0,P|108:268|208:256,1,150,2|8,0:2|0:0,0:0:0:0:
248,200,27523,1,0,0:0:0:0:
324,204,27673,6,0,B|340:276|340:276|324:360,1,150,8|8,0:2|0:0,0:0:0:0:
464,292,28273,2,0,L|496:136,1,150,0|8,0:0|0:0,0:0:0:0:
464,76,28723,1,0,0:0:0:0:
400,36,28873,38,0,L|316:32,1,75,2|0,0:2|0:0,0:0:0:0:
356,128,29173,2,0,L|281:131,1,75,8|0,0:0|0:0,0:0:0:0:
320,224,29473,2,0,B|260:264|260:264|168:264,1,150,0|8,0:0|0:0,0:0:0:0:
108,196,29923,1,0,0:0:0:0:
108,196,30073,6,0,P|132:124|104:44,1,150,2|8,0:2|0:0,0:0:0:0:
4,256,30673,2,0,P|60:304|144:312,1,150,0|8,0:0|0:0,0:0:0:0:
300,220,31273,6,0,P|328:208|392:216,1,75,2|0,0:2|0:0,0:0:0:0:
348,280,31573,2,0,P|388:284|428:320,1,75,8|0,0:0|0:0,0:0:0:0:
300,336,31873,2,0,P|260:332|220:296,1,75,2|8,0:2|0:0,0:0:0:0:
216,288,32098,1,8,0:0:0:0:
212,260,32173,2,0,L|168:268,2,37.5,8|0|0,0:0|0:0|3:0,0:0:0:0:
180,188,32473,38,0,B|164:148|180:116|180:116|176:72|140:52,1,150,4|0,2:0|0:0,0:0:0:0:
369,53,33073,2,0,B|336:72|332:116|332:116|348:148|332:188,1,150,0|0,0:0|0:0,0:0:0:0:
160,276,33673,2,0,P|104:240|96:160,1,150,2|0,0:2|0:0,0:0:0:0:
416,161,34273,2,0,P|411:234|352:276,1,150,0|0,0:0|0:0,0:0:0:0:
184,88,34873,6,0,B|256:68|256:68|328:88,2,150,2|0|0,0:2|0:0|0:0,0:0:0:0:
256,240,35773,1,0,0:0:0:0:
120,156,36073,2,0,P|92:104|124:16,1,150,2|0,0:2|0:0,0:0:0:0:
393,21,36673,2,0,P|421:89|392:156,1,150,0|0,0:0|0:0,0:0:0:0:
168,236,37273,5,8,0:2:0:0:
256,152,37573,1,0,0:0:0:0:
256,320,37873,1,0,0:0:0:0:
344,236,38173,1,0,0:0:0:0:
168,152,38473,1,2,0:2:0:0:
344,152,38773,1,0,0:0:0:0:
168,320,39073,1,0,0:0:0:0:
344,320,39373,1,0,0:0:0:0:
256,152,39673,38,0,P|292:84|368:68,1,150,2|0,0:2|0:0,0:0:0:0:
256,232,40273,2,0,P|220:300|144:316,1,150,0|0,0:0|0:0,0:0:0:0:
80,296,40723,1,8,0:1:0:0:
44,232,40873,2,0,L|52:156,1,75,0|8,0:0|0:1,0:0:0:0:
144,100,41173,2,0,L|156:188,1,75,0|8,0:0|0:0,0:0:0:0:
256,248,41473,38,0,B|264:216|264:216|252:192|252:192|264:148|264:148|232:96|256:48,1,209.999993591309,4|4,0:2|0:2,0:0:0:0:
440,28,42073,37,4,0:2:0:0:
440,28,42223,1,0,0:0:0:0:
496,80,42373,2,0,P|504:160|476:228,1,150,8|0,0:0|0:0,0:0:0:0:
408,252,42823,2,0,L|324:252,2,75,0|8|0,0:0|0:0|0:0,0:0:0:0:
344,328,43273,6,0,L|256:328,1,75,2|0,0:2|0:0,0:0:0:0:
228,264,43573,1,8,0:0:0:0:
228,264,43723,1,0,0:0:0:0:
156,248,43873,2,0,P|128:265|108:301,1,75,0|0,0:0|0:0,0:0:0:0:
180,317,44173,2,0,P|208:300|228:264,1,75,8|0,0:0|0:0,0:0:0:0:
244,192,44473,38,0,P|240:152|256:112,1,75,2|0,0:2|0:0,0:0:0:0:
320,88,44773,2,0,P|384:128|384:200,1,150,8|0,0:0|0:0,0:0:0:0:
316,164,45223,1,0,0:0:0:0:
320,88,45373,2,0,L|328:0,1,75,8|0,0:0|0:0,0:0:0:0:
192,16,45673,6,0,L|185:90,2,75,2|0|8,0:2|0:0|0:0,0:0:0:0:
96,52,46123,2,0,L|80:208,1,150,0|8,0:0|0:0,0:0:0:0:
64,276,46573,2,0,L|24:292,3,37.5,8|0|8|8,0:0|0:0|0:0|0:0,0:0:0:0:
64,276,46873,6,0,P|136:276|200:328,1,150,4|8,0:2|0:0,0:0:0:0:
448,276,47473,2,0,P|376:276|312:328,1,150,8|8,0:0|0:0,0:0:0:0:
152,180,48073,38,0,L|128:92,1,75,8|0,0:0|0:0,0:0:0:0:
208,48,48373,2,0,L|220:140,1,75,8|0,0:0|0:0,0:0:0:0:
294,122,48673,2,0,L|304:48,1,75,8|0,0:0|0:0,0:0:0:0:
380,108,48974,2,0,L|360:180,1,75,8|0,0:0|0:0,0:0:0:0:
324,248,49273,6,0,P|232:272|188:248,1,150,4|8,0:2|0:0,0:0:0:0:
152,180,49723,1,8,0:0:0:0:
152,180,49798,1,0,0:0:0:0:
152,180,49873,2,0,P|148:128|160:92,1,75,8|8,0:0|0:0,0:0:0:0:
256,68,50173,2,0,P|260:120|248:156,1,75,8|8,0:0|0:0,0:0:0:0:
152,180,50473,22,0,L|100:180,2,52.4999983978272,0|0|4,0:0|0:0|0:2,0:0:0:0:
360,180,50923,1,4,0:2:0:0:
372,256,51073,6,0,P|412:236|436:192,1,89.9999972534181,8|0,0:0|0:0,0:0:0:0:
360,32,51673,6,0,B|344:60|344:60|308:64|308:64|280:96|212:92,1,165.000005035401,4|8,0:2|0:0,0:0:0:0:
140,72,52123,1,0,0:0:0:0:
140,72,52273,2,0,P|148:124|116:240,1,165.000005035401,0|8,0:0|0:0,0:0:0:0:
252,336,52873,6,0,P|328:340|416:304,1,165.000005035401,2|8,0:2|0:0,0:0:0:0:
456,240,53323,1,0,0:0:0:0:
452,156,53473,2,0,L|440:60,1,82.5000025177003,2|0,0:2|0:0,0:0:0:0:
348,44,53773,2,0,L|358:125,1,82.5000025177003,8|0,0:0|0:0,0:0:0:0:
308,192,54073,5,2,0:2:0:0:
140,72,54373,1,8,0:0:0:0:
84,272,54673,2,0,P|136:252|160:224,1,82.5000025177003,0|0,0:0|0:0,0:0:0:0:
20,220,54973,2,0,P|4:268|8:304,1,82.5000025177003,8|0,0:0|0:0,0:0:0:0:
124,348,55273,38,0,P|184:320|248:240,1,165.000005035401,2|8,0:2|0:0,0:0:0:0:
232,164,55723,1,0,0:0:0:0:
296,112,55873,2,0,L|388:120,1,82.5000025177003,0|0,0:0|0:0,0:0:0:0:
448,204,56173,2,0,L|492:200,3,41.2500012588501,8|8|8|8,0:0|0:0|0:0|0:0,0:0:0:0:
448,204,56473,6,0,B|416:280|416:280|336:324,1,165.000005035401,4|8,0:2|0:0,0:0:0:0:
144,232,57073,1,0,0:0:0:0:
112,156,57223,1,0,0:0:0:0:
132,76,57373,2,0,P|176:48|216:48,1,82.5000025177003,8|0,0:0|0:0,0:0:0:0:
272,92,57673,6,0,B|312:108|352:100|352:100|392:92|440:116,2,165.000005035401,2|8|0,0:2|0:0|0:0,0:0:0:0:
200,132,58423,1,0,0:0:0:0:
228,208,58573,2,0,P|224:268|200:300,1,82.5000025177003,8|0,0:0|0:0,0:0:0:0:
104,324,58873,38,0,L|64:336,4,41.2500012588501,8|8|8|0|4,0:0|0:0|0:0|0:0|0:2,0:0:0:0:
308,232,59473,2,0,L|352:244,4,41.2500012588501,8|8|8|0|4,0:0|0:0|0:0|0:0|0:2,0:0:0:0:
120,132,60073,6,0,P|164:140|208:128,1,82.5000025177003,4|0,0:2|0:0,0:0:0:0:
228,112,60298,1,0,0:0:0:0:
256,92,60373,2,0,L|344:84,1,82.5000025177003,8|0,0:0|0:0,0:0:0:0:
360,164,60673,2,0,L|448:184,1,82.5000025177003,0|0,0:0|0:0,0:0:0:0:
428,264,60973,2,0,L|468:292,3,41.2500012588501,8|0|0|8,0:0|0:0|0:0|0:0,0:0:0:0:
428,264,61273,6,0,B|400:288|400:288|368:284|368:284|328:320|272:304,1,165.000005035401,4|8,0:2|0:0,0:0:0:0:
112,96,61873,2,0,P|152:144|128:236,1,165.000005035401,0|8,0:0|0:0,0:0:0:0:
76,172,62323,1,0,0:0:0:0:
112,96,62473,38,0,L|196:60,1,82.5000025177003,2|0,0:2|0:0,0:0:0:0:
316,160,62773,2,0,L|400:176,1,82.5000025177003,8|0,0:0|0:0,0:0:0:0:
272,84,63073,2,0,P|236:128|260:228,1,165.000005035401,2|8,0:2|0:0,0:0:0:0:
420,68,63673,5,2,0:2:0:0:
408,264,63973,1,8,0:0:0:0:
192,188,64273,2,0,L|112:208,1,82.5000025177003,0|0,0:0|0:0,0:0:0:0:
220,268,64573,2,0,L|300:288,1,82.5000025177003,8|0,0:0|0:0,0:0:0:0:
136,292,64873,6,0,P|72:288|24:208,1,165.000005035401,2|8,0:2|0:0,0:0:0:0:
68,136,65323,1,0,0:0:0:0:
148,116,65473,2,0,L|236:112,1,82.5000025177003,0|0,0:0|0:0,0:0:0:0:
316,172,65773,2,0,L|328:220,3,41.2500012588501,8|8|8|8,0:0|0:0|0:0|0:0,0:0:0:0:
316,172,66073,38,0,P|376:176|448:108,1,165.000005035401,4|8,0:2|0:0,0:0:0:0:
420,28,66523,1,0,0:0:0:0:
348,72,66673,2,0,L|256:48,1,82.5000025177003,0|0,0:0|0:0,0:0:0:0:
212,112,66973,2,0,L|120:104,1,82.5000025177003,8|0,0:0|0:0,0:0:0:0:
64,188,67273,6,0,L|92:356,1,165.000005035401,4|8,0:2|0:0,0:0:0:0:
172,372,67723,1,0,0:0:0:0:
172,372,67873,2,0,P|240:332|324:352,1,165.000005035401,0|8,0:0|0:0,0:0:0:0:
452,132,68473,6,0,P|456:88|444:48,1,82.5000025177003,4|0,0:2|0:0,0:0:0:0:
364,136,68773,2,0,P|332:100|288:84,1,82.5000025177003,8|0,0:0|0:0,0:0:0:0:
332,216,69073,2,0,P|288:208|244:216,1,82.5000025177003,2|8,0:2|0:0,0:0:0:0:
360,296,69373,2,0,P|396:272|416:216,1,82.5000025177003,0|8,0:0|0:0,0:0:0:0:
364,136,69673,38,0,L|368:88,3,41.2500012588501,4|0|0|0,0:2|0:0|0:0|0:0,0:0:0:0:
324,96,69973,2,0,L|316:44,3,41.2500012588501,8|0|8|8,0:0|0:0|0:0|0:0,0:0:0:0:
276,48,70273,2,0,B|256:36|256:36|224:60|180:48|180:48|176:88|176:88|128:120|128:176,1,247.500007553101,8|8,0:0|0:0,0:0:0:0:
148,256,70873,1,4,0:2:0:0:
256,192,70948,12,2,73273,2:0:0:0:
464,216,81673,22,0,L|344:196,1,120,0|2,0:0|0:0,0:0:0:0:
392,284,82123,1,0,0:0:0:0:
392,284,82273,2,0,L|260:264,1,120,0|2,0:0|0:0,0:0:0:0:
172,332,82873,1,8,0:0:0:0:
172,332,83473,2,0,P|136:296|132:216,1,120,2|2,0:0|0:0,0:0:0:0:
192,92,84073,38,0,L|176:32,2,60,0|2|0,0:0|0:0|0:0,0:0:0:0:
256,124,84523,1,2,0:0:0:0:
256,124,84673,2,0,P|312:136|376:112,1,120,2|0,0:0|0:0,0:0:0:0:
436,244,85273,2,0,B|372:228|324:272|324:272|292:276|264:264,1,180,8|2,0:0|0:0,0:0:0:0:
200,236,85873,2,0,L|184:172,1,60,2|0,0:0|0:0,0:0:0:0:
112,168,86173,2,0,L|96:104,1,60,0|2,0:0|0:0,0:0:0:0:
140,52,86473,5,2,0:0:0:0:
44,220,86773,1,0,0:0:0:0:
200,236,87073,1,2,0:0:0:0:
20,148,87373,1,2,0:0:0:0:
196,104,87673,2,0,P|252:120|328:104,1,120,2|0,0:0|0:0,0:0:0:0:
364,60,88123,1,2,0:0:0:0:
436,72,88273,2,0,P|456:92|476:128,1,60,0|2,0:0|0:0,0:0:0:0:
388,152,88573,2,0,P|388:184|400:220,1,60,2|0,0:0|0:0,0:0:0:0:
468,272,88873,6,0,P|416:284|384:344,2,120,2|0|2,0:0|0:0|0:0,0:0:0:0:
316,360,89773,1,8,0:1:0:0:
316,360,89923,1,8,0:1:0:0:
260,316,90073,2,0,L|244:240,1,60,8|8,0:1|0:1,0:0:0:0:
344,236,90373,2,0,L|352:172,1,60,8|8,0:1|0:1,0:0:0:0:
268,116,90673,22,0,P|224:116|172:136,1,89.9999972534181,8|0,0:0|0:0,0:0:0:0:
80,324,91273,6,0,P|152:304|188:232,1,150,4|8,0:2|0:0,0:0:0:0:
136,188,91723,1,0,0:0:0:0:
64,172,91873,2,0,L|44:20,1,150,0|8,0:0|0:0,0:0:0:0:
148,56,92323,1,0,0:0:0:0:
148,56,92473,6,0,P|184:60|228:48,1,75,2|0,0:2|0:0,0:0:0:0:
312,48,92773,2,0,P|288:88|288:124,1,75,8|0,0:0|0:0,0:0:0:0:
380,232,93073,2,0,P|404:160|352:104,1,150,0|8,0:0|0:0,0:0:0:0:
332,176,93523,1,0,0:0:0:0:
268,216,93673,6,0,L|260:300,2,75,2|0|8,0:2|0:0|0:0,0:0:0:0:
212,168,94123,1,0,0:0:0:0:
148,208,94273,2,0,P|72:208|12:164,1,150,0|8,0:0|0:0,0:0:0:0:
12,92,94723,1,0,0:0:0:0:
68,40,94873,38,0,L|144:36,1,75,2|0,0:2|0:0,0:0:0:0:
264,92,95173,2,0,L|189:95,1,75,8|0,0:0|0:0,0:0:0:0:
212,168,95473,2,0,B|288:164|288:164|356:124,1,150,2|8,0:2|0:0,0:0:0:0:
424,152,95923,1,0,0:0:0:0:
424,152,96073,6,0,P|436:224|408:300,1,150,8|8,0:2|0:0,0:0:0:0:
100,295,96673,2,0,P|76:225|88:152,1,150,0|8,0:0|0:0,0:0:0:0:
156,120,97123,1,0,0:0:0:0:
212,168,97273,6,0,L|292:168,2,75,2|0|8,0:2|0:0|0:0,0:0:0:0:
192,240,97723,1,0,0:0:0:0:
312,240,97873,2,0,P|360:188|344:116,1,150,0|8,0:0|0:0,0:0:0:0:
272,92,98323,1,0,0:0:0:0:
156,120,98473,38,0,P|104:108|40:32,1,150,2|8,0:2|0:0,0:0:0:0:
272,92,99073,2,0,P|312:152|316:232,1,150,0|8,0:0|0:0,0:0:0:0:
44,328,99673,5,2,0:2:0:0:
100,280,99823,1,0,0:0:0:0:
168,312,99973,2,0,P|204:316|244:308,1,75,8|0,0:0|0:0,0:0:0:0:
300,356,100273,2,0,P|316:316|312:280,1,75,2|8,0:2|0:0,0:0:0:0:
300,260,100498,1,8,0:0:0:0:
296,232,100573,2,0,L|304:184,2,37.5,8|0|0,0:0|0:0|3:0,0:0:0:0:
372,236,100873,6,0,L|396:88,1,150,4|0,0:2|0:0,0:0:0:0:
116,88,101473,2,0,L|140:236,1,150,0|0,0:0|0:0,0:0:0:0:
328,332,102073,1,2,0:2:0:0:
256,184,102373,1,0,0:0:0:0:
184,332,102673,1,0,0:0:0:0:
256,184,102973,1,0,0:0:0:0:
388,272,103273,38,0,P|412:216|400:120,1,150,2|0,0:2|0:0,0:0:0:0:
108,128,103873,2,0,P|97:202|124:272,2,150,0|0|2,0:0|0:0|0:2,0:0:0:0:
344,56,104773,1,0,0:0:0:0:
168,56,105073,1,0,0:0:0:0:
256,208,105373,1,0,0:0:0:0:
344,56,105673,6,0,P|368:132|432:168,1,150,8|0,0:2|0:0,0:0:0:0:
192,132,106273,2,0,P|143:195|71:207,1,150,0|0,0:0|0:0,0:0:0:0:
336,228,106873,2,0,P|360:304|424:340,1,150,2|0,0:2|0:0,0:0:0:0:
176,340,107473,1,0,0:0:0:0:
96,112,107773,1,0,0:0:0:0:
336,84,108073,6,0,B|356:156|356:156|336:228,1,150,2|0,0:2|0:0,0:0:0:0:
80,244,108673,2,0,B|132:190|132:190|204:172,1,150,0|0,0:0|0:0,0:0:0:0:
260,224,109123,1,0,0:0:0:0:
336,228,109273,2,0,P|376:220|404:192,1,75,8|8,0:1|0:1,0:0:0:0:
340,156,109573,2,0,P|344:144|336:84,1,75,8|8,0:0|0:0,0:0:0:0:
256,128,109873,6,0,B|264:160|264:160|248:188|248:188|260:224|260:224|240:280|256:328,1,209.999993591309,4|4,0:2|0:2,0:0:0:0:
80,244,110473,22,0,P|64:200|68:164,1,75,4|0,0:2|0:0,0:0:0:0:
116,116,110773,2,0,P|148:136|256:128,1,150,8|0,0:0|0:0,0:0:0:0:
288,60,111223,2,0,L|368:56,2,75,0|8|0,0:0|0:0|0:0,0:0:0:0:
360,132,111673,6,0,L|440:152,1,75,2|0,0:2|0:0,0:0:0:0:
484,204,111973,1,8,0:0:0:0:
473,278,112123,1,0,0:0:0:0:
404,308,112273,2,0,P|352:312|316:300,1,75
272,256,112573,2,0,P|232:252|192:268,1,75,8|0,0:0|0:0,0:0:0:0:
160,328,112873,5,2,0:2:0:0:
160,328,113023,1,0,0:0:0:0:
92,300,113173,2,0,L|64:140,2,150,8|0|8,0:0|0:0|0:0,0:0:0:0:
160,328,113923,1,0,0:0:0:0:
200,264,114073,38,0,P|232:252|272:256,1,75,2|0,0:2|0:0,0:0:0:0:
328,308,114373,1,8,0:0:0:0:
348,236,114523,2,0,B|352:160|352:160|316:92,1,150,0|8,0:0|0:0,0:0:0:0:
256,52,114973,2,0,L|256:12,3,37.5,8|0|8|8,0:0|0:0|0:0|0:0,0:0:0:0:
256,52,115273,6,0,P|200:104|120:100,1,150,4|8,0:2|0:0,0:0:0:0:
316,168,115873,2,0,P|392:184|464:152,1,150,8|8,0:0|0:0,0:0:0:0:
148,260,116473,6,0,L|128:332,1,75,8|0,0:0|0:0,0:0:0:0:
220,276,116773,2,0,L|212:364,1,75,8|0,0:0|0:0,0:0:0:0:
292,276,117073,2,0,L|300:364,1,75,8|0,0:0|0:0,0:0:0:0:
364,260,117373,2,0,L|384:332,1,75,8|0,0:0|0:0,0:0:0:0:
328,188,117673,38,0,P|252:208|184:188,1,150,4|8,0:2|0:0,0:0:0:0:
156,120,118123,1,8,0:0:0:0:
156,120,118198,1,0,0:0:0:0:
156,120,118273,2,0,B|164:84|164:84|192:48,1,75,8|8,0:0|0:0,0:0:0:0:
324,53,118573,2,0,B|348:84|348:84|356:120,1,75,8|8,0:0|0:0,0:0:0:0:
256,128,118873,38,0,L|256:68,2,52.4999983978272,0|0|4,0:0|0:0|0:2,0:0:0:0:
256,332,119323,1,4,0:2:0:0:
200,284,119473,6,0,L|180:292,3,22.4999993133545,4|0|0|0,0:2|0:0|0:0|0:0,0:0:0:0:
184,248,119773,2,0,L|148:248,3,22.4999993133545,8|8|8|8,0:0|0:0|0:0|0:0,0:0:0:0:
176,212,120073,22,0,B|144:208|144:208|120:188|120:188|84:188|84:188|51:164|44:120,1,165.000005035401,4|8,0:2|0:0,0:0:0:0:
76,56,120523,1,0,0:0:0:0:
76,56,120673,2,0,P|140:68|232:36,1,165.000005035401,0|8,0:0|0:0,0:0:0:0:
452,128,121273,6,0,P|388:116|296:148,1,165.000005035401,2|8,0:2|0:0,0:0:0:0:
260,220,121723,1,0,0:0:0:0:
176,212,121873,2,0,L|160:120,1,82.5000025177003,2|0,0:2|0:0,0:0:0:0:
260,220,122173,2,0,L|274:301,1,82.5000025177003,8|0,0:0|0:0,0:0:0:0:
204,344,122473,37,2,0:2:0:0:
295,148,122773,1,8,0:0:0:0:
412,332,123073,2,0,P|460:336|500:320,1,82.5000025177003,0|0,0:0|0:0,0:0:0:0:
416,248,123373,2,0,P|372:256|332:248,1,82.5000025177003,8|0,0:0|0:0,0:0:0:0:
448,172,123673,6,0,P|476:112|428:32,2,165.000005035401,2|8|0,0:2|0:0|0:0,0:0:0:0:
396,108,124423,1,0,0:0:0:0:
312,104,124573,2,0,L|268:72,3,41.2500012588501,8|8|8|8,0:0|0:0|0:0|0:0,0:0:0:0:
312,104,124873,6,0,B|284:184|284:184|300:272,1,165.000005035401,4|8,0:2|0:0,0:0:0:0:
64,272,125473,2,0,L|40:180,1,82.5000025177003,0|0,0:0|0:0,0:0:0:0:
132,208,125773,2,0,L|120:124,1,82.5000025177003,8|0,0:0|0:0,0:0:0:0:
208,156,126073,38,0,P|216:88|288:16,1,165.000005035401,2|8,0:2|0:0,0:0:0:0:
364,24,126523,1,0,0:0:0:0:
424,84,126673,2,0,P|480:88|520:72,2,82.5000025177003,0|0|8,0:0|0:0|0:0,0:0:0:0:
320,264,127273,6,0,L|332:312,4,41.2500012588501,8|8|8|0|4,0:0|0:0|0:0|0:0|0:2,0:0:0:0:
244,84,127873,2,0,L|252:28,4,41.2500012588501,8|8|8|0|4,0:0|0:0|0:0|0:0|0:2,0:0:0:0:
120,272,128473,6,0,P|92:232|88:196,1,82.5000025177003,4|0,0:2|0:0,0:0:0:0:
104,168,128698,1,0,0:0:0:0:
120,140,128773,2,0,L|116:48,1,82.5000025177003,8|0,0:0|0:0,0:0:0:0:
196,144,129073,2,0,L|199:226,1,82.5000025177003,0|0,0:0|0:0,0:0:0:0:
244,84,129373,2,0,L|252:28,3,41.2500012588501,8|0|0|8,0:0|0:0|0:0|0:0,0:0:0:0:
244,84,129673,38,0,B|259:107|259:107|296:108|296:108|344:140|396:124,1,165.000005035401,4|8,0:2|0:0,0:0:0:0:
400,312,130273,1,0,0:0:0:0:
320,332,130423,1,0,0:0:0:0:
248,292,130573,2,0,P|204:284|160:296,1,82.5000025177003,8|0,0:0|0:0,0:0:0:0:
108,348,130873,6,0,P|136:284|112:188,1,165.000005035401,2|8,0:2|0:0,0:0:0:0:
40,160,131323,1,0,0:0:0:0:
108,112,131473,2,0,B|188:92|188:92|280:108,1,165.000005035401,2|8,0:2|0:0,0:0:0:0:
400,312,132073,5,2,0:2:0:0:
192,172,132373,1,8,0:0:0:0:
412,56,132673,2,0,P|450:66|492:104,1,82.5000025177003,0|0,0:0|0:0,0:0:0:0:
416,140,132973,2,0,P|440:180|440:216,1,82.5000025177003,8|0,0:0|0:0,0:0:0:0:
360,200,133273,38,0,P|304:168|280:64,1,165.000005035401,2|8,0:2|0:0,0:0:0:0:
196,52,133723,1,0,0:0:0:0:
196,52,133873,2,0,L|116:84,1,82.5000025177003,0|0,0:0|0:0,0:0:0:0:
64,188,134173,2,0,L|12:192,3,41.2500012588501,8|8|8|8,0:0|0:0|0:0|0:0,0:0:0:0:
64,188,134473,6,0,P|132:216|224:200,1,165.000005035401,4|8,0:2|0:0,0:0:0:0:
280,144,134923,1,0,0:0:0:0:
360,164,135073,2,0,L|436:216,1,82.5000025177003,0|0,0:0|0:0,0:0:0:0:
304,224,135373,2,0,L|356:292,1,82.5000025177003,8|0,0:0|0:0,0:0:0:0:
244,280,135673,6,0,P|192:232|176:136,1,165.000005035401,4|8,0:2|0:0,0:0:0:0:
224,76,136123,1,0,0:0:0:0:
304,60,136273,2,0,L|388:72,1,82.5000025177003
224,76,136573,2,0,L|140:64,1,82.5000025177003,8|0,0:0|0:0,0:0:0:0:
68,176,136873,38,0,P|48:216|44:260,1,82.5000025177003,4|0,0:2|0:0,0:0:0:0:
148,196,137173,2,0,P|156:236|184:272,1,82.5000025177003,8|0,0:0|0:0,0:0:0:0:
220,156,137473,2,0,P|256:180|296:188,1,82.5000025177003,0|8,0:0|0:0,0:0:0:0:
364,144,137773,2,0,P|412:148|460:172,1,82.5000025177003,0|8,0:0|0:0,0:0:0:0:
472,240,138073,6,0,L|488:284,3,41.2500012588501,4|0|0|0,0:2|0:0|0:0|0:0,0:0:0:0:
444,284,138373,2,0,L|452:336,3,41.2500012588501,8|0|0|8,0:0|0:0|0:0|0:0,0:0:0:0:
408,320,138673,2,0,B|388:340|388:340|368:332|348:336|348:336|316:360|316:360|240:372|200:300,1,247.500007553101,8|8,0:0|0:0,0:0:0:0:
196,220,139273,1,4,0:2:0:0:
256,192,139348,12,2,141673,2:0:0:0:
428,200,148873,54,0,B|416:244|416:244|380:288|320:272,1,150,4|8,0:2|0:0,0:0:0:0:
260,232,149323,2,0,L|252:148,1,75,2|0,0:2|0:0,0:0:0:0:
188,252,149623,2,0,L|148:176,1,75,2|8,0:2|0:0,0:0:0:0:
156,320,149923,1,2,0:2:0:0:
84,308,150073,6,0,P|52:280|36:244,1,75,2|0,0:2|0:0,0:0:0:0:
80,188,150373,2,0,L|68:104,2,75,8|2|2,0:0|0:2|0:2,0:0:0:0:
156,140,150823,2,0,L|160:96,2,37.5,0|0|8,0:0|0:0|0:0,0:0:0:0:
224,188,151123,1,0,0:0:0:0:
292,140,151273,6,0,B|328:136|328:136|368:144,1,75,2|8,0:2|0:0,0:0:0:0:
416,208,151573,2,0,L|452:188,3,37.5,8|0|0|0,0:0|0:0|0:0|0:0,0:0:0:0:
416,208,151873,2,0,L|404:292,1,75,2|0,0:2|0:0,0:0:0:0:
336,308,152173,1,8,0:0:0:0:
264,284,152323,1,2,0:2:0:0:
264,284,152623,38,0,P|224:292|176:280,2,75,2|8|0,0:2|0:0|0:0,0:0:0:0:
320,236,153073,2,0,L|334:162,1,75,2|0,0:2|0:0,0:0:0:0:
400,124,153373,2,0,L|444:124,3,37.5,8|0|8|0,0:0|0:0|0:0|0:0,0:0:0:0:
400,124,153673,6,0,B|376:144|376:144|340:132|340:132|300:148|248:128,1,150,4|8,0:2|0:0,0:0:0:0:
208,80,154123,1,0,0:0:0:0:
136,96,154273,2,0,L|108:168,1,75,2|0,0:2|0:0,0:0:0:0:
20,144,154573,2,0,L|40:232,1,75,8|2,0:0|0:2,0:0:0:0:
116,252,154873,6,0,L|108:296,3,37.5,4|0|2|0,0:2|0:0|0:2|0:0,0:0:0:0:
148,252,155173,2,0,L|152:296,3,37.5,8|0|2|0,0:0|0:0|0:2|0:0,0:0:0:0:
184,264,155473,2,0,B|244:268|282:233|282:233|292:208|292:208|308:200,1,150,2|8,0:2|0:0,0:0:0:0:
376,232,155923,1,2,0:2:0:0:
376,232,155998,1,0,0:0:0:0:
376,232,156073,38,0,P|412:236|452:220,1,75,4|0,0:2|0:0,0:0:0:0:
404,160,156373,2,0,P|440:136|456:104,1,75,8|2,0:0|0:2,0:0:0:0:
384,88,156673,2,0,P|396:52|392:12,1,75,8|2,0:0|0:2,0:0:0:0:
324,44,156973,2,0,L|248:36,1,75,8|2,0:0|0:2,0:0:0:0:
188,80,157273,6,0,L|140:92,3,37.5,2|0|0|2,0:2|0:0|0:0|0:2,0:0:0:0:
180,116,157573,2,0,L|156:148,3,37.5,8|2|0|0,0:0|0:2|0:0|0:0,0:0:0:0:
196,152,157873,2,0,L|184:200,3,37.5,8|2|2|0,0:0|0:2|0:2|0:0,0:0:0:0:
224,176,158173,2,0,P|264:172|304:184,1,75,8|8,0:0|0:0,0:0:0:0:
336,244,158473,6,0,P|340:292|420:348,1,150,4|0,0:2|0:0,0:0:0:0:
204,272,159073,2,0,P|156:276|100:356,1,150,0|0,0:0|0:0,0:0:0:0:
176,140,159673,2,0,P|172:92|92:36,1,150,2|0,0:2|0:0,0:0:0:0:
308,112,160273,2,0,P|356:108|412:28,1,150,0|0,0:0|0:0,0:0:0:0:
224,28,160873,37,2,0:2:0:0:
92,224,161173,1,0,0:0:0:0:
288,356,161473,1,0,0:0:0:0:
420,160,161773,1,0,0:0:0:0:
160,128,162073,1,2,0:2:0:0:
352,256,162373,1,0,0:0:0:0:
192,288,162673,1,0,0:0:0:0:
320,96,162973,1,0,0:0:0:0:
156,212,163273,6,0,P|96:184|80:100,2,150,8|0|0,0:2|0:0|0:0,0:0:0:0:
236,84,164173,1,0,0:0:0:0:
356,172,164473,2,0,P|416:200|432:284,2,150,2|0|0,0:2|0:0|0:0,0:0:0:0:
276,300,165373,1,0,0:0:0:0:
156,212,165673,6,0,L|148:52,1,150,2|0,0:2|0:0,0:0:0:0:
363,62,166273,2,0,L|356:212,1,150,0|0,0:0|0:0,0:0:0:0:
352,288,166723,1,0,0:0:0:0:
324,356,166873,2,0,P|284:372|240:368,1,75,8|8,0:1|0:1,0:0:0:0:
276,300,167173,2,0,P|228:296|200:276,1,75,8|8,0:0|0:0,0:0:0:0:
256,228,167473,6,0,B|270:199|270:199|256:164|256:164|268:144|268:144|236:88|256:32,1,209.999993591309,4|4,0:2|0:2,0:0:0:0:
392,148,168073,21,4,0:2:0:0:
392,224,168223,1,0,0:0:0:0:
352,288,168373,2,0,P|276:312|200:296,1,150,8|0,0:0|0:0,0:0:0:0:
168,236,168823,1,0,0:0:0:0:
96,260,168973,2,0,L|68:332,1,75,8|0,0:0|0:0,0:0:0:0:
32,220,169273,6,0,L|24:132,1,75,2|0,0:2|0:0,0:0:0:0:
80,92,169573,1,8,0:0:0:0:
80,92,169723,1,0,0:0:0:0:
144,132,169873,2,0,L|152:212,1,75,8|0,0:0|0:0,0:0:0:0:
224,224,170173,2,0,L|232:304,1,75,8|0,0:0|0:0,0:0:0:0:
352,288,170473,6,0,L|360:368,2,75,2|0|8,0:2|0:0|0:0,0:0:0:0:
368,72,171073,1,0,0:0:0:0:
368,72,171223,1,0,0:0:0:0:
436,40,171373,2,0,P|472:44|508:64,1,75,8|0,0:0|0:0,0:0:0:0:
476,160,171673,38,0,P|440:156|404:136,1,75,2|0,0:2|0:0,0:0:0:0:
368,72,171973,1,8,0:0:0:0:
368,72,172123,2,0,P|312:104|216:80,1,150,0|8,0:0|0:0,0:0:0:0:
192,24,172573,2,0,L|132:28,3,37.5,8|8|8|8,0:0|0:0|0:0|0:0,0:0:0:0:
192,24,172873,6,0,B|224:92|224:92|200:164,1,150,4|8,0:2|0:0,0:0:0:0:
320,360,173473,2,0,B|288:292|288:292|312:220,1,150,8|8,0:0|0:0,0:0:0:0:
236,48,174073,6,0,L|160:68,1,75,8|0,0:0|0:0,0:0:0:0:
276,116,174373,2,0,L|352:136,1,75,8|0,0:0|0:0,0:0:0:0:
232,180,174673,2,0,L|156:200,1,75,8|0,0:0|0:0,0:0:0:0:
272,248,174973,2,0,L|348:268,1,75,8|0,0:0|0:0,0:0:0:0:
220,308,175273,38,0,P|200:216|232:180,1,150,4|8,0:2|0:0,0:0:0:0:
276,116,175723,1,8,0:0:0:0:
276,116,175798,1,0,0:0:0:0:
276,116,175873,2,0,P|238:103|192:112,1,75,8|0,0:0|0:0,0:0:0:0:
308,184,176173,2,0,P|336:160|352:116,1,75,8|8,0:0|0:0,0:0:0:0:
296,40,176473,38,0,B|332:32|332:32|356:48|356:48|396:40|428:64,2,139.999995727539,8|8|8,0:0|0:0|0:0,0:0:0:0:
212,164,177073,2,0,B|176:172|176:172|152:156|152:156|112:164|80:140,2,139.999995727539,8|8|8,0:0|0:0|0:0,0:0:0:0:
332,140,187873,6,0,L|356:96,1,44.999998626709,2|0,0:0|0:0,0:0:0:0:
388,184,188173,2,0,L|432:152,1,44.999998626709,2|0,0:0|0:0,0:0:0:0:
412,256,188473,2,0,P|356:252|324:224,1,89.9999972534181,2|0,0:0|0:0,0:0:0:0:
200,256,189073,2,0,B|184:272|184:296|184:296|144:324|96:312,1,134.999995880127,8|0,0:0|0:0,0:0:0:0:
24,276,189673,6,0,B|8:240|8:240|20:200|20:200|-4:160|12:116,1,165.000005035401,4|8,0:2|0:0,0:0:0:0:
88,152,190123,1,0,0:0:0:0:
88,152,190273,2,0,P|132:228|200:256,1,165.000005035401,2|8,0:2|0:0,0:0:0:0:
437,209,190873,6,0,P|480:225|508:248,1,82.5000025177003,2|0,0:2|0:0,0:0:0:0:
360,248,191173,2,0,P|351:201|358:166,1,82.5000025177003,8|0,0:0|0:0,0:0:0:0:
435,296,191473,2,0,P|399:326|365:338,1,82.5000025177003,0|0,0:0|0:0,0:0:0:0:
283,330,191773,1,8,0:0:0:0:
88,152,192073,6,0,P|104:88|192:68,1,165.000005035401,2|8,0:2|0:0,0:0:0:0:
228,144,192523,1,0,0:0:0:0:
276,76,192673,2,0,L|364:72,1,82.5000025177003,0|0,0:0|0:0,0:0:0:0:
408,140,192973,2,0,L|452:136,3,41.2500012588501,8|8|8|8,0:0|0:0|0:0|0:0,0:0:0:0:
408,140,193273,38,0,B|368:212|368:212|288:248,1,165.000005035401,4|8,0:2|0:0,0:0:0:0:
212,232,193723,1,0,0:0:0:0:
156,292,193873,2,0,L|168:376,2,82.5000025177003,0|0|8,0:0|0:0|0:0,0:0:0:0:
56,72,194473,6,0,P|32:140|60:228,1,165.000005035401,2|8,0:2|0:0,0:0:0:0:
136,112,194923,1,0,0:0:0:0:
136,112,195073,2,0,B|172:92|172:92|224:92,1,82.5000025177003,0|0,0:0|0:0,0:0:0:0:
336,188,195373,2,0,B|294:188|294:188|252:168,1,82.5000025177003,8|0,0:0|0:0,0:0:0:0:
316,96,195673,6,0,L|328:48,4,41.2500012588501,8|8|8|0|4,0:0|0:0|0:0|0:0|0:2,0:0:0:0:
196,288,196273,2,0,L|184:336,4,41.2500012588501,8|8|8|0|4,0:0|0:0|0:0|0:0|0:2,0:0:0:0:
416,336,196873,38,0,P|448:328|484:296,1,82.5000025177003,4|0,0:2|0:0,0:0:0:0:
492,264,197098,1,0,0:0:0:0:
484,232,197173,2,0,L|468:144,1,82.5000025177003,8|0,0:0|0:0,0:0:0:0:
372,96,197473,2,0,L|364:184,1,82.5000025177003,8|8,0:0|0:0,0:0:0:0:
276,224,197773,2,0,L|288:268,3,41.2500012588501,8|0|0|8,0:0|0:0|0:0|0:0,0:0:0:0:
276,224,198073,6,0,B|248:213|248:213|208:224|176:204|176:204|144:208|144:208|124:188,1,165.000005035401,4|8,0:2|0:0,0:0:0:0:
104,108,198523,1,0,0:0:0:0:
104,108,198673,2,0,P|120:168|76:256,1,165.000005035401,0|8,0:0|0:0,0:0:0:0:
192,84,199273,6,0,B|272:72|272:72|360:88,1,165.000005035401,2|8,0:2|0:0,0:0:0:0:
420,136,199723,1,0,0:0:0:0:
456,212,199873,2,0,P|448:260|424:292,1,82.5000025177003,2|0,0:2|0:0,0:0:0:0:
348,272,200173,2,0,P|312:300|272:308,1,82.5000025177003,8|0,0:0|0:0,0:0:0:0:
204,264,200473,37,2,0:2:0:0:
288,60,200773,1,8,0:0:0:0:
348,272,201073,2,0,L|356:356,1,82.5000025177003,0|0,0:0|0:0,0:0:0:0:
280,228,201373,2,0,L|272:145,1,82.5000025177003,8|0,0:0|0:0,0:0:0:0:
204,264,201673,6,0,P|140:272|48:224,1,165.000005035401,2|8,0:2|0:0,0:0:0:0:
288,60,202273,1,0,0:0:0:0:
364,96,202423,1,0,0:0:0:0:
404,168,202573,2,0,L|456:168,3,41.2500012588501,8|8|8|8,0:0|0:0|0:0|0:0,0:0:0:0:
404,168,202873,6,0,P|376:256|308:296,1,165.000005035401,4|8,0:2|0:0,0:0:0:0:
96,228,203473,2,0,P|76:184|80:136,1,82.5000025177003,0|0,0:0|0:0,0:0:0:0:
172,252,203773,2,0,P|143:291|100:311,1,82.5000025177003,8|0,0:0|0:0,0:0:0:0:
152,172,204073,38,0,B|197:167|229:194|229:194|262:218|308:212,1,165.000005035401,4|8,0:2|0:0,0:0:0:0:
380,168,204523,1,0,0:0:0:0:
360,88,204673,2,0,L|368:44,3,41.2500012588501,8|0|8|0,0:0|0:0|0:0|0:0,0:0:0:0:
312,60,204973,2,0,L|308:16,3,41.2500012588501,8|0|0|0,0:0|0:0|0:0|0:0,0:0:0:0:
264,44,205273,54,0,P|228:48|188:40,1,67.4999979400635,8|0,0:0|0:0,0:0:0:0:
168,28,205573,22,0,P|196:100|160:176,1,165.000005035401,4|0,0:2|0:0,0:0:0:0:
80,196,206023,1,0,0:0:0:0:
104,276,206173,2,0,P|144:288|192:284,1,82.5000025177003,8|0,0:0|0:0,0:0:0:0:
236,220,206473,6,0,B|280:216|316:236|316:236|328:276|372:292,1,165.000005035401,2|8,0:2|0:0,0:0:0:0:
396,212,206923,1,0,0:0:0:0:
396,212,207073,2,0,P|408:132|384:48,1,165.000005035401,2|8,0:2|0:0,0:0:0:0:
116,212,207673,37,2,0:2:0:0:
396,212,207973,1,8,0:0:0:0:
168,52,208273,1,0,0:0:0:0:
256,320,208573,1,8,0:0:0:0:
344,52,208873,6,0,P|272:92|232:184,1,165.000005035401,2|8,0:2|0:0,0:0:0:0:
428,284,209473,2,0,P|420:240|396:212,1,82.5000025177003,0|0,0:0|0:0,0:0:0:0:
312,204,209773,2,0,L|328:152,3,41.2500012588501,8|8|8|8,0:0|0:0|0:0|0:0,0:0:0:0:
312,204,210073,6,0,P|252:248|164:220,1,165.000005035401,4|8,0:2|0:0,0:0:0:0:
148,144,210523,1,0,0:0:0:0:
68,168,210673,2,0,L|32:248,2,82.5000025177003,0|0|8,0:0|0:0|0:0,0:0:0:0:
272,44,211273,38,0,L|312:204,1,165.000005035401,2|8,0:2|0:0,0:0:0:0:
388,236,211723,1,0,0:0:0:0:
468,220,211873,2,0,P|476:176|464:132,1,82.5000025177003,0|0,0:0|0:0,0:0:0:0:
388,236,212173,2,0,P|360:272|320:288,1,82.5000025177003,8|0,0:0|0:0,0:0:0:0:
224,272,212473,6,0,L|180:288,4,41.2500012588501,8|8|8|0|4,0:0|0:0|0:0|0:0|0:2,0:0:0:0:
288,88,213073,2,0,L|332:104,4,41.2500012588501,8|8|8|0|4,0:0|0:0|0:0|0:0|0:2,0:0:0:0:
56,108,213673,6,0,P|44:152|48:192,1,82.5000025177003,4|0,0:2|0:0,0:0:0:0:
64,216,213898,1,0,0:0:0:0:
80,244,213973,2,0,P|92:288|88:328,1,82.5000025177003,8|0,0:0|0:0,0:0:0:0:
176,260,214273,2,0,P|164:216|168:176,1,82.5000025177003,8|8,0:0|0:0,0:0:0:0:
252,296,214573,2,0,P|219:328|183:344,1,82.5000025177003,8|0,0:0|0:0,0:0:0:0:
248,212,214873,38,0,B|292:220|292:220|320:244|320:244|360:264|404:252,1,165.000005035401,4|8,0:2|0:0,0:0:0:0:
468,200,215323,1,0,0:0:0:0:
468,200,215473,2,0,P|448:160|460:36,1,165.000005035401,0|8,0:0|0:0,0:0:0:0:
244,72,216073,6,0,B|164:92|164:92|76:64,1,165.000005035401,2|8,0:2|0:0,0:0:0:0:
44,140,216523,1,0,0:0:0:0:
44,140,216673,2,0,L|56:308,1,165.000005035401,2|8,0:2|0:0,0:0:0:0:
344,348,217273,6,0,L|376:252,1,82.5000025177003,2|0,0:2|0:0,0:0:0:0:
268,280,217573,2,0,L|244:196,1,82.5000025177003,8|0,0:0|0:0,0:0:0:0:
336,188,217873,2,0,L|356:100,1,82.5000025177003,0|0,0:0|0:0,0:0:0:0:
256,112,218173,2,0,L|240:24,1,82.5000025177003,8|0,0:0|0:0,0:0:0:0:
148,96,218473,38,0,P|120:172|140:260,1,165.000005035401,2|8,0:2|0:0,0:0:0:0:
192,312,218923,1,0,0:0:0:0:
268,280,219073,2,0,P|308:272|360:280,1,82.5000025177003,0|0,0:0|0:0,0:0:0:0:
428,308,219373,2,0,L|440:352,3,41.2500012588501,8|8|8|8,0:0|0:0|0:0|0:0,0:0:0:0:
428,308,219673,6,0,P|444:248|420:136,1,165.000005035401,4|8,0:2|0:0,0:0:0:0:
164,52,220273,1,0,0:0:0:0:
132,128,220423,1,0,0:0:0:0:
140,208,220573,2,0,P|176:256|196:268,1,82.5000025177003,8|0,0:0|0:0,0:0:0:0:
320,264,220873,6,0,P|316:188|268:104,1,165.000005035401,4|8,0:2|0:0,0:0:0:0:
55,221,221473,1,0,0:0:0:0:
84,299,221623,1,0,0:0:0:0:
144,352,221773,2,0,P|203:362|225:357,1,82.5000025177003,8|0,0:0|0:0,0:0:0:0:
320,264,222073,38,0,L|336:156,1,82.5000025177003,4|0,0:2|0:0,0:0:0:0:
192,264,222373,2,0,L|176:156,1,82.5000025177003,8|0,0:0|0:0,0:0:0:0:
200,21,222673,2,0,L|208:104,1,82.5000025177003,0|8,0:0|0:0,0:0:0:0:
311,21,222973,2,0,L|304:104,1,82.5000025177003,0|8,0:0|0:0,0:0:0:0:
256,172,223273,6,0,L|256:216,3,41.2500012588501,4|0|0|0,0:2|0:0|0:0|0:0,0:0:0:0:
256,256,223573,2,0,L|256:300,3,41.2500012588501,8|0|0|8,0:0|0:0|0:0|0:0,0:0:0:0:
208,324,223873,22,0,P|272:340|304:324,1,104.999996795654,8|8,0:0|0:0,0:0:0:0:
256,80,224473,21,4,0:2:0:0:
256,192,224548,12,4,229273,0:2:0:0:
