osu file format v12

[General]
AudioFilename: kakushigoto.mp3
AudioLeadIn: 1000
PreviewTime: 51073
Countdown: 0
SampleSet: Normal
StackLeniency: 0.5
Mode: 0
LetterboxInBreaks: 0
WidescreenStoryboard: 0

[Editor]
DistanceSpacing: 1
BeatDivisor: 2
GridSize: 4

[Metadata]
Title:Kakushigoto
TitleUnicode:かくしごと
Artist:yuikonnu
ArtistUnicode:ゆいこんぬ
Creator:jonathanlfj
Version:Easy
Source:
Tags:IA vocaloid mafumafu secret nico douga
BeatmapID:313486
BeatmapSetID:122605

[Difficulty]
HPDrainRate:2
CircleSize:3
OverallDifficulty:2
ApproachRate:3
SliderMultiplier:0.8
SliderTickRate:1

[Events]
//Background and Video events
0,0,"37904033.jpg",0,0
Video,0,"video.avi"
//Break Periods
2,73473,80233
2,141873,147433
2,178873,186073
//Storyboard Layer 0 (Background)
//Storyboard Layer 1 (Fail)
//Storyboard Layer 2 (Pass)
//Storyboard Layer 3 (Foreground)
//Storyboard Sound Samples
//Background Colour Transformations
3,100,163,162,255

[TimingPoints]
1273,300,4,2,1,40,1,0
1273,-100,4,2,1,40,0,0
1798,-100,4,1,1,60,0,0
2473.52634123162,300,4,1,1,70,1,1
2548,-100,4,1,1,70,0,0
11773,-100,4,2,1,70,0,0
13273,300,4,2,1,60,1,0
13273,-100,4,2,1,60,0,0
21973,-100,4,2,1,65,0,0
22273,-100,4,1,1,60,0,0
22873,-100,4,1,1,70,0,0
32473,-100,4,3,1,60,0,0
41473,-100,4,1,1,80,0,0
42073,-100,4,1,1,60,0,0
46873,-100,4,1,1,60,0,0
48673,-100,4,1,1,65,0,0
49273,-100,4,1,1,70,0,0
50623,-100,4,1,1,80,0,0
51073,-100,4,2,1,50,0,0
51673,-100,4,1,1,80,0,1
69073,-100,4,1,1,60,0,1
69673,-100,4,1,1,70,0,1
70273,-100,4,1,1,80,0,1
70873,-100,4,1,1,70,0,0
81673,300,4,2,1,60,1,0
81673,-100,4,2,1,60,0,0
90073,-100,4,2,1,65,0,0
90373,-100,4,2,1,70,0,0
90673,-100,4,2,1,40,0,0
91273,-100,4,1,1,70,0,0
100873,-100,4,3,1,60,0,0
109873,-100,4,1,1,80,0,0
110473,-100,4,1,1,60,0,0
115273,-100,4,1,1,60,0,0
117073,-100,4,1,1,65,0,0
117673,-100,4,1,1,70,0,0
119023,-100,4,1,1,80,0,0
119473,-100,4,1,1,45,0,0
120073,-100,4,1,1,80,0,1
137473,-100,4,1,1,60,0,1
138073,-100,4,1,1,70,0,1
138673,-100,4,1,1,80,0,1
139273,-100,4,1,1,70,0,0
141673,-100,4,1,1,40,0,0
148873,-100,4,1,1,70,0,0
156673,-100,4,1,1,75,0,0
157273,-100,4,1,1,80,0,0
158473,-100,4,3,1,60,0,0
167473,-100,4,1,1,80,0,0
168073,-100,4,1,1,60,0,0
174073,-100,4,1,1,65,0,0
175273,-100,4,1,1,70,0,0
176473,-100,4,1,1,80,0,0
178873,300,4,1,1,80,1,0
187873,-100,4,2,1,20,0,0
188473,-100,4,2,1,25,0,0
189073,-100,4,2,1,30,0,0
189673,-100,4,1,1,80,0,1
204373,-100,4,1,1,70,0,1
204673,-100,4,1,1,75,0,1
204973,-100,4,1,1,80,0,1
205273,300,4,2,1,40,1,0
205273,-100,4,2,1,40,0,0
205573,-100,4,1,1,80,0,1
222673,-100,4,1,1,60,0,1
222973,-100,4,1,1,65,0,1
223273,-100,4,1,1,70,0,1
223573,-100,4,1,1,75,0,1
223873,-100,4,1,1,80,0,1
224473,-100,4,1,1,80,0,0

[Colours]
Combo1 : 202,202,202
Combo2 : 254,150,252
Combo3 : 185,102,253
Combo4 : 87,199,253
Combo5 : 251,21,21

[HitObjects]
68,232,1273,2,0,P|132:236|220:188,1,160,4|8,0:0|0:0,0:0:0:0:
240,116,2173,1,8,0:0:0:0:
320,100,2473,6,0,P|392:136|428:208,2,160,4|0|0,0:2|0:0|0:0,0:0:0:0:
284,256,4273,2,0,L|256:336,1,79.9999999999999,0|8,0:0|0:0,0:0:0:0:
176,336,4873,6,0,B|128:272|128:272|128:184,1,160,2|0,0:2|0:0,0:0:0:0:
192,44,6073,2,0,B|240:108|240:108|240:196,1,160,0|0,0:0|0:0,0:0:0:0:
284,256,6973,1,8,0:0:0:0:
360,284,7273,38,0,P|432:276|488:200,2,160,4|0|0,0:2|0:0|0:0,0:0:0:0:
352,124,9073,2,0,P|376:88|420:68,1,79.9999999999999,0|8,0:0|0:0,0:0:0:0:
428,148,9673,6,0,P|348:204|272:112,1,240,2|8,0:2|0:0,0:0:0:0:
320,48,10873,2,0,L|188:72,2,120,2|2|8,0:2|0:2|0:0,0:0:0:0:
28,320,13273,6,0,P|100:268|184:280,1,160,0|2,0:0|0:0,0:0:0:0:
232,320,14173,2,0,L|320:300,1,79.9999999999999,2|8,0:0|0:0,0:0:0:0:
436,204,15073,1,2,0:0:0:0:
440,124,15373,1,2,0:0:0:0:
376,76,15673,38,0,P|312:96|224:72,1,160,0|2,0:0|0:0,0:0:0:0:
156,112,16573,2,0,L|136:204,1,79.9999999999999,2|8,0:0|0:0,0:0:0:0:
248,308,17473,2,0,L|264:229,1,79.9999999999999,2|0,0:0|0:0,0:0:0:0:
332,188,18073,5,2,0:0:0:0:
320,348,18673,1,2,0:0:0:0:
164,304,19273,1,2,0:0:0:0:
176,144,19873,1,2,0:0:0:0:
332,188,20473,6,0,P|372:192|412:180,2,79.9999999999999,2|0|2,0:0|0:0|0:0,0:0:0:0:
176,144,21673,2,0,L|164:304,1,160,8|8,0:0|0:0,0:0:0:0:
316,352,22873,37,4,0:2:0:0:
384,312,23173,1,8,0:0:0:0:
408,236,23473,2,0,P|400:152|352:96,2,160,0|2|0,0:0|0:2|0:0,0:0:0:0:
260,292,25273,6,0,P|216:264|196:224,1,80,2|8,0:2|0:0,0:0:0:0:
200,160,25873,2,0,P|168:232|96:272,1,160,0|2,0:0|0:2,0:0:0:0:
48,120,27073,1,2,0:2:0:0:
188,48,27673,6,0,P|232:52|280:76,1,79.9999999999999,8|8,0:2|0:0,0:0:0:0:
312,132,28273,2,0,P|384:136|460:80,2,160,0|2|0,0:0|0:2|0:0,0:0:0:0:
184,232,30073,38,0,L|176:316,2,79.9999999999999,2|8|0,0:2|0:0|0:0,0:0:0:0:
336,284,31273,2,0,P|400:268|436:184,1,160,2|2,0:2|0:2,0:0:0:0:
340,60,32473,6,0,B|264:40|264:40|180:48,1,160,4|0,2:0|0:0,0:0:0:0:
248,192,33673,2,0,B|180:232|180:232|144:308,1,160,2|0,0:2|0:0,0:0:0:0:
304,336,34873,6,0,B|372:296|372:296|408:220,1,160,2|0,0:2|0:0,0:0:0:0:
380,148,35773,1,0,0:0:0:0:
300,132,36073,2,0,P|228:96|196:24,1,160,2|0,0:2|0:0,0:0:0:0:
56,100,37273,38,0,L|68:264,1,160,8|0,0:2|0:0,0:0:0:0:
208,184,38473,2,0,L|220:348,1,160,2|0,0:2|0:0,0:0:0:0:
308,208,39673,6,0,P|296:124|236:80,1,160,2|0,0:2|0:0,0:0:0:0:
160,88,40573,2,0,L|72:112,1,79.9999999999999,0|0,0:0|0:0,0:0:0:0:
64,268,41473,21,4,0:2:0:0:
128,316,41773,1,4,0:2:0:0:
208,320,42073,54,0,P|272:308|344:240,1,160,4|0,0:2|0:0,0:0:0:0:
472,336,43273,2,0,P|500:264|484:172,1,160,2|0,0:2|0:0,0:0:0:0:
360,88,44473,38,0,L|272:88,1,79.9999999999999,2|8,0:2|0:0,0:0:0:0:
244,160,45073,2,0,L|156:160,1,79.9999999999999,0|8,0:0|0:0,0:0:0:0:
120,92,45673,2,0,P|120:164|84:200,2,120,2|0|8,0:2|0:0|0:0,0:0:0:0:
48,128,46873,5,4,0:2:0:0:
100,280,47473,1,8,0:0:0:0:
212,168,48073,1,8,0:0:0:0:
324,280,48673,1,8,0:0:0:0:
460,196,49273,6,0,P|480:108|440:16,1,160,4|8,0:2|0:0,0:0:0:0:
380,32,50173,2,0,B|340:44|340:44|260:28,2,120,8|4|8,0:0|0:2|0:0,0:0:0:0:
320,180,51673,38,0,L|160:148,1,160,4|0,0:2|0:0,0:0:0:0:
88,288,52873,2,0,L|192:276,2,79.9999999999999,2|8|2,0:2|0:0|0:2,0:0:0:0:
24,140,54073,6,0,P|52:52|124:24,1,160,2|0,0:2|0:0,0:0:0:0:
184,52,54973,1,8,0:0:0:0:
232,116,55273,2,0,P|316:120|388:80,1,160,2|0,0:2|0:0,0:0:0:0:
436,236,56473,6,0,B|420:316|420:316|348:364,2,160,4|0|2,0:2|0:0|0:2,0:0:0:0:
276,220,58273,1,0,0:0:0:0:
220,164,58573,1,8,0:0:0:0:
224,84,58873,38,0,P|276:48|364:92,1,160,8|8,0:0|0:0,0:0:0:0:
292,128,59773,1,4,0:2:0:0:
220,164,60073,2,0,B|136:188|72:128|72:128|40:156|36:200,1,240,4|8,0:2|0:0,0:0:0:0:
52,276,61273,5,4,0:2:0:0:
208,316,61873,2,0,P|276:312|344:248,1,160,0|2,0:0|0:2,0:0:0:0:
356,172,62773,2,0,L|356:72,1,79.9999999999999,8|2,0:0|0:2,0:0:0:0:
208,28,63673,6,0,B|176:100|176:100|176:184,2,160,2|0|2,0:2|0:0|0:2,0:0:0:0:
356,92,65473,1,0,0:0:0:0:
356,172,65773,1,8,0:0:0:0:
356,252,66073,38,0,P|296:324|232:332,1,160,4|0,0:2|0:0,0:0:0:0:
96,248,67273,2,0,P|164:256|244:216,1,160,4|0,0:2|0:0,0:0:0:0:
140,96,68473,5,4,0:2:0:0:
296,64,69073,1,2,0:2:0:0:
376,204,69673,1,4,0:2:0:0:
264,320,70273,1,8,0:0:0:0:
116,256,70873,1,4,0:2:0:0:
256,192,71023,12,2,73273,2:0:0:0:
392,72,81673,6,0,L|400:172,1,79.9999999999999,0|0,0:0|0:0,0:0:0:0:
348,216,82273,2,0,P|280:240|176:204,1,160,2|8,0:0|0:0,0:0:0:0:
128,76,83473,1,2,0:0:0:0:
204,52,83773,1,2,0:0:0:0:
280,80,84073,38,0,L|272:244,1,160,0|2,0:0|0:0,0:0:0:0:
196,264,84973,1,0,0:0:0:0:
120,236,85273,2,0,L|127:76,1,160,8|2,0:0|0:0,0:0:0:0:
284,36,86473,6,0,B|364:40|364:40|436:92,1,160,2|2,0:0|0:0,0:0:0:0:
408,244,87673,2,0,P|348:252|324:244,2,79.9999999999999,2|0|2,0:0|0:0|0:0,0:0:0:0:
272,156,88873,6,0,P|228:224|244:312,1,160,2|2,0:0|0:0,0:0:0:0:
96,220,90073,2,0,L|80:132,1,79.9999999999999,8|8,0:1|0:1,0:0:0:0:
116,68,90673,21,8,0:0:0:0:
276,56,91273,6,0,P|344:88|452:64,2,160,4|0|2,0:2|0:0|0:2,0:0:0:0:
196,72,92773,2,0,L|192:160,1,79.9999999999999,8|0,0:0|0:0,0:0:0:0:
252,300,93673,5,2,0:2:0:0:
332,288,93973,1,8,0:0:0:0:
380,224,94273,2,0,P|392:148|352:72,1,160,0|2,0:0|0:2,0:0:0:0:
276,56,95173,2,0,L|196:72,1,79.9999999999999,8|2,0:0|0:2,0:0:0:0:
92,192,96073,6,0,P|156:236|244:220,2,160,8|0|2,0:2|0:0|0:2,0:0:0:0:
76,112,97573,2,0,P|84:72|116:36,1,79.9999999999999,8|0,0:0|0:0,0:0:0:0:
268,44,98473,38,0,P|292:75|299:114,2,79.9999999999999,2|8|0,0:2|0:0|0:0,0:0:0:0:
220,108,99373,1,8,0:0:0:0:
252,181,99673,2,0,P|336:188|380:132,1,160,2|2,0:2|0:2,0:0:0:0:
388,292,100873,6,0,P|296:316|224:296,1,160,4|0,0:2|0:0,0:0:0:0:
88,360,102073,2,0,P|36:296|36:208,1,160,2|0,0:2|0:0,0:0:0:0:
64,148,102973,1,0,0:0:0:0:
112,212,103273,6,0,P|180:228|268:192,1,160,2|0,0:2|0:0,0:0:0:0:
324,248,104173,2,0,L|336:332,1,79.9999999999999,0|2,0:0|0:2,0:0:0:0:
480,256,105073,2,0,L|468:176,1,79.9999999999999,0|0,0:0|0:0,0:0:0:0:
448,100,105673,38,0,P|380:56|296:56,2,160,8|0|2,0:2|0:0|0:2,0:0:0:0:
336,216,107473,1,0,0:0:0:0:
180,188,108073,6,0,P|124:132|120:32,1,160,2|0,0:2|0:0,0:0:0:0:
184,16,108973,2,0,P|224:40|248:88,1,79.9999999999999,0|8,0:0|0:1,0:0:0:0:
252,228,109873,21,4,0:2:0:0:
184,268,110173,1,4,0:2:0:0:
112,232,110473,54,0,P|56:176|40:92,1,160,4|0,0:2|0:0,0:0:0:0:
200,100,111673,2,0,P|272:120|360:104,1,160,2|0,0:2|0:0,0:0:0:0:
412,256,112873,38,0,L|504:264,2,79.9999999999999,2|8|0,0:2|0:0|0:0,0:0:0:0:
340,296,113773,1,8,0:0:0:0:
268,260,114073,2,0,P|224:200|236:144,2,120,2|0|8,0:2|0:0|0:0,0:0:0:0:
304,188,115273,5,4,0:2:0:0:
156,124,115873,1,8,0:0:0:0:
284,28,116473,1,8,0:0:0:0:
304,188,117073,1,8,0:0:0:0:
144,204,117673,6,0,P|76:112|200:56,1,280,4|8,0:2|0:0,0:0:0:0:
256,100,119023,2,0,B|248:136|248:136|264:176|264:176|256:216,1,120,4|4,0:2|0:2,0:0:0:0:
194,267,119773,1,8,0:0:0:0:
124,308,120073,38,0,P|56:260|40:176,1,160,4|0,0:2|0:0,0:0:0:0:
164,88,121273,2,0,P|188:124|192:176,2,79.9999999999999,2|8|2,0:2|0:0|0:2,0:0:0:0:
188,248,122473,6,0,P|264:272|344:240,1,160,2|0,0:2|0:0,0:0:0:0:
376,176,123373,1,8,0:0:0:0:
452,204,123673,2,0,L|500:360,1,160,2|0,0:2|0:0,0:0:0:0:
348,308,124873,5,4,0:2:0:0:
296,156,125473,2,0,P|344:100|432:116,1,160,0|2,0:0|0:2,0:0:0:0:
324,232,126673,2,0,P|280:236|240:216,1,79.9999999999999,0|8,0:0|0:0,0:0:0:0:
184,272,127273,38,0,P|116:252|72:176,1,160,8|8,0:0|0:0,0:0:0:0:
92,100,128173,1,4,0:2:0:0:
168,72,128473,2,0,B|208:60|248:72|248:72|320:40|320:40|352:68|392:72,1,240,4|8,0:2|0:0,0:0:0:0:
472,68,129673,6,0,P|504:144|492:236,2,160,4|0|2,0:2|0:0|0:2,0:0:0:0:
392,72,131173,2,0,P|372:112|376:156,1,79.9999999999999,8|2,0:0|0:2,0:0:0:0:
416,300,132073,6,0,P|356:260|268:276,1,160,2|0,0:2|0:0,0:0:0:0:
216,332,132973,1,8,0:0:0:0:
136,320,133273,2,0,P|76:264|72:172,1,160,2|0,0:2|0:0,0:0:0:0:
172,68,134473,38,0,L|344:40,1,160,4|0,0:2|0:0,0:0:0:0:
404,184,135673,2,0,L|232:156,1,160,4|0,0:2|0:0,0:0:0:0:
176,304,136873,5,4,0:2:0:0:
336,304,137473,1,8,0:0:0:0:
388,152,138073,1,4,0:2:0:0:
256,60,138673,1,8,0:0:0:0:
124,152,139273,1,4,0:2:0:0:
256,192,139423,12,2,141673,2:0:0:0:
160,152,148873,6,0,P|244:92|352:152,1,240,4|8,0:2|0:0,0:0:0:0:
352,232,150073,2,0,P|268:292|160:232,1,240,2|8,0:2|0:0,0:0:0:0:
160,152,151273,38,0,L|160:60,1,79.9999999999999,2|8,0:2|0:0,0:0:0:0:
236,48,151873,2,0,P|280:72|360:72,1,120,2|2,0:2|0:2,0:0:0:0:
424,48,152623,2,0,B|452:100|452:100|424:168|452:240,1,200,2|8,0:2|0:0,0:0:0:0:
392,292,153673,6,0,P|312:308|240:272,1,160,4|2,0:2|0:2,0:0:0:0:
84,280,154873,2,0,P|148:256|208:172,1,160,4|2,0:2|0:2,0:0:0:0:
256,36,156073,6,0,P|300:48|328:80,2,79.9999999999999,4|8|8,0:2|0:0|0:0,0:0:0:0:
188,76,156973,1,8,0:0:0:0:
256,116,157273,2,0,B|268:156|268:156|252:192|252:192|268:248|268:248|244:276|240:316|260:348,1,240,2|8,0:2|0:0,0:0:0:0:
328,304,158473,38,0,P|364:248|356:152,1,160,4|0,0:2|0:0,0:0:0:0:
204,200,159673,2,0,P|104:212|40:180,1,160,2|0,0:2|0:0,0:0:0:0:
140,56,160873,6,0,P|240:44|304:76,2,160,2|0|2,0:2|0:0|0:2,0:0:0:0:
52,188,162673,2,0,L|48:272,1,79.9999999999999,0|0,0:0|0:0,0:0:0:0:
96,332,163273,5,8,0:2:0:0:
224,236,163873,1,0,0:0:0:0:
316,368,164473,1,2,0:2:0:0:
172,300,165073,1,0,0:0:0:0:
244,156,165673,38,0,L|404:128,1,160,2|0,0:2|0:0,0:0:0:0:
464,180,166573,2,0,P|468:232|456:268,1,79.9999999999999,0|8,0:0|0:1,0:0:0:0:
308,300,167473,37,4,0:2:0:0:
260,236,167773,1,4,0:2:0:0:
244,156,168073,38,0,P|172:124|92:144,1,160,4|0,0:2|0:0,0:0:0:0:
80,300,169273,2,0,P|152:332|232:312,1,160,2|0,0:2|0:0,0:0:0:0:
320,184,170473,6,0,L|416:192,2,79.9999999999999,2|8|0,0:2|0:0|0:0,0:0:0:0:
284,112,171373,1,8,0:0:0:0:
328,44,171673,2,0,L|424:52,1,79.9999999999999,2|8,0:2|0:0,0:0:0:0:
320,184,172573,1,8,0:0:0:0:
240,180,172873,38,0,P|204:120|244:40,1,160,4|8,0:2|0:0,0:0:0:0:
84,92,174073,2,0,P|120:152|80:232,1,160,8|8,0:0|0:0,0:0:0:0:
212,324,175273,6,0,B|272:296|328:316|328:316|388:288|396:220,1,240,4|8,0:2|0:0,0:0:0:0:
376,144,176473,21,8,0:0:0:0:
256,40,177073,2,0,P|224:80|212:144,1,106.666666666667,8|8,0:0|0:0,0:0:0:0:
144,327,187873,6,0,L|152:248,1,79.9999999999999,2|2,0:0|0:0,0:0:0:0:
224,212,188473,2,0,P|272:232|376:216,1,160,2|8,0:0|0:0,0:0:0:0:
456,80,189673,6,0,L|372:52,1,79.9999999999999,4|8,0:2|0:0,0:0:0:0:
304,72,190273,1,2,0:2:0:0:
224,212,190873,6,0,L|56:240,1,160,2|0,0:2|0:0,0:0:0:0:
20,172,191773,1,8,0:0:0:0:
64,104,192073,2,0,L|221:130,1,160,2|0,0:2|0:0,0:0:0:0:
300,272,193273,6,0,P|228:304|148:276,2,160,4|0|2,0:2|0:0|0:2,0:0:0:0:
352,120,195073,1,0,0:0:0:0:
428,92,195373,1,8,0:0:0:0:
488,144,195673,38,0,P|476:220|400:252,1,160,8|8,0:0|0:0,0:0:0:0:
412,172,196573,1,4,0:2:0:0:
352,120,196873,2,0,B|324:152|336:196|336:196|296:276|208:272,1,240,4|8,0:2|0:0,0:0:0:0:
132,252,198073,5,4,0:2:0:0:
40,120,198673,2,0,P|108:92|200:104,1,160,0|2,0:0|0:2,0:0:0:0:
236,168,199573,2,0,L|268:256,1,79.9999999999999,8|2,0:0|0:2,0:0:0:0:
380,352,200473,6,0,L|416:196,1,160,2|0,0:2|0:0,0:0:0:0:
376,124,201373,1,8,0:0:0:0:
304,88,201673,2,0,P|228:104|152:60,1,160,2|0,0:2|0:0,0:0:0:0:
36,172,202873,37,4,0:2:0:0:
112,312,203473,1,0,0:0:0:0:
264,260,204073,1,4,0:2:0:0:
400,344,204673,2,0,L|424:260,1,79.9999999999999,8|8,0:0|0:0,0:0:0:0:
416,188,205273,53,8,0:0:0:0:
364,128,205573,22,0,P|296:128|272:116,1,79.9999999999999,4|0,0:2|0:0,0:0:0:0:
168,232,206473,2,0,P|236:232|260:244,2,79.9999999999999,2|8|2,0:2|0:0|0:2,0:0:0:0:
32,320,207673,6,0,P|0:240|28:160,1,160,2|0,0:2|0:0,0:0:0:0:
168,112,208873,2,0,P|236:132|332:112,1,160,2|0,0:2|0:0,0:0:0:0:
380,60,209773,1,8,0:0:0:0:
448,100,210073,38,0,B|484:172|484:172|480:268,1,160,4|0,0:2|0:0,0:0:0:0:
360,360,211273,2,0,B|324:288|324:288|328:192,1,160,2|0,0:2|0:0,0:0:0:0:
256,172,212173,1,8,0:0:0:0:
212,240,212473,6,0,P|128:232|96:152,1,160,8|8,0:0|0:0,0:0:0:0:
176,168,213373,1,4,0:2:0:0:
256,172,213673,2,0,B|300:172|328:144|328:144|372:144|400:176|400:176|440:176|472:144,1,240,4|8,0:2|0:0,0:0:0:0:
488,68,214873,6,0,P|420:24|336:12,1,160,4|0,0:2|0:0,0:0:0:0:
200,80,216073,2,0,L|104:52,2,79.9999999999999,2|8|2,0:2|0:0|0:2,0:0:0:0:
332,168,217273,38,0,L|364:260,1,79.9999999999999,2|8,0:2|0:0,0:0:0:0:
288,284,217873,2,0,L|264:364,1,79.9999999999999,0|8,0:0|0:0,0:0:0:0:
184,368,218473,1,2,0:2:0:0:
52,280,219073,2,0,P|34:229|40:184,1,79.9999999999999,0|8,0:0|0:0,0:0:0:0:
80,136,219673,6,0,P|160:152|236:124,1,160,4|0,0:2|0:0,0:0:0:0:
360,32,220873,2,0,P|344:112|372:188,1,160,4|0,0:2|0:0,0:0:0:0:
256,300,222073,5,4,0:2:0:0:
124,208,222673,1,8,0:0:0:0:
256,300,223273,1,4,0:2:0:0:
388,208,223873,1,8,0:0:0:0:
256,120,224473,38,0,B|182:82|89:118|73:201|73:201|183:192|183:192|145:265|182:358|264:375|264:375|256:265|256:265|328:302|420:265|438:184|438:184|328:192|328:192|365:118|328:27|247:10|247:10|251:60,1,1280,4|4,0:2|0:2,0:0:0:0:
