osu file format v14

[General]
AudioFilename: Houkago Stride.mp3
AudioLeadIn: 0
PreviewTime: 86133
Countdown: 0
SampleSet: Normal
StackLeniency: 0.7
Mode: 1
LetterboxInBreaks: 0
WidescreenStoryboard: 0

[Editor]
Bookmarks: 24800,32666,40133,69600,78133,118666,127200,135733
DistanceSpacing: 1.45
BeatDivisor: 4
GridSize: 8
TimelineZoom: 2.6

[Metadata]
Title:Houkago Stride
TitleUnicode:Houkago Stride
Artist:yuikonnu
ArtistUnicode:yuikonnu
Creator:NoLifePlayer
Version:Oni
Source:
Tags:yuikonnu kano houkago stride last note cover
BeatmapID:723101
BeatmapSetID:325544

[Difficulty]
HPDrainRate:5
CircleSize:5
OverallDifficulty:5
ApproachRate:10
SliderMultiplier:1.4
SliderTickRate:1

[Events]
//Background and Video events
0,0,"Ichinomiya.Eruna.full.1381991.jpg",0,0
//Break Periods
//Storyboard Layer 0 (Background)
//Storyboard Layer 1 (Fail)
//Storyboard Layer 2 (Pass)
//Storyboard Layer 3 (Foreground)
//Storyboard Sound Samples

[TimingPoints]
0,266.666666666667,4,1,0,100,1,0
69600,-125,4,1,0,100,0,0
78133,-100,4,1,0,100,0,0
86666,-100,4,1,0,100,0,1
109066,-100,4,1,0,100,0,0
127200,-125,4,1,0,100,0,0
135733,-100,4,1,0,100,0,0
144266,-100,4,1,0,100,0,1
166666,-100,4,1,0,100,0,0
184800,-100,4,1,0,100,0,1
216266,-100,4,1,0,100,0,0

[HitObjects]
256,192,1333,5,4,0:0:0:0:
256,192,3200,1,0,0:0:0:0:
256,192,3466,1,4,0:0:0:0:
256,192,5333,1,0,0:0:0:0:
256,192,5600,1,4,0:0:0:0:
256,192,7466,1,0,0:0:0:0:
256,192,7733,1,6,0:0:0:0:
256,192,8266,1,6,0:0:0:0:
256,192,8800,1,6,0:0:0:0:
256,192,9333,1,2,0:0:0:0:
256,192,9400,1,2,0:0:0:0:
256,192,9466,1,0,0:0:0:0:
256,192,9533,1,0,0:0:0:0:
256,192,9600,1,2,0:0:0:0:
256,192,9866,1,2,0:0:0:0:
256,192,10133,1,0,0:0:0:0:
256,192,10400,1,0,0:0:0:0:
256,192,10666,1,0,0:0:0:0:
256,192,10800,1,2,0:0:0:0:
256,192,11066,1,0,0:0:0:0:
256,192,11200,1,2,0:0:0:0:
256,192,11466,1,2,0:0:0:0:
256,192,11733,1,0,0:0:0:0:
256,192,12000,1,0,0:0:0:0:
256,192,12266,1,2,0:0:0:0:
256,192,12533,1,0,0:0:0:0:
256,192,12933,1,0,0:0:0:0:
256,192,13200,1,0,0:0:0:0:
256,192,13466,1,0,0:0:0:0:
256,192,13600,1,2,0:0:0:0:
256,192,13866,1,6,0:0:0:0:
256,192,14132,1,0,0:0:0:0:
256,192,14199,1,0,0:0:0:0:
256,192,14266,1,0,0:0:0:0:
256,192,14400,1,0,0:0:0:0:
256,192,14666,1,0,0:0:0:0:
256,192,15066,1,0,0:0:0:0:
256,192,15333,1,0,0:0:0:0:
256,192,15599,1,0,0:0:0:0:
256,192,15733,1,2,0:0:0:0:
256,192,15999,1,6,0:0:0:0:
256,192,16267,1,0,0:0:0:0:
256,192,16333,1,0,0:0:0:0:
256,192,16400,1,0,0:0:0:0:
256,192,16533,1,0,0:0:0:0:
256,192,16799,1,0,0:0:0:0:
256,192,17199,1,0,0:0:0:0:
256,192,17466,1,0,0:0:0:0:
256,192,17732,1,0,0:0:0:0:
256,192,17866,1,6,0:0:0:0:
256,192,18132,1,6,0:0:0:0:
256,192,18666,1,0,0:0:0:0:
256,192,18933,1,0,0:0:0:0:
256,192,19199,1,0,0:0:0:0:
256,192,19333,1,2,0:0:0:0:
256,192,19599,1,0,0:0:0:0:
256,192,19733,1,2,0:0:0:0:
256,192,19866,1,0,0:0:0:0:
256,192,19999,1,2,0:0:0:0:
256,192,20266,1,0,0:0:0:0:
256,192,20533,1,0,0:0:0:0:
256,192,20799,1,2,0:0:0:0:
256,192,21066,1,0,0:0:0:0:
256,192,21466,1,0,0:0:0:0:
256,192,21733,1,0,0:0:0:0:
256,192,21866,1,2,0:0:0:0:
256,192,21999,1,0,0:0:0:0:
256,192,22133,1,2,0:0:0:0:
256,192,22399,1,6,0:0:0:0:
256,192,22665,1,0,0:0:0:0:
256,192,22732,1,0,0:0:0:0:
256,192,22799,1,0,0:0:0:0:
256,192,22933,1,0,0:0:0:0:
256,192,23199,1,0,0:0:0:0:
256,192,23599,1,0,0:0:0:0:
256,192,23866,1,0,0:0:0:0:
256,192,23999,1,2,0:0:0:0:
256,192,24132,1,0,0:0:0:0:
256,192,24266,1,2,0:0:0:0:
256,192,24532,1,6,0:0:0:0:
256,192,24800,1,2,0:0:0:0:
256,192,24866,1,2,0:0:0:0:
256,192,24933,1,2,0:0:0:0:
256,192,25000,1,2,0:0:0:0:
256,192,25066,1,2,0:0:0:0:
256,192,25333,1,0,0:0:0:0:
256,192,25400,1,0,0:0:0:0:
256,192,25466,1,0,0:0:0:0:
256,192,25533,1,0,0:0:0:0:
256,192,25600,1,0,0:0:0:0:
256,192,25866,1,2,0:0:0:0:
256,192,25933,1,2,0:0:0:0:
256,192,26000,1,2,0:0:0:0:
256,192,26066,1,2,0:0:0:0:
256,192,26133,1,0,0:0:0:0:
256,192,26200,1,0,0:0:0:0:
256,192,26266,1,0,0:0:0:0:
256,192,26333,1,0,0:0:0:0:
256,192,26400,1,2,0:0:0:0:
256,192,26666,1,4,0:0:0:0:
256,192,26933,1,2,0:0:0:0:
256,192,27066,1,0,0:0:0:0:
256,192,27200,1,2,0:0:0:0:
256,192,27333,1,0,0:0:0:0:
256,192,27466,1,2,0:0:0:0:
256,192,27533,1,2,0:0:0:0:
256,192,27600,1,2,0:0:0:0:
256,192,27733,1,2,0:0:0:0:
256,192,27866,1,0,0:0:0:0:
256,192,27933,1,0,0:0:0:0:
256,192,28000,1,2,0:0:0:0:
256,192,28066,1,2,0:0:0:0:
256,192,28133,1,0,0:0:0:0:
256,192,28266,1,2,0:0:0:0:
256,192,28400,1,0,0:0:0:0:
256,192,28533,1,0,0:0:0:0:
256,192,28666,1,0,0:0:0:0:
256,192,28733,1,0,0:0:0:0:
256,192,28800,1,2,0:0:0:0:
256,192,29066,1,2,0:0:0:0:
256,192,29200,1,0,0:0:0:0:
256,192,29333,1,2,0:0:0:0:
256,192,29466,1,0,0:0:0:0:
256,192,29600,1,2,0:0:0:0:
256,192,29666,1,2,0:0:0:0:
256,192,29733,1,2,0:0:0:0:
256,192,29866,1,2,0:0:0:0:
256,192,30000,1,0,0:0:0:0:
256,192,30066,1,0,0:0:0:0:
256,192,30133,1,0,0:0:0:0:
256,192,30266,1,2,0:0:0:0:
256,192,30400,1,0,0:0:0:0:
256,192,30533,1,2,0:0:0:0:
256,192,30666,1,0,0:0:0:0:
256,192,30800,1,0,0:0:0:0:
256,192,30933,1,0,0:0:0:0:
256,192,31066,1,2,0:0:0:0:
256,192,31200,1,6,0:0:0:0:
256,192,31600,1,0,0:0:0:0:
256,192,31733,1,0,0:0:0:0:
256,192,31866,1,2,0:0:0:0:
256,192,32133,1,0,0:0:0:0:
256,192,32266,1,0,0:0:0:0:
256,192,32400,1,2,0:0:0:0:
256,192,32666,1,0,0:0:0:0:
256,192,32800,1,2,0:0:0:0:
256,192,32866,1,2,0:0:0:0:
256,192,32933,1,2,0:0:0:0:
256,192,33066,1,2,0:0:0:0:
256,192,33133,1,2,0:0:0:0:
256,192,33200,1,0,0:0:0:0:
256,192,33333,1,6,0:0:0:0:
256,192,33600,1,2,0:0:0:0:
256,192,33733,1,4,0:0:0:0:
256,192,34000,1,2,0:0:0:0:
256,192,34133,1,4,0:0:0:0:
256,192,34400,1,0,0:0:0:0:
256,192,34533,1,2,0:0:0:0:
256,192,34600,1,2,0:0:0:0:
256,192,34666,1,2,0:0:0:0:
256,192,34800,1,0,0:0:0:0:
256,192,34933,1,0,0:0:0:0:
256,192,35000,1,0,0:0:0:0:
256,192,35066,1,0,0:0:0:0:
256,192,35200,1,2,0:0:0:0:
256,192,35466,1,0,0:0:0:0:
256,192,35533,1,0,0:0:0:0:
256,192,35600,1,0,0:0:0:0:
256,192,35733,1,2,0:0:0:0:
256,192,35866,1,2,0:0:0:0:
256,192,36000,1,2,0:0:0:0:
256,192,36066,1,2,0:0:0:0:
256,192,36133,1,2,0:0:0:0:
256,192,36266,1,2,0:0:0:0:
256,192,36400,1,0,0:0:0:0:
256,192,36466,1,0,0:0:0:0:
256,192,36533,1,0,0:0:0:0:
256,192,36666,1,2,0:0:0:0:
256,192,36800,1,0,0:0:0:0:
256,192,36933,1,2,0:0:0:0:
256,192,37066,1,2,0:0:0:0:
256,192,37333,1,2,0:0:0:0:
256,192,37600,1,0,0:0:0:0:
256,192,37733,1,0,0:0:0:0:
256,192,37866,1,2,0:0:0:0:
256,192,38000,1,2,0:0:0:0:
256,192,38133,1,0,0:0:0:0:
256,192,38200,1,0,0:0:0:0:
256,192,38266,1,0,0:0:0:0:
256,192,38400,1,2,0:0:0:0:
256,192,38533,1,0,0:0:0:0:
256,192,38600,1,0,0:0:0:0:
256,192,38666,1,0,0:0:0:0:
256,192,38800,1,2,0:0:0:0:
256,192,38933,1,0,0:0:0:0:
256,192,39066,1,2,0:0:0:0:
256,192,39200,1,0,0:0:0:0:
256,192,39333,1,2,0:0:0:0:
256,192,39466,1,0,0:0:0:0:
256,192,39600,1,2,0:0:0:0:
256,192,39733,1,6,0:0:0:0:
256,192,40133,1,0,0:0:0:0:
256,192,40266,1,2,0:0:0:0:
256,192,40400,1,0,0:0:0:0:
256,192,40666,1,2,0:0:0:0:
256,192,40800,1,0,0:0:0:0:
256,192,40933,1,2,0:0:0:0:
256,192,41200,1,2,0:0:0:0:
256,192,41333,1,0,0:0:0:0:
256,192,41466,1,2,0:0:0:0:
256,192,41600,1,0,0:0:0:0:
256,192,41733,1,2,0:0:0:0:
256,192,41866,1,2,0:0:0:0:
256,192,41933,1,2,0:0:0:0:
256,192,42000,1,2,0:0:0:0:
256,192,42066,1,2,0:0:0:0:
256,192,42133,1,0,0:0:0:0:
256,192,42200,1,0,0:0:0:0:
256,192,42266,1,2,0:0:0:0:
256,192,42333,1,2,0:0:0:0:
256,192,42400,1,0,0:0:0:0:
256,192,42466,1,0,0:0:0:0:
256,192,42533,1,2,0:0:0:0:
256,192,42600,1,2,0:0:0:0:
256,192,42667,1,2,0:0:0:0:
256,192,42734,1,2,0:0:0:0:
256,192,42801,1,0,0:0:0:0:
256,192,42867,1,0,0:0:0:0:
256,192,42933,1,0,0:0:0:0:
256,192,43000,1,0,0:0:0:0:
256,192,43066,1,2,0:0:0:0:
256,192,43133,1,2,0:0:0:0:
256,192,43200,1,0,0:0:0:0:
256,192,43267,1,0,0:0:0:0:
256,192,43333,1,2,0:0:0:0:
256,192,43466,1,0,0:0:0:0:
256,192,43733,1,2,0:0:0:0:
256,192,44000,1,2,0:0:0:0:
256,192,44266,1,0,0:0:0:0:
256,192,44533,1,0,0:0:0:0:
256,192,44800,1,0,0:0:0:0:
256,192,44933,1,2,0:0:0:0:
256,192,45200,1,0,0:0:0:0:
256,192,45333,1,2,0:0:0:0:
256,192,45600,1,2,0:0:0:0:
256,192,45866,1,0,0:0:0:0:
256,192,46133,1,2,0:0:0:0:
256,192,46399,1,0,0:0:0:0:
256,192,46666,1,0,0:0:0:0:
256,192,46933,1,0,0:0:0:0:
256,192,47066,1,2,0:0:0:0:
256,192,47333,1,0,0:0:0:0:
256,192,47466,1,2,0:0:0:0:
256,192,47733,1,2,0:0:0:0:
256,192,47999,1,0,0:0:0:0:
256,192,48266,1,2,0:0:0:0:
256,192,48533,1,0,0:0:0:0:
256,192,48800,1,0,0:0:0:0:
256,192,49066,1,0,0:0:0:0:
256,192,49200,1,2,0:0:0:0:
256,192,49466,1,0,0:0:0:0:
256,192,49600,1,2,0:0:0:0:
256,192,49866,1,2,0:0:0:0:
256,192,50133,1,0,0:0:0:0:
256,192,50400,1,2,0:0:0:0:
256,192,50466,1,2,0:0:0:0:
256,192,50533,1,2,0:0:0:0:
256,192,50600,1,2,0:0:0:0:
256,192,50666,1,2,0:0:0:0:
256,192,50933,1,0,0:0:0:0:
256,192,51000,1,0,0:0:0:0:
256,192,51066,1,0,0:0:0:0:
256,192,51133,1,0,0:0:0:0:
256,192,51200,1,0,0:0:0:0:
256,192,51466,1,2,0:0:0:0:
256,192,51533,1,2,0:0:0:0:
256,192,51600,1,2,0:0:0:0:
256,192,51666,1,2,0:0:0:0:
256,192,51733,1,0,0:0:0:0:
256,192,51800,1,0,0:0:0:0:
256,192,51866,1,0,0:0:0:0:
256,192,51933,1,0,0:0:0:0:
256,192,52000,1,2,0:0:0:0:
256,192,52266,1,4,0:0:0:0:
256,192,52533,1,2,0:0:0:0:
256,192,52666,1,0,0:0:0:0:
256,192,52800,1,2,0:0:0:0:
256,192,52933,1,2,0:0:0:0:
256,192,53066,1,2,0:0:0:0:
256,192,53133,1,2,0:0:0:0:
256,192,53200,1,2,0:0:0:0:
256,192,53333,1,2,0:0:0:0:
256,192,53466,1,0,0:0:0:0:
256,192,53533,1,0,0:0:0:0:
256,192,53600,1,0,0:0:0:0:
256,192,53733,1,0,0:0:0:0:
256,192,53866,1,0,0:0:0:0:
256,192,54000,1,2,0:0:0:0:
256,192,54133,1,0,0:0:0:0:
256,192,54400,1,2,0:0:0:0:
256,192,54666,1,0,0:0:0:0:
256,192,54800,1,2,0:0:0:0:
256,192,54933,1,0,0:0:0:0:
256,192,55066,1,2,0:0:0:0:
256,192,55200,1,2,0:0:0:0:
256,192,55266,1,2,0:0:0:0:
256,192,55333,1,2,0:0:0:0:
256,192,55466,1,2,0:0:0:0:
256,192,55600,1,0,0:0:0:0:
256,192,55666,1,0,0:0:0:0:
256,192,55733,1,0,0:0:0:0:
256,192,55866,1,2,0:0:0:0:
256,192,56000,1,0,0:0:0:0:
256,192,56066,1,2,0:0:0:0:
256,192,56133,1,0,0:0:0:0:
256,192,56266,1,2,0:0:0:0:
256,192,56333,1,0,0:0:0:0:
256,192,56400,1,2,0:0:0:0:
256,192,56533,1,2,0:0:0:0:
256,192,56666,1,2,0:0:0:0:
256,192,56800,1,4,0:0:0:0:
256,192,57200,1,0,0:0:0:0:
256,192,57333,1,2,0:0:0:0:
256,192,57466,1,2,0:0:0:0:
256,192,57733,1,0,0:0:0:0:
256,192,57866,1,2,0:0:0:0:
256,192,58000,1,2,0:0:0:0:
256,192,58266,1,0,0:0:0:0:
256,192,58400,1,2,0:0:0:0:
256,192,58533,1,2,0:0:0:0:
256,192,58666,1,0,0:0:0:0:
256,192,58800,1,2,0:0:0:0:
256,192,58933,1,6,0:0:0:0:
256,192,59200,1,2,0:0:0:0:
256,192,59333,1,4,0:0:0:0:
256,192,59600,1,2,0:0:0:0:
256,192,59733,1,4,0:0:0:0:
256,192,60000,1,2,0:0:0:0:
256,192,60133,1,4,0:0:0:0:
256,192,60400,1,2,0:0:0:0:
256,192,60533,1,4,0:0:0:0:
256,192,60800,1,2,0:0:0:0:
256,192,61066,1,0,0:0:0:0:
256,192,61133,1,2,0:0:0:0:
256,192,61200,1,0,0:0:0:0:
256,192,61333,1,2,0:0:0:0:
256,192,61466,1,2,0:0:0:0:
256,192,61600,1,2,0:0:0:0:
256,192,61666,1,2,0:0:0:0:
256,192,61733,1,2,0:0:0:0:
256,192,61866,1,2,0:0:0:0:
256,192,62000,1,0,0:0:0:0:
256,192,62066,1,0,0:0:0:0:
256,192,62133,1,0,0:0:0:0:
256,192,62266,1,2,0:0:0:0:
256,192,62400,1,0,0:0:0:0:
256,192,62533,1,2,0:0:0:0:
256,192,62666,1,0,0:0:0:0:
256,192,62933,1,2,0:0:0:0:
256,192,63200,1,0,0:0:0:0:
256,192,63333,1,2,0:0:0:0:
256,192,63466,1,0,0:0:0:0:
256,192,63600,1,2,0:0:0:0:
256,192,63733,1,2,0:0:0:0:
256,192,63800,1,2,0:0:0:0:
256,192,63866,1,2,0:0:0:0:
256,192,64000,1,0,0:0:0:0:
256,192,64133,1,2,0:0:0:0:
256,192,64400,1,2,0:0:0:0:
256,192,64533,1,0,0:0:0:0:
256,192,64666,1,2,0:0:0:0:
256,192,64800,1,0,0:0:0:0:
256,192,64933,1,2,0:0:0:0:
256,192,65066,1,0,0:0:0:0:
256,192,65200,1,2,0:0:0:0:
256,192,65333,1,6,0:0:0:0:
256,192,65733,1,0,0:0:0:0:
256,192,65866,1,2,0:0:0:0:
256,192,66000,1,0,0:0:0:0:
256,192,66266,1,2,0:0:0:0:
256,192,66400,1,0,0:0:0:0:
256,192,66533,1,2,0:0:0:0:
256,192,66800,1,0,0:0:0:0:
256,192,66933,1,2,0:0:0:0:
256,192,67066,1,2,0:0:0:0:
256,192,67200,1,0,0:0:0:0:
256,192,67333,1,2,0:0:0:0:
256,192,67466,1,2,0:0:0:0:
256,192,67533,1,2,0:0:0:0:
256,192,67600,1,2,0:0:0:0:
256,192,67666,1,2,0:0:0:0:
256,192,67733,1,0,0:0:0:0:
256,192,67800,1,0,0:0:0:0:
256,192,67866,1,2,0:0:0:0:
256,192,67933,1,2,0:0:0:0:
256,192,68000,1,0,0:0:0:0:
256,192,68066,1,0,0:0:0:0:
256,192,68133,1,2,0:0:0:0:
256,192,68200,1,2,0:0:0:0:
256,192,68267,1,2,0:0:0:0:
256,192,68334,1,2,0:0:0:0:
256,192,68401,1,0,0:0:0:0:
256,192,68467,1,0,0:0:0:0:
256,192,68533,1,0,0:0:0:0:
256,192,68600,1,0,0:0:0:0:
256,192,68666,1,2,0:0:0:0:
256,192,68733,1,2,0:0:0:0:
256,192,68800,1,0,0:0:0:0:
256,192,68867,1,0,0:0:0:0:
256,192,68933,1,2,0:0:0:0:
256,192,69066,1,0,0:0:0:0:
256,192,69333,1,2,0:0:0:0:
256,192,69600,1,0,0:0:0:0:
256,192,70000,1,2,0:0:0:0:
256,192,70400,1,0,0:0:0:0:
256,192,70800,1,2,0:0:0:0:
256,192,71200,1,2,0:0:0:0:
256,192,71466,1,0,0:0:0:0:
256,192,71733,1,0,0:0:0:0:
256,192,72133,1,2,0:0:0:0:
256,192,72533,1,0,0:0:0:0:
256,192,72933,1,2,0:0:0:0:
256,192,73333,1,0,0:0:0:0:
256,192,73600,1,2,0:0:0:0:
256,192,73866,1,0,0:0:0:0:
256,192,74266,1,2,0:0:0:0:
256,192,74666,1,0,0:0:0:0:
256,192,75066,1,2,0:0:0:0:
256,192,75466,1,2,0:0:0:0:
256,192,75733,1,0,0:0:0:0:
256,192,76000,1,2,0:0:0:0:
256,192,76400,1,0,0:0:0:0:
256,192,76800,1,2,0:0:0:0:
256,192,77200,1,0,0:0:0:0:
256,192,77733,1,2,0:0:0:0:
256,192,77866,1,0,0:0:0:0:
256,192,78000,1,0,0:0:0:0:
256,192,78133,1,0,0:0:0:0:
256,192,78200,1,0,0:0:0:0:
256,192,78266,1,0,0:0:0:0:
256,192,78333,1,0,0:0:0:0:
256,192,78400,1,0,0:0:0:0:
256,192,78533,1,2,0:0:0:0:
256,192,78800,1,2,0:0:0:0:
256,192,78933,1,0,0:0:0:0:
256,192,79200,1,0,0:0:0:0:
256,192,79333,1,2,0:0:0:0:
256,192,79600,1,0,0:0:0:0:
256,192,79733,1,2,0:0:0:0:
256,192,79866,1,0,0:0:0:0:
256,192,80000,1,2,0:0:0:0:
256,192,80266,1,0,0:0:0:0:
256,192,80533,1,2,0:0:0:0:
256,192,80666,1,0,0:0:0:0:
256,192,80933,1,0,0:0:0:0:
256,192,81066,1,2,0:0:0:0:
256,192,81466,1,2,0:0:0:0:
256,192,81866,1,0,0:0:0:0:
256,192,82133,1,2,0:0:0:0:
256,192,82400,1,0,0:0:0:0:
256,192,82466,1,0,0:0:0:0:
256,192,82533,1,0,0:0:0:0:
256,192,82600,1,0,0:0:0:0:
256,192,82666,1,2,0:0:0:0:
256,192,82733,1,2,0:0:0:0:
256,192,82800,1,2,0:0:0:0:
256,192,82866,1,2,0:0:0:0:
256,192,82933,1,2,0:0:0:0:
256,192,83000,1,2,0:0:0:0:
256,192,83066,1,2,0:0:0:0:
256,192,83133,1,2,0:0:0:0:
256,192,83200,1,0,0:0:0:0:
256,192,83600,1,2,0:0:0:0:
256,192,84000,1,2,0:0:0:0:
256,192,84266,1,0,0:0:0:0:
256,192,84533,1,2,0:0:0:0:
256,192,84799,1,2,0:0:0:0:
256,192,84866,1,2,0:0:0:0:
256,192,84933,1,0,0:0:0:0:
256,192,84999,1,0,0:0:0:0:
256,192,85066,1,2,0:0:0:0:
256,192,85333,1,2,0:0:0:0:
256,192,85600,1,6,0:0:0:0:
256,192,86266,1,0,0:0:0:0:
256,192,86400,1,0,0:0:0:0:
256,192,86533,1,2,0:0:0:0:
256,192,86666,1,6,0:0:0:0:
256,192,86933,1,0,0:0:0:0:
256,192,87066,1,2,0:0:0:0:
256,192,87200,1,2,0:0:0:0:
256,192,87266,1,2,0:0:0:0:
256,192,87333,1,2,0:0:0:0:
256,192,87466,1,0,0:0:0:0:
256,192,87600,1,0,0:0:0:0:
256,192,87666,1,0,0:0:0:0:
256,192,87733,1,2,0:0:0:0:
256,192,87866,1,0,0:0:0:0:
256,192,87933,1,0,0:0:0:0:
256,192,88000,1,0,0:0:0:0:
256,192,88133,1,2,0:0:0:0:
256,192,88400,1,0,0:0:0:0:
256,192,88666,1,2,0:0:0:0:
256,192,88800,1,2,0:0:0:0:
256,192,88866,1,0,0:0:0:0:
256,192,88933,1,0,0:0:0:0:
256,192,89000,1,0,0:0:0:0:
256,192,89066,1,2,0:0:0:0:
256,192,89200,1,0,0:0:0:0:
256,192,89333,1,2,0:0:0:0:
256,192,89400,1,2,0:0:0:0:
256,192,89466,1,2,0:0:0:0:
256,192,89600,1,2,0:0:0:0:
256,192,89733,1,0,0:0:0:0:
256,192,90000,1,2,0:0:0:0:
256,192,90266,1,2,0:0:0:0:
256,192,90533,1,0,0:0:0:0:
256,192,90600,1,0,0:0:0:0:
256,192,90666,1,0,0:0:0:0:
256,192,90800,1,2,0:0:0:0:
256,192,90933,1,0,0:0:0:0:
256,192,91200,1,0,0:0:0:0:
256,192,91333,1,2,0:0:0:0:
256,192,91600,1,0,0:0:0:0:
256,192,91733,1,2,0:0:0:0:
256,192,92000,1,2,0:0:0:0:
256,192,92133,1,0,0:0:0:0:
256,192,92266,1,2,0:0:0:0:
256,192,92533,1,0,0:0:0:0:
256,192,92800,1,2,0:0:0:0:
256,192,93066,1,2,0:0:0:0:
256,192,93333,1,0,0:0:0:0:
256,192,93466,1,2,0:0:0:0:
256,192,93733,1,0,0:0:0:0:
256,192,93866,1,2,0:0:0:0:
256,192,94133,1,2,0:0:0:0:
256,192,94266,1,2,0:0:0:0:
256,192,94400,1,0,0:0:0:0:
256,192,94666,1,2,0:0:0:0:
256,192,94800,1,0,0:0:0:0:
256,192,94866,1,0,0:0:0:0:
256,192,94933,1,0,0:0:0:0:
256,192,95000,1,0,0:0:0:0:
256,192,95066,1,0,0:0:0:0:
256,192,95133,1,0,0:0:0:0:
256,192,95200,1,2,0:0:0:0:
256,192,95333,1,0,0:0:0:0:
256,192,95466,1,2,0:0:0:0:
256,192,95600,1,0,0:0:0:0:
256,192,95733,1,2,0:0:0:0:
256,192,95800,1,2,0:0:0:0:
256,192,95866,1,2,0:0:0:0:
256,192,96000,1,0,0:0:0:0:
256,192,96133,1,0,0:0:0:0:
256,192,96400,1,0,0:0:0:0:
256,192,96666,1,0,0:0:0:0:
256,192,96933,1,2,0:0:0:0:
256,192,97200,1,2,0:0:0:0:
256,192,97333,1,0,0:0:0:0:
256,192,97466,1,0,0:0:0:0:
256,192,97600,1,2,0:0:0:0:
256,192,97733,1,0,0:0:0:0:
256,192,97866,1,2,0:0:0:0:
256,192,97933,1,2,0:0:0:0:
256,192,98000,1,2,0:0:0:0:
256,192,98133,1,2,0:0:0:0:
256,192,98266,1,0,0:0:0:0:
256,192,98533,1,2,0:0:0:0:
256,192,98800,1,2,0:0:0:0:
256,192,99066,1,0,0:0:0:0:
256,192,99333,1,0,0:0:0:0:
256,192,99466,1,2,0:0:0:0:
256,192,99733,1,0,0:0:0:0:
256,192,99866,1,2,0:0:0:0:
256,192,100133,1,0,0:0:0:0:
256,192,100266,1,2,0:0:0:0:
256,192,100533,1,0,0:0:0:0:
256,192,100666,1,0,0:0:0:0:
256,192,100800,1,2,0:0:0:0:
256,192,100866,1,2,0:0:0:0:
256,192,100933,1,2,0:0:0:0:
256,192,101066,1,0,0:0:0:0:
256,192,101333,1,2,0:0:0:0:
256,192,101600,1,0,0:0:0:0:
256,192,101666,1,0,0:0:0:0:
256,192,101733,1,0,0:0:0:0:
256,192,101866,1,2,0:0:0:0:
256,192,102000,1,2,0:0:0:0:
256,192,102266,1,2,0:0:0:0:
256,192,102400,1,0,0:0:0:0:
256,192,102666,1,2,0:0:0:0:
256,192,102800,1,2,0:0:0:0:
256,192,102933,1,0,0:0:0:0:
256,192,103000,1,0,0:0:0:0:
256,192,103066,1,0,0:0:0:0:
256,192,103200,1,0,0:0:0:0:
256,192,103266,1,0,0:0:0:0:
256,192,103333,1,0,0:0:0:0:
256,192,103466,1,0,0:0:0:0:
256,192,103733,1,2,0:0:0:0:
256,192,103800,1,0,0:0:0:0:
256,192,103866,1,0,0:0:0:0:
256,192,103933,1,0,0:0:0:0:
256,192,104000,1,0,0:0:0:0:
256,192,104066,1,0,0:0:0:0:
256,192,104133,1,2,0:0:0:0:
256,192,104200,1,0,0:0:0:0:
256,192,104266,1,0,0:0:0:0:
256,192,104333,1,0,0:0:0:0:
256,192,104400,1,0,0:0:0:0:
256,192,104466,1,0,0:0:0:0:
256,192,104533,1,2,0:0:0:0:
256,192,104800,1,0,0:0:0:0:
256,192,104933,1,0,0:0:0:0:
256,192,105066,1,2,0:0:0:0:
256,192,105333,1,0,0:0:0:0:
256,192,105600,1,0,0:0:0:0:
256,192,105866,1,2,0:0:0:0:
256,192,105933,1,0,0:0:0:0:
256,192,105999,1,0,0:0:0:0:
256,192,106066,1,0,0:0:0:0:
256,192,106133,1,0,0:0:0:0:
256,192,106199,1,0,0:0:0:0:
256,192,106266,1,2,0:0:0:0:
256,192,106333,1,0,0:0:0:0:
256,192,106399,1,0,0:0:0:0:
256,192,106466,1,0,0:0:0:0:
256,192,106533,1,0,0:0:0:0:
256,192,106599,1,0,0:0:0:0:
256,192,106666,1,2,0:0:0:0:
256,192,106933,1,0,0:0:0:0:
256,192,107000,1,0,0:0:0:0:
256,192,107066,1,0,0:0:0:0:
256,192,107133,1,0,0:0:0:0:
256,192,107200,1,0,0:0:0:0:
256,192,107266,1,0,0:0:0:0:
256,192,107333,1,0,0:0:0:0:
256,192,107400,1,0,0:0:0:0:
256,192,107466,1,2,0:0:0:0:
256,192,107733,1,0,0:0:0:0:
256,192,108000,5,6,0:0:0:0:
256,192,108400,1,6,0:0:0:0:
256,192,108800,1,6,0:0:0:0:
256,192,109066,5,6,0:0:0:0:
256,192,110133,1,2,0:0:0:0:
256,192,110266,1,0,0:0:0:0:
256,192,110400,1,2,0:0:0:0:
256,192,110533,1,0,0:0:0:0:
256,192,110666,1,2,0:0:0:0:
256,192,110733,1,2,0:0:0:0:
256,192,110800,1,2,0:0:0:0:
256,192,110933,1,2,0:0:0:0:
256,192,111066,1,0,0:0:0:0:
256,192,111133,1,0,0:0:0:0:
256,192,111200,1,0,0:0:0:0:
256,192,111333,1,2,0:0:0:0:
256,192,111466,1,0,0:0:0:0:
256,192,111600,1,2,0:0:0:0:
256,192,111733,1,2,0:0:0:0:
256,192,112000,1,0,0:0:0:0:
256,192,112266,1,0,0:0:0:0:
256,192,112400,1,2,0:0:0:0:
256,192,112533,1,0,0:0:0:0:
256,192,112666,1,2,0:0:0:0:
256,192,112800,1,0,0:0:0:0:
256,192,112866,1,0,0:0:0:0:
256,192,112933,1,2,0:0:0:0:
256,192,113066,1,2,0:0:0:0:
256,192,113200,1,0,0:0:0:0:
256,192,113466,1,0,0:0:0:0:
256,192,113600,1,2,0:0:0:0:
256,192,113733,1,0,0:0:0:0:
256,192,113866,1,2,0:0:0:0:
256,192,114000,1,0,0:0:0:0:
256,192,114133,1,0,0:0:0:0:
256,192,114200,1,0,0:0:0:0:
256,192,114266,1,2,0:0:0:0:
256,192,114400,1,0,0:0:0:0:
256,192,114666,1,0,0:0:0:0:
256,192,114800,1,2,0:0:0:0:
256,192,114933,1,0,0:0:0:0:
256,192,115066,1,2,0:0:0:0:
256,192,115333,1,0,0:0:0:0:
256,192,115466,1,0,0:0:0:0:
256,192,115600,1,2,0:0:0:0:
256,192,115866,1,0,0:0:0:0:
256,192,116000,1,2,0:0:0:0:
256,192,116066,1,2,0:0:0:0:
256,192,116133,1,2,0:0:0:0:
256,192,116266,1,2,0:0:0:0:
256,192,116333,1,2,0:0:0:0:
256,192,116400,1,0,0:0:0:0:
256,192,116533,1,6,0:0:0:0:
256,192,116800,1,0,0:0:0:0:
256,192,116933,1,6,0:0:0:0:
256,192,117200,1,0,0:0:0:0:
256,192,117333,1,6,0:0:0:0:
256,192,117600,1,0,0:0:0:0:
256,192,117733,1,6,0:0:0:0:
256,192,118000,1,0,0:0:0:0:
256,192,118133,1,6,0:0:0:0:
256,192,118400,1,0,0:0:0:0:
256,192,118666,1,2,0:0:0:0:
256,192,118799,1,0,0:0:0:0:
256,192,118933,1,2,0:0:0:0:
256,192,119066,1,0,0:0:0:0:
256,192,119199,1,2,0:0:0:0:
256,192,119266,1,2,0:0:0:0:
256,192,119333,1,2,0:0:0:0:
256,192,119466,1,2,0:0:0:0:
256,192,119599,1,0,0:0:0:0:
256,192,119666,1,0,0:0:0:0:
256,192,119733,1,0,0:0:0:0:
256,192,119866,1,2,0:0:0:0:
256,192,119999,1,0,0:0:0:0:
256,192,120133,1,2,0:0:0:0:
256,192,120266,1,2,0:0:0:0:
256,192,120533,1,0,0:0:0:0:
256,192,120799,1,0,0:0:0:0:
256,192,120933,1,2,0:0:0:0:
256,192,121066,1,0,0:0:0:0:
256,192,121199,1,2,0:0:0:0:
256,192,121333,1,0,0:0:0:0:
256,192,121399,1,0,0:0:0:0:
256,192,121466,1,2,0:0:0:0:
256,192,121599,1,2,0:0:0:0:
256,192,121733,1,0,0:0:0:0:
256,192,121999,1,0,0:0:0:0:
256,192,122133,1,2,0:0:0:0:
256,192,122266,1,0,0:0:0:0:
256,192,122399,1,2,0:0:0:0:
256,192,122533,1,0,0:0:0:0:
256,192,122666,1,0,0:0:0:0:
256,192,122733,1,0,0:0:0:0:
256,192,122799,1,2,0:0:0:0:
256,192,122933,1,0,0:0:0:0:
256,192,123333,1,0,0:0:0:0:
256,192,123467,1,2,0:0:0:0:
256,192,123600,1,0,0:0:0:0:
256,192,123867,1,0,0:0:0:0:
256,192,124000,1,0,0:0:0:0:
256,192,124134,1,2,0:0:0:0:
256,192,124400,1,0,0:0:0:0:
256,192,124534,1,2,0:0:0:0:
256,192,124667,1,2,0:0:0:0:
256,192,124734,1,2,0:0:0:0:
256,192,124800,1,0,0:0:0:0:
256,192,124934,1,0,0:0:0:0:
256,192,125066,1,6,0:0:0:0:
256,192,125333,1,0,0:0:0:0:
256,192,125466,1,6,0:0:0:0:
256,192,125733,1,0,0:0:0:0:
256,192,125866,1,6,0:0:0:0:
256,192,126133,1,0,0:0:0:0:
256,192,126266,1,6,0:0:0:0:
256,192,126533,1,2,0:0:0:0:
256,192,126666,1,4,0:0:0:0:
256,192,126933,1,2,0:0:0:0:
256,192,127200,1,0,0:0:0:0:
256,192,127600,1,2,0:0:0:0:
256,192,128000,1,0,0:0:0:0:
256,192,128400,1,2,0:0:0:0:
256,192,128800,1,2,0:0:0:0:
256,192,129066,1,0,0:0:0:0:
256,192,129333,1,0,0:0:0:0:
256,192,129733,1,2,0:0:0:0:
256,192,130133,1,0,0:0:0:0:
256,192,130533,1,2,0:0:0:0:
256,192,130933,1,0,0:0:0:0:
256,192,131200,1,2,0:0:0:0:
256,192,131466,1,0,0:0:0:0:
256,192,131866,1,2,0:0:0:0:
256,192,132266,1,0,0:0:0:0:
256,192,132666,1,2,0:0:0:0:
256,192,133066,1,2,0:0:0:0:
256,192,133333,1,0,0:0:0:0:
256,192,133600,1,2,0:0:0:0:
256,192,134000,1,0,0:0:0:0:
256,192,134400,1,2,0:0:0:0:
256,192,134800,1,0,0:0:0:0:
256,192,135333,1,2,0:0:0:0:
256,192,135466,1,0,0:0:0:0:
256,192,135600,1,0,0:0:0:0:
256,192,135733,1,0,0:0:0:0:
256,192,135800,1,0,0:0:0:0:
256,192,135866,1,0,0:0:0:0:
256,192,135933,1,0,0:0:0:0:
256,192,136000,1,0,0:0:0:0:
256,192,136133,1,2,0:0:0:0:
256,192,136400,1,2,0:0:0:0:
256,192,136533,1,0,0:0:0:0:
256,192,136800,1,0,0:0:0:0:
256,192,136933,1,2,0:0:0:0:
256,192,137200,1,0,0:0:0:0:
256,192,137333,1,2,0:0:0:0:
256,192,137466,1,0,0:0:0:0:
256,192,137600,1,2,0:0:0:0:
256,192,137866,1,0,0:0:0:0:
256,192,138133,1,2,0:0:0:0:
256,192,138266,1,0,0:0:0:0:
256,192,138533,1,0,0:0:0:0:
256,192,138666,1,2,0:0:0:0:
256,192,139066,1,2,0:0:0:0:
256,192,139466,1,0,0:0:0:0:
256,192,139733,1,2,0:0:0:0:
256,192,140000,1,0,0:0:0:0:
256,192,140066,1,0,0:0:0:0:
256,192,140133,1,0,0:0:0:0:
256,192,140200,1,0,0:0:0:0:
256,192,140266,1,2,0:0:0:0:
256,192,140333,1,2,0:0:0:0:
256,192,140400,1,2,0:0:0:0:
256,192,140466,1,2,0:0:0:0:
256,192,140533,1,2,0:0:0:0:
256,192,140600,1,2,0:0:0:0:
256,192,140666,1,2,0:0:0:0:
256,192,140733,1,2,0:0:0:0:
256,192,140800,1,0,0:0:0:0:
256,192,141200,1,2,0:0:0:0:
256,192,141600,1,2,0:0:0:0:
256,192,141866,1,0,0:0:0:0:
256,192,142133,1,2,0:0:0:0:
256,192,142200,1,2,0:0:0:0:
256,192,142266,1,0,0:0:0:0:
256,192,142333,1,0,0:0:0:0:
256,192,142400,1,0,0:0:0:0:
256,192,142466,1,0,0:0:0:0:
256,192,142533,1,0,0:0:0:0:
256,192,142600,1,0,0:0:0:0:
256,192,142666,1,0,0:0:0:0:
256,192,142733,1,0,0:0:0:0:
256,192,142800,1,0,0:0:0:0:
256,192,142866,1,0,0:0:0:0:
256,192,142933,1,2,0:0:0:0:
256,192,143200,1,6,0:0:0:0:
256,192,143466,1,2,0:0:0:0:
256,192,143600,1,0,0:0:0:0:
256,192,143733,1,2,0:0:0:0:
256,192,143866,1,0,0:0:0:0:
256,192,144000,1,0,0:0:0:0:
256,192,144133,1,2,0:0:0:0:
256,192,144266,1,6,0:0:0:0:
256,192,144533,1,0,0:0:0:0:
256,192,144666,1,2,0:0:0:0:
256,192,144800,1,2,0:0:0:0:
256,192,144866,1,2,0:0:0:0:
256,192,144933,1,2,0:0:0:0:
256,192,145066,1,0,0:0:0:0:
256,192,145200,1,0,0:0:0:0:
256,192,145266,1,0,0:0:0:0:
256,192,145333,1,2,0:0:0:0:
256,192,145466,1,0,0:0:0:0:
256,192,145533,1,0,0:0:0:0:
256,192,145600,1,0,0:0:0:0:
256,192,145733,1,2,0:0:0:0:
256,192,146000,1,0,0:0:0:0:
256,192,146266,1,2,0:0:0:0:
256,192,146400,1,2,0:0:0:0:
256,192,146466,1,2,0:0:0:0:
256,192,146533,1,0,0:0:0:0:
256,192,146600,1,0,0:0:0:0:
256,192,146666,1,2,0:0:0:0:
256,192,146800,1,0,0:0:0:0:
256,192,146933,1,2,0:0:0:0:
256,192,147000,1,2,0:0:0:0:
256,192,147066,1,2,0:0:0:0:
256,192,147200,1,2,0:0:0:0:
256,192,147333,1,0,0:0:0:0:
256,192,147600,1,2,0:0:0:0:
256,192,147866,1,2,0:0:0:0:
256,192,148133,1,0,0:0:0:0:
256,192,148200,1,0,0:0:0:0:
256,192,148266,1,0,0:0:0:0:
256,192,148400,1,2,0:0:0:0:
256,192,148533,1,0,0:0:0:0:
256,192,148800,1,0,0:0:0:0:
256,192,148933,1,2,0:0:0:0:
256,192,149200,1,0,0:0:0:0:
256,192,149333,1,2,0:0:0:0:
256,192,149600,1,2,0:0:0:0:
256,192,149733,1,0,0:0:0:0:
256,192,149866,1,2,0:0:0:0:
256,192,150133,1,0,0:0:0:0:
256,192,150400,1,2,0:0:0:0:
256,192,150666,1,2,0:0:0:0:
256,192,150933,1,0,0:0:0:0:
256,192,151066,1,2,0:0:0:0:
256,192,151333,1,0,0:0:0:0:
256,192,151466,1,2,0:0:0:0:
256,192,151733,1,2,0:0:0:0:
256,192,151866,1,2,0:0:0:0:
256,192,152000,1,0,0:0:0:0:
256,192,152266,1,2,0:0:0:0:
256,192,152400,1,0,0:0:0:0:
256,192,152466,1,0,0:0:0:0:
256,192,152533,1,0,0:0:0:0:
256,192,152600,1,0,0:0:0:0:
256,192,152666,1,0,0:0:0:0:
256,192,152733,1,0,0:0:0:0:
256,192,152800,1,2,0:0:0:0:
256,192,152933,1,0,0:0:0:0:
256,192,153066,1,2,0:0:0:0:
256,192,153200,1,0,0:0:0:0:
256,192,153333,1,2,0:0:0:0:
256,192,153400,1,2,0:0:0:0:
256,192,153466,1,2,0:0:0:0:
256,192,153600,1,0,0:0:0:0:
256,192,153733,1,0,0:0:0:0:
256,192,154000,1,0,0:0:0:0:
256,192,154266,1,0,0:0:0:0:
256,192,154533,1,2,0:0:0:0:
256,192,154800,1,2,0:0:0:0:
256,192,154933,1,0,0:0:0:0:
256,192,155066,1,0,0:0:0:0:
256,192,155200,1,2,0:0:0:0:
256,192,155333,1,0,0:0:0:0:
256,192,155466,1,2,0:0:0:0:
256,192,155533,1,2,0:0:0:0:
256,192,155600,1,2,0:0:0:0:
256,192,155733,1,2,0:0:0:0:
256,192,155866,1,0,0:0:0:0:
256,192,156133,1,2,0:0:0:0:
256,192,156400,1,2,0:0:0:0:
256,192,156666,1,0,0:0:0:0:
256,192,156933,1,0,0:0:0:0:
256,192,157066,1,2,0:0:0:0:
256,192,157333,1,0,0:0:0:0:
256,192,157466,1,2,0:0:0:0:
256,192,157733,1,0,0:0:0:0:
256,192,157866,1,2,0:0:0:0:
256,192,158133,1,0,0:0:0:0:
256,192,158266,1,0,0:0:0:0:
256,192,158400,1,2,0:0:0:0:
256,192,158466,1,2,0:0:0:0:
256,192,158533,1,2,0:0:0:0:
256,192,158666,1,0,0:0:0:0:
256,192,158933,1,2,0:0:0:0:
256,192,159200,1,0,0:0:0:0:
256,192,159266,1,0,0:0:0:0:
256,192,159333,1,0,0:0:0:0:
256,192,159466,1,2,0:0:0:0:
256,192,159600,1,2,0:0:0:0:
256,192,159866,1,2,0:0:0:0:
256,192,160000,1,0,0:0:0:0:
256,192,160266,1,2,0:0:0:0:
256,192,160400,1,2,0:0:0:0:
256,192,160533,1,0,0:0:0:0:
256,192,160600,1,0,0:0:0:0:
256,192,160666,1,0,0:0:0:0:
256,192,160800,1,0,0:0:0:0:
256,192,160866,1,0,0:0:0:0:
256,192,160933,1,0,0:0:0:0:
256,192,161066,1,0,0:0:0:0:
256,192,161333,1,2,0:0:0:0:
256,192,161400,1,0,0:0:0:0:
256,192,161466,1,0,0:0:0:0:
256,192,161533,1,0,0:0:0:0:
256,192,161600,1,0,0:0:0:0:
256,192,161666,1,0,0:0:0:0:
256,192,161733,1,2,0:0:0:0:
256,192,161800,1,0,0:0:0:0:
256,192,161866,1,0,0:0:0:0:
256,192,161933,1,0,0:0:0:0:
256,192,162000,1,0,0:0:0:0:
256,192,162066,1,0,0:0:0:0:
256,192,162133,1,2,0:0:0:0:
256,192,162400,1,0,0:0:0:0:
256,192,162533,1,0,0:0:0:0:
256,192,162666,1,2,0:0:0:0:
256,192,162933,1,0,0:0:0:0:
256,192,163200,1,0,0:0:0:0:
256,192,163466,1,2,0:0:0:0:
256,192,163533,1,0,0:0:0:0:
256,192,163599,1,0,0:0:0:0:
256,192,163666,1,0,0:0:0:0:
256,192,163733,1,0,0:0:0:0:
256,192,163799,1,0,0:0:0:0:
256,192,163866,1,2,0:0:0:0:
256,192,163933,1,0,0:0:0:0:
256,192,163999,1,0,0:0:0:0:
256,192,164066,1,0,0:0:0:0:
256,192,164133,1,0,0:0:0:0:
256,192,164199,1,0,0:0:0:0:
256,192,164266,1,2,0:0:0:0:
256,192,164533,1,0,0:0:0:0:
256,192,164600,1,0,0:0:0:0:
256,192,164666,1,0,0:0:0:0:
256,192,164733,1,0,0:0:0:0:
256,192,164800,1,0,0:0:0:0:
256,192,164866,1,0,0:0:0:0:
256,192,164933,1,0,0:0:0:0:
256,192,165000,1,0,0:0:0:0:
256,192,165066,1,2,0:0:0:0:
256,192,165333,1,0,0:0:0:0:
256,192,165600,5,6,0:0:0:0:
256,192,166000,1,6,0:0:0:0:
256,192,166400,1,6,0:0:0:0:
256,192,166666,5,6,0:0:0:0:
256,192,167733,1,4,0:0:0:0:
256,192,167866,1,2,0:0:0:0:
256,192,168000,1,0,0:0:0:0:
256,192,168066,1,0,0:0:0:0:
256,192,168133,1,0,0:0:0:0:
256,192,168266,1,2,0:0:0:0:
256,192,168533,1,2,0:0:0:0:
256,192,168666,1,2,0:0:0:0:
256,192,168733,1,2,0:0:0:0:
256,192,168800,1,2,0:0:0:0:
256,192,168866,1,2,0:0:0:0:
256,192,168933,1,0,0:0:0:0:
256,192,169066,1,2,0:0:0:0:
256,192,169333,1,6,0:0:0:0:
256,192,169600,1,4,0:0:0:0:
256,192,169866,1,2,0:0:0:0:
256,192,169933,1,2,0:0:0:0:
256,192,170000,1,0,0:0:0:0:
256,192,170133,1,0,0:0:0:0:
256,192,170400,1,0,0:0:0:0:
256,192,170466,1,0,0:0:0:0:
256,192,170533,1,0,0:0:0:0:
256,192,170666,1,2,0:0:0:0:
256,192,170800,1,0,0:0:0:0:
256,192,170866,1,0,0:0:0:0:
256,192,170933,1,0,0:0:0:0:
256,192,171000,1,0,0:0:0:0:
256,192,171066,1,0,0:0:0:0:
256,192,171133,1,0,0:0:0:0:
256,192,171200,1,2,0:0:0:0:
256,192,171466,1,6,0:0:0:0:
256,192,171733,1,4,0:0:0:0:
256,192,172000,1,2,0:0:0:0:
256,192,172266,1,0,0:0:0:0:
256,192,172533,1,0,0:0:0:0:
256,192,172600,1,0,0:0:0:0:
256,192,172666,1,0,0:0:0:0:
256,192,172800,1,2,0:0:0:0:
256,192,172933,1,0,0:0:0:0:
256,192,173000,1,0,0:0:0:0:
256,192,173066,1,0,0:0:0:0:
256,192,173200,1,0,0:0:0:0:
256,192,173333,1,2,0:0:0:0:
256,192,173600,1,6,0:0:0:0:
256,192,173866,1,4,0:0:0:0:
256,192,174133,1,2,0:0:0:0:
256,192,174200,1,2,0:0:0:0:
256,192,174266,1,2,0:0:0:0:
256,192,174333,1,2,0:0:0:0:
256,192,174400,1,0,0:0:0:0:
256,192,174466,1,0,0:0:0:0:
256,192,174533,1,0,0:0:0:0:
256,192,174600,1,0,0:0:0:0:
256,192,174666,1,2,0:0:0:0:
256,192,174933,1,0,0:0:0:0:
256,192,175066,1,2,0:0:0:0:
256,192,175133,1,0,0:0:0:0:
256,192,175200,1,0,0:0:0:0:
256,192,175266,1,0,0:0:0:0:
256,192,175333,1,2,0:0:0:0:
256,192,175466,1,2,0:0:0:0:
256,192,175733,1,6,0:0:0:0:
256,192,176000,1,4,0:0:0:0:
256,192,176266,1,2,0:0:0:0:
256,192,176533,1,0,0:0:0:0:
256,192,176800,1,2,0:0:0:0:
256,192,176933,1,0,0:0:0:0:
256,192,177066,1,2,0:0:0:0:
256,192,177200,1,2,0:0:0:0:
256,192,177266,1,0,0:0:0:0:
256,192,177333,1,0,0:0:0:0:
256,192,177400,1,0,0:0:0:0:
256,192,177466,1,2,0:0:0:0:
256,192,177600,1,2,0:0:0:0:
256,192,177866,1,6,0:0:0:0:
256,192,178133,1,4,0:0:0:0:
256,192,178400,1,2,0:0:0:0:
256,192,178666,1,0,0:0:0:0:
256,192,178933,1,0,0:0:0:0:
256,192,179066,1,2,0:0:0:0:
256,192,179200,1,2,0:0:0:0:
256,192,179333,1,0,0:0:0:0:
256,192,179400,1,0,0:0:0:0:
256,192,179466,1,0,0:0:0:0:
256,192,179600,1,2,0:0:0:0:
256,192,179733,1,2,0:0:0:0:
256,192,180000,1,6,0:0:0:0:
256,192,180266,1,4,0:0:0:0:
256,192,180533,1,0,0:0:0:0:
256,192,180800,1,2,0:0:0:0:
256,192,181066,1,0,0:0:0:0:
256,192,181333,1,2,0:0:0:0:
256,192,181466,1,0,0:0:0:0:
256,192,181733,1,0,0:0:0:0:
256,192,181866,1,2,0:0:0:0:
256,192,182133,1,6,0:0:0:0:
256,192,182400,1,4,0:0:0:0:
256,192,182666,1,2,0:0:0:0:
256,192,182933,1,0,0:0:0:0:
256,192,183200,1,2,0:0:0:0:
256,192,183466,1,2,0:0:0:0:
256,192,183533,1,2,0:0:0:0:
256,192,183600,1,0,0:0:0:0:
256,192,183666,1,2,0:0:0:0:
256,192,183733,1,2,0:0:0:0:
256,192,184000,1,2,0:0:0:0:
256,192,184066,1,0,0:0:0:0:
256,192,184133,1,0,0:0:0:0:
256,192,184200,1,0,0:0:0:0:
256,192,184266,1,0,0:0:0:0:
256,192,184333,1,0,0:0:0:0:
256,192,184400,1,0,0:0:0:0:
256,192,184466,1,0,0:0:0:0:
256,192,184533,1,0,0:0:0:0:
256,192,184600,1,0,0:0:0:0:
256,192,184666,1,0,0:0:0:0:
256,192,184733,1,0,0:0:0:0:
256,192,184800,1,2,0:0:0:0:
256,192,184933,1,0,0:0:0:0:
256,192,185066,1,0,0:0:0:0:
256,192,185200,1,2,0:0:0:0:
256,192,185333,1,2,0:0:0:0:
256,192,185400,1,2,0:0:0:0:
256,192,185466,1,2,0:0:0:0:
256,192,185600,1,2,0:0:0:0:
256,192,185733,1,0,0:0:0:0:
256,192,185800,1,0,0:0:0:0:
256,192,185866,1,0,0:0:0:0:
256,192,186000,1,2,0:0:0:0:
256,192,186266,1,0,0:0:0:0:
256,192,186533,1,2,0:0:0:0:
256,192,186800,1,2,0:0:0:0:
256,192,186933,1,0,0:0:0:0:
256,192,187066,1,2,0:0:0:0:
256,192,187200,1,0,0:0:0:0:
256,192,187333,1,2,0:0:0:0:
256,192,187466,1,0,0:0:0:0:
256,192,187533,1,0,0:0:0:0:
256,192,187600,1,0,0:0:0:0:
256,192,187733,1,2,0:0:0:0:
256,192,187866,1,0,0:0:0:0:
256,192,188133,1,2,0:0:0:0:
256,192,188400,1,2,0:0:0:0:
256,192,188666,1,0,0:0:0:0:
256,192,188933,1,2,0:0:0:0:
256,192,189066,1,0,0:0:0:0:
256,192,189333,1,0,0:0:0:0:
256,192,189466,1,2,0:0:0:0:
256,192,189733,1,0,0:0:0:0:
256,192,189866,1,2,0:0:0:0:
256,192,190133,1,0,0:0:0:0:
256,192,190200,1,0,0:0:0:0:
256,192,190266,1,0,0:0:0:0:
256,192,190400,1,2,0:0:0:0:
256,192,190666,1,0,0:0:0:0:
256,192,190933,1,2,0:0:0:0:
256,192,191200,1,2,0:0:0:0:
256,192,191466,1,0,0:0:0:0:
256,192,191600,1,2,0:0:0:0:
256,192,191866,1,0,0:0:0:0:
256,192,192000,1,2,0:0:0:0:
256,192,192266,1,0,0:0:0:0:
256,192,192333,1,0,0:0:0:0:
256,192,192400,1,0,0:0:0:0:
256,192,192533,1,0,0:0:0:0:
256,192,192800,1,2,0:0:0:0:
256,192,192933,1,0,0:0:0:0:
256,192,193333,1,2,0:0:0:0:
256,192,193466,1,0,0:0:0:0:
256,192,193600,1,2,0:0:0:0:
256,192,193733,1,0,0:0:0:0:
256,192,193866,1,2,0:0:0:0:
256,192,193933,1,2,0:0:0:0:
256,192,194000,1,2,0:0:0:0:
256,192,194133,1,2,0:0:0:0:
256,192,194266,1,0,0:0:0:0:
256,192,194533,1,2,0:0:0:0:
256,192,194800,1,0,0:0:0:0:
256,192,195066,1,2,0:0:0:0:
256,192,195333,1,2,0:0:0:0:
256,192,195466,1,0,0:0:0:0:
256,192,195600,1,2,0:0:0:0:
256,192,195733,1,0,0:0:0:0:
256,192,195866,1,2,0:0:0:0:
256,192,196000,1,2,0:0:0:0:
256,192,196066,1,2,0:0:0:0:
256,192,196133,1,2,0:0:0:0:
256,192,196266,1,2,0:0:0:0:
256,192,196400,1,0,0:0:0:0:
256,192,196666,1,2,0:0:0:0:
256,192,196933,1,2,0:0:0:0:
256,192,197200,1,0,0:0:0:0:
256,192,197466,1,0,0:0:0:0:
256,192,197600,1,2,0:0:0:0:
256,192,197866,1,0,0:0:0:0:
256,192,198000,1,2,0:0:0:0:
256,192,198266,1,0,0:0:0:0:
256,192,198400,1,2,0:0:0:0:
256,192,198666,1,2,0:0:0:0:
256,192,198733,1,2,0:0:0:0:
256,192,198800,1,2,0:0:0:0:
256,192,198933,1,2,0:0:0:0:
256,192,199200,1,0,0:0:0:0:
256,192,199466,1,2,0:0:0:0:
256,192,199733,1,0,0:0:0:0:
256,192,200000,1,0,0:0:0:0:
256,192,200133,1,2,0:0:0:0:
256,192,200400,1,2,0:0:0:0:
256,192,200533,1,0,0:0:0:0:
256,192,200800,1,0,0:0:0:0:
256,192,200866,1,0,0:0:0:0:
256,192,200933,1,0,0:0:0:0:
256,192,201066,1,2,0:0:0:0:
256,192,201333,1,0,0:0:0:0:
256,192,201600,1,0,0:0:0:0:
256,192,201866,1,2,0:0:0:0:
256,192,201933,1,0,0:0:0:0:
256,192,201999,1,0,0:0:0:0:
256,192,202066,1,0,0:0:0:0:
256,192,202133,1,0,0:0:0:0:
256,192,202199,1,0,0:0:0:0:
256,192,202266,1,2,0:0:0:0:
256,192,202333,1,0,0:0:0:0:
256,192,202399,1,0,0:0:0:0:
256,192,202466,1,0,0:0:0:0:
256,192,202533,1,0,0:0:0:0:
256,192,202599,1,0,0:0:0:0:
256,192,202666,1,2,0:0:0:0:
256,192,202933,1,0,0:0:0:0:
256,192,203066,1,0,0:0:0:0:
256,192,203199,1,2,0:0:0:0:
256,192,203466,1,0,0:0:0:0:
256,192,203733,1,0,0:0:0:0:
256,192,203999,1,2,0:0:0:0:
256,192,204066,1,0,0:0:0:0:
256,192,204132,1,0,0:0:0:0:
256,192,204199,1,0,0:0:0:0:
256,192,204266,1,0,0:0:0:0:
256,192,204332,1,0,0:0:0:0:
256,192,204399,1,2,0:0:0:0:
256,192,204466,1,0,0:0:0:0:
256,192,204532,1,0,0:0:0:0:
256,192,204599,1,0,0:0:0:0:
256,192,204666,1,0,0:0:0:0:
256,192,204732,1,0,0:0:0:0:
256,192,204799,1,2,0:0:0:0:
256,192,205066,1,0,0:0:0:0:
256,192,205133,1,0,0:0:0:0:
256,192,205199,1,0,0:0:0:0:
256,192,205266,1,0,0:0:0:0:
256,192,205333,1,0,0:0:0:0:
256,192,205399,1,0,0:0:0:0:
256,192,205466,1,0,0:0:0:0:
256,192,205533,1,0,0:0:0:0:
256,192,205599,1,2,0:0:0:0:
256,192,205866,1,0,0:0:0:0:
256,192,206133,1,2,0:0:0:0:
256,192,206200,1,0,0:0:0:0:
256,192,206266,1,0,0:0:0:0:
256,192,206333,1,0,0:0:0:0:
256,192,206400,1,0,0:0:0:0:
256,192,206466,1,0,0:0:0:0:
256,192,206533,1,2,0:0:0:0:
256,192,206600,1,0,0:0:0:0:
256,192,206666,1,0,0:0:0:0:
256,192,206733,1,0,0:0:0:0:
256,192,206800,1,0,0:0:0:0:
256,192,206866,1,0,0:0:0:0:
256,192,206933,1,2,0:0:0:0:
256,192,207000,1,0,0:0:0:0:
256,192,207066,1,0,0:0:0:0:
256,192,207133,1,0,0:0:0:0:
256,192,207200,1,0,0:0:0:0:
256,192,207266,1,0,0:0:0:0:
256,192,207333,1,0,0:0:0:0:
256,192,207400,1,0,0:0:0:0:
256,192,207466,1,2,0:0:0:0:
256,192,207733,1,0,0:0:0:0:
256,192,208000,1,0,0:0:0:0:
256,192,208266,1,2,0:0:0:0:
256,192,208333,1,0,0:0:0:0:
256,192,208399,1,0,0:0:0:0:
256,192,208466,1,0,0:0:0:0:
256,192,208533,1,0,0:0:0:0:
256,192,208599,1,0,0:0:0:0:
256,192,208666,1,2,0:0:0:0:
256,192,208733,1,0,0:0:0:0:
256,192,208799,1,0,0:0:0:0:
256,192,208866,1,0,0:0:0:0:
256,192,208933,1,0,0:0:0:0:
256,192,208999,1,0,0:0:0:0:
256,192,209066,1,2,0:0:0:0:
256,192,209333,1,0,0:0:0:0:
256,192,209400,1,0,0:0:0:0:
256,192,209466,1,0,0:0:0:0:
256,192,209533,1,0,0:0:0:0:
256,192,209600,1,0,0:0:0:0:
256,192,209666,1,0,0:0:0:0:
256,192,209733,1,0,0:0:0:0:
256,192,209866,1,2,0:0:0:0:
256,192,210133,1,0,0:0:0:0:
256,192,210200,1,0,0:0:0:0:
256,192,210266,1,0,0:0:0:0:
256,192,210400,1,6,0:0:0:0:
256,192,210800,1,6,0:0:0:0:
256,192,211200,1,4,0:0:0:0:
256,192,211466,1,6,0:0:0:0:
256,192,211733,1,2,0:0:0:0:
256,192,211866,1,2,0:0:0:0:
256,192,212000,1,2,0:0:0:0:
256,192,212133,1,0,0:0:0:0:
256,192,212266,1,0,0:0:0:0:
256,192,212400,1,0,0:0:0:0:
256,192,212533,1,6,0:0:0:0:
256,192,212933,1,6,0:0:0:0:
256,192,213333,1,4,0:0:0:0:
256,192,213600,1,6,0:0:0:0:
256,192,213866,1,0,0:0:0:0:
256,192,214133,1,2,0:0:0:0:
256,192,214400,1,2,0:0:0:0:
256,192,214466,1,2,0:0:0:0:
256,192,214533,1,2,0:0:0:0:
256,192,214666,1,6,0:0:0:0:
256,192,215066,1,6,0:0:0:0:
256,192,215466,1,4,0:0:0:0:
256,192,215733,1,6,0:0:0:0:
256,192,216266,12,0,221066,0:0:0:0:
