osu file format v12

[General]
AudioFilename: hatsukoi no ehon.mp3
AudioLeadIn: 2000
PreviewTime: 140148
Countdown: 0
SampleSet: Soft
StackLeniency: 0.7
Mode: 0
LetterboxInBreaks: 0
WidescreenStoryboard: 0

[Editor]
Bookmarks: 8161,54944
DistanceSpacing: 0.8
BeatDivisor: 3
GridSize: 4

[Metadata]
Title:Hatsukoi no Ehon
TitleUnicode:初恋の絵本
Artist:yuikonnu
ArtistUnicode:ゆいこんぬ
Creator:litoluna
Version:Insane
Source:
Tags:HoneyWorks GUMI VOCALOID Nijiiro Chocolatier Dagger-Gazel Satellite
BeatmapID:288660
BeatmapSetID:110870

[Difficulty]
HPDrainRate:7
CircleSize:4
OverallDifficulty:8
ApproachRate:9
SliderMultiplier:1.8
SliderTickRate:2

[Events]
//Background and Video events
0,0,"hatsukoi.jpg",0,0
Video,0,"video.avi"
//Break Periods
2,108039,117502
2,137249,139607
//Storyboard Layer 0 (Background)
//Storyboard Layer 1 (Fail)
//Storyboard Layer 2 (Pass)
//Storyboard Layer 3 (Foreground)
//Storyboard Sound Samples
//Background Colour Transformations
3,100,163,162,255

[TimingPoints]
404,387.096774193548,4,2,1,40,1,0
404,-200,4,2,1,40,0,0
1093,344.827586206897,4,2,1,40,1,0
1093,-200,4,2,1,40,0,0
1179,-200,4,2,1,5,0,0
1351,-200,4,2,1,40,0,0
1524,-200,4,2,1,5,0,0
1782,-200,4,2,1,40,0,0
2558,-200,4,2,1,5,0,0
2730,-200,4,2,1,40,0,0
2903,-200,4,2,1,5,0,0
3161,-200,4,2,1,40,0,0
3937,-200,4,2,1,5,0,0
4196,-200,4,2,1,40,0,0
4627,-200,4,2,1,5,0,0
4886,-200,4,2,1,40,0,0
6696,-200,4,2,1,5,0,0
6955,-200,4,2,1,40,0,0
7386,-200,4,2,1,5,0,0
7644,-200,4,2,1,40,0,0
8075,-200,4,2,1,5,0,0
8334,-200,4,2,1,40,0,0
8765,-200,4,2,1,5,0,0
9024,-200,4,2,1,40,0,0
10748,315.789473684211,4,2,1,60,1,0
10748,-200,4,2,1,60,0,0
11379,-200,4,2,1,50,0,0
11458,-200,4,2,1,10,0,0
11774,-200,4,2,1,50,0,0
11997,315.789473684211,4,2,1,60,1,0
11997,-100,4,2,1,60,0,0
25891,-200,4,2,1,60,0,0
26839,-100,4,2,1,50,0,0
37260,-133.333333333333,4,2,1,40,0,0
42312,-100,4,2,1,60,0,0
62523,-100,4,2,1,40,0,0
63786,-200,4,2,1,60,0,0
63865,-200,4,2,1,5,0,0
64418,-100,4,2,1,60,0,0
65049,-100,4,2,1,75,0,1
73891,-100,4,2,1,75,0,0
75154,-100,4,2,1,75,0,1
81470,-100,4,2,1,60,0,1
82102,-100,4,2,1,50,0,1
84470,-100,4,2,1,10,0,1
84628,-100,4,2,1,50,0,1
85260,-100,4,2,1,60,0,0
128207,-100,4,2,1,50,0,0
133260,-100,4,2,1,60,0,0
134523,-100,4,2,1,70,0,0
135786,-100,4,2,1,50,0,0
140207,-100,4,2,1,75,0,1
140365,-100,4,2,1,75,0,0
140839,-100,4,2,1,80,0,1
149681,-100,4,2,1,80,0,0
150944,-100,4,2,1,80,0,1
166102,-100,4,2,1,80,0,0
166418,-100,4,2,1,50,0,0
168628,-100,4,2,1,60,0,0
169891,-100,4,2,1,70,0,0
171154,-100,4,2,1,80,0,0
171786,-100,4,2,1,80,0,1
177470,-100,4,2,1,60,0,1
178102,-100,4,2,1,50,0,1
178733,-100,4,2,1,40,0,1
180312,-100,4,2,1,25,0,1
180628,-100,4,2,1,20,0,1
180944,-100,4,2,1,10,0,0

[Colours]
Combo1 : 252,227,154
Combo2 : 255,200,227
Combo3 : 172,172,255
Combo4 : 205,154,154

[HitObjects]
80,144,404,1,2,0:0:0:0:
208,84,791,1,0,0:0:0:0:
260,196,1093,6,0,P|352:220|420:172,1,180,2|2,0:0|0:0,0:0:0:0:
288,48,2472,6,0,P|216:76|180:168,1,180,2|2,0:0|0:0,0:0:0:0:
220,268,3506,1,0,0:0:0:0:
292,188,3851,2,0,P|336:176|380:188,1,90,2|0,0:0|0:0,0:0:0:0:
424,284,4541,2,0,P|380:296|336:284,1,90,2|2,0:0|0:0,0:0:0:0:
254,156,5230,5,2,0:0:0:0:
246,309,5575,1,0,0:0:0:0:
342,190,5920,1,2,0:0:0:0:
194,230,6265,1,0,0:0:0:0:
338,285,6610,2,0,P|382:297|426:285,1,90,2|0,0:0|0:0,0:0:0:0:
194,230,7299,2,0,P|150:218|106:230,1,90,2|0,0:0|0:0,0:0:0:0:
227,297,7989,6,0,P|257:265|269:221,1,90,2|0,0:0|0:0,0:0:0:0:
32,223,8679,2,0,P|44:265|75:296,1,90,2|0,0:0|0:0,0:0:0:0:
194,110,9368,1,2,0:0:0:0:
256,192,9455,12,0,10748,0:0:0:0:
184,132,11379,6,0,P|148:174|99:129,1,135,0|0,0:0|0:0,0:0:0:0:
96,96,11932,1,0,0:0:0:0:
112,72,11997,6,0,P|200:48|285:72,1,180,4|0,0:0|0:0,0:0:0:0:
368,164,12470,2,0,P|380:212|368:252,1,90,2|0,0:0|0:0,0:0:0:0:
256,308,12786,2,0,P|244:260|256:220,1,90,2|0,0:0|0:0,0:0:0:0:
296,136,13102,1,0,0:0:0:0:
356,68,13260,6,0,L|444:48,2,90,4|0|0,0:0|0:0|0:0,0:0:0:0:
236,68,13733,2,0,L|148:88,1,90,2|0,0:0|0:0,0:0:0:0:
40,228,14049,2,0,L|128:208,2,90,2|0|0,0:0|0:0|0:0,0:0:0:0:
128,324,14523,6,0,P|220:340|296:300,1,180,4|0,0:0|0:0,0:0:0:0:
357,191,14997,1,0,0:0:0:0:
357,191,15075,1,0,0:0:0:0:
357,191,15154,1,2,0:0:0:0:
244,140,15312,1,0,0:0:0:0:
424,112,15470,1,2,0:0:0:0:
312,52,15628,1,0,0:0:0:0:
312,52,15707,1,0,0:0:0:0:
312,52,15786,6,0,P|268:44|220:52,1,90,4|0,0:0|0:0,0:0:0:0:
108,112,16102,1,0,0:0:0:0:
200,184,16260,2,0,L|296:256,1,90,4|0,0:0|0:0,0:0:0:0:
84,220,16575,2,0,L|-12:148,2,90,8|0|8,0:0|0:0|0:0,0:0:0:0:
180,288,17049,6,0,P|272:308|352:280,1,180,4|0,0:0|0:0,0:0:0:0:
439,217,17523,1,2,0:0:0:0:
405,114,17681,1,2,0:0:0:0:
297,113,17839,1,0,0:0:0:0:
263,217,17997,1,2,0:0:0:0:
351,281,18154,1,0,0:0:0:0:
405,114,18312,6,0,P|448:88|490:83,1,90,4|0,0:0|0:0,0:0:0:0:
263,217,18628,2,0,P|220:243|178:248,1,90,0|2,0:0|0:0,0:0:0:0:
60,168,18944,1,0,0:0:0:0:
128,296,19102,1,2,3:0:0:0:
128,152,19260,1,0,0:0:0:0:
60,280,19418,1,0,0:0:0:0:
60,280,19497,1,0,0:0:0:0:
60,280,19575,6,0,P|44:328|24:364,1,90,8|0,0:0|0:0,0:0:0:0:
128,152,19891,2,0,P|144:104|164:68,1,90,8|0,0:0|0:0,0:0:0:0:
256,278,20207,2,0,P|222:260|174:244,1,90,8|0,0:0|0:0,0:0:0:0:
256,120,20523,2,0,P|290:101|338:85,1,90,8|0,0:0|0:0,0:0:0:0:
398,175,20839,5,8,0:0:0:0:
432,278,20997,1,0,0:0:0:0:
344,342,21154,1,8,0:0:0:0:
256,278,21312,1,0,0:0:0:0:
114,175,21470,5,8,0:0:0:0:
80,278,21628,1,0,0:0:0:0:
168,342,21786,1,12,0:0:0:0:
256,278,21944,1,0,0:0:0:0:
256,192,22102,12,0,24312,0:0:0:0:
152,132,24628,5,6,0:0:0:0:
359,252,24786,5,0,0:0:0:0:
359,252,24865,1,0,0:0:0:0:
359,252,24944,1,8,0:0:0:0:
256,72,25102,5,0,0:0:0:0:
256,72,25181,1,0,0:0:0:0:
256,72,25260,1,8,0:0:0:0:
152,252,25418,5,0,0:0:0:0:
152,252,25497,1,0,0:0:0:0:
152,252,25575,1,8,0:0:0:0:
360,132,25733,5,8,0:0:0:0:
360,132,25812,1,8,0:0:0:0:
360,132,25891,2,0,B|376:167|427:156|427:156|389:202|389:261|389:261|357:220|321:237,1,270,2|0,0:0|0:0,0:0:0:0:
148,72,27154,6,0,P|110:100|95:139,1,90,2|0,0:0|0:0,0:0:0:0:
151,252,27470,2,0,P|201:262|237:252,1,90
358,213,27786,2,0,P|403:238|442:244,2,90,2|0|0,0:0|0:0|0:0,0:0:0:0:
255,138,28260,1,0,0:0:0:0:
148,72,28418,6,0,P|105:52|63:48,1,90,2|0,0:0|0:0,0:0:0:0:
255,138,28733,2,0,P|298:158|340:162,1,90
459,96,29049,1,2,0:0:0:0:
459,96,29207,1,0,0:0:0:0:
448,231,29365,1,2,0:0:0:0:
448,231,29523,1,0,0:0:0:0:
320,275,29681,6,0,P|272:286|233:278,1,90,2|0,0:0|0:0,0:0:0:0:
140,191,29997,2,0,P|182:162|205:127,1,90
296,45,30312,2,0,B|339:60|385:46|385:46|381:92|407:137,1,180,2|0,0:0|0:0,0:0:0:0:
447,231,30786,1,0,0:0:0:0:
320,276,30944,6,0,P|273:291|233:286,1,90,2|0,0:0|0:0,0:0:0:0:
317,142,31260,2,0,P|364:127|404:132,1,90,2|0,0:0|0:0,0:0:0:0:
190,228,31575,1,2,0:0:0:0:
190,228,31733,1,0,0:0:0:0:
109,120,31891,1,2,0:0:0:0:
109,120,32049,1,0,0:0:0:0:
243,106,32207,6,0,P|326:64|390:108,1,180,2|0,0:0|0:0,0:0:0:0:
445,213,32681,1,0,0:0:0:0:
358,290,32839,2,0,P|303:236|317:141,1,180,2|0,0:0|0:0,0:0:0:0:
399,58,33312,1,0,0:0:0:0:
480,142,33470,6,0,P|440:162|396:162,1,90,2|0,0:0|0:0,0:0:0:0:
244,105,33786,2,0,P|284:85|328:85,1,90
136,213,34102,2,0,P|93:241|49:241,2,90,2|0|0,0:0|0:0|0:0,0:0:0:0:
110,99,34575,1,0,0:0:0:0:
338,99,34733,5,2,0:0:0:0:
224,124,34891,1,0,0:0:0:0:
338,266,35049,1,2,0:0:0:0:
224,238,35207,1,0,0:0:0:0:
336,181,35365,2,0,P|383:170|423:175,1,90,10|0,0:0|0:0,0:0:0:0:
224,238,35681,2,0,P|177:249|137:244,1,90,8|0,0:0|0:0,0:0:0:0:
256,84,35997,5,10,0:0:0:0:
256,300,36154,1,0,0:0:0:0:
332,115,36312,1,8,0:0:0:0:
179,268,36470,1,0,0:0:0:0:
364,192,36628,1,10,0:0:0:0:
148,192,36786,1,0,0:0:0:0:
332,268,36944,1,8,0:0:0:0:
179,115,37102,1,0,0:0:0:0:
256,192,37260,5,2,0:0:0:0:
284,210,37418,1,0,0:0:0:0:
314,225,37575,2,0,P|348:233|380:229,1,67.5000025749208,2|0,0:0|0:0,0:0:0:0:
430,102,37891,5,2,0:0:0:0:
402,84,38049,1,0,0:0:0:0:
372,69,38207,2,0,P|338:61|306:65,1,67.5000025749208,2|0,0:0|0:0,0:0:0:0:
179,116,38523,5,2,0:0:0:0:
151,134,38681,1,0,0:0:0:0:
121,149,38839,2,0,P|87:157|55:153,1,67.5000025749208,2|0,0:0|0:0,0:0:0:0:
279,143,39154,6,0,P|312:128|344:128,1,67.5000025749208,2|0,0:0|0:0,0:0:0:0:
233,241,39470,2,0,P|200:256|168:256,1,67.5000025749208,2|0,0:0|0:0,0:0:0:0:
356,232,39786,6,0,P|419:204|440:142,1,135.000005149842,2|2,0:0|0:0,0:0:0:0:
340,31,40260,2,0,P|327:94|361:152,1,135.000005149842,2|0,0:0|0:0,0:0:0:0:
255,122,40733,2,0,P|218:118|188:121,1,67.5000025749208,2|0,0:0|0:0,0:0:0:0:
60,199,41049,6,0,P|51:269|90:314,1,135.000005149842,2|2,0:0|0:0,0:0:0:0:
237,283,41523,2,0,P|192:241|120:244,1,135.000005149842,2|0,0:0|0:0,0:0:0:0:
177,150,41997,2,0,P|193:82|162:28,1,135.000005149842,2|4,0:0|0:0,0:0:0:0:
26,113,42628,5,8,0:0:0:0:
26,113,42786,1,0,0:0:0:0:
26,113,42944,1,8,0:0:0:0:
26,113,43102,1,0,0:0:0:0:
26,113,43260,1,8,0:0:0:0:
26,113,43418,1,0,0:0:0:0:
78,237,43575,6,0,P|122:249|165:244,1,90,10|0,0:0|0:0,0:0:0:0:
198,228,43812,1,0,0:0:0:0:
228,208,43891,1,8,0:0:0:0:
253,182,43970,1,0,0:0:0:0:
269,149,44049,1,0,0:0:0:0:
279,114,44128,1,0,0:0:0:0:
299,84,44207,5,10,0:0:0:0:
331,67,44286,1,0,0:0:0:0:
365,58,44365,1,0,0:0:0:0:
400,60,44444,1,0,0:0:0:0:
430,79,44523,1,8,0:0:0:0:
451,108,44602,1,0,0:0:0:0:
460,142,44681,1,0,0:0:0:0:
454,177,44760,1,0,0:0:0:0:
438,209,44839,6,0,P|404:233|358:232,1,90,4|0,0:0|0:0,0:0:0:0:
254,184,45154,2,0,P|211:158|171:154,1,90,8|0,0:0|0:0,0:0:0:0:
48,299,45470,2,0,P|127:335|217:327,1,180,2|8,0:0|0:0,0:0:0:0:
320,251,45944,1,0,0:0:0:0:
388,145,46102,6,0,P|433:126|476:122,1,90,2|0,0:0|0:0,0:0:0:0:
254,184,46418,2,0,P|209:201|166:205,1,90,8|0,0:0|0:0,0:0:0:0:
51,137,46733,1,2,0:0:0:0:
51,137,46891,1,0,0:0:0:0:
167,68,47049,1,10,0:0:0:0:
167,68,47207,1,0,0:0:0:0:
301,121,47365,6,0,P|335:147|381:154,1,90,2|0,0:0|0:0,0:0:0:0:
471,230,47681,2,0,P|439:263|398:279,1,90,8|0,0:0|0:0,0:0:0:0:
281,289,47997,2,0,P|302:334|338:358,2,90,2|0|8,0:0|0:0|0:0,0:0:0:0:
254,184,48470,1,0,0:0:0:0:
335,76,48628,6,0,L|421:52,1,90,2|0,0:0|0:0,0:0:0:0:
197,63,48944,2,0,L|111:87,1,90,8|0,0:0|0:0,0:0:0:0:
56,212,49260,1,2,0:0:0:0:
176,292,49418,1,0,0:0:0:0:
56,316,49575,1,10,0:0:0:0:
176,188,49733,1,0,0:0:0:0:
265,91,49891,6,0,P|335:71|419:129,1,180,2|8,0:0|0:0,0:0:0:0:
444,252,50365,1,0,0:0:0:0:
333,311,50523,2,0,P|303:213|334:146,1,180,2|8,0:0|0:0,0:0:0:0:
199,151,50997,1,0,0:0:0:0:
78,212,51154,6,0,P|54:254|42:294,1,90,2|0,0:0|0:0,0:0:0:0:
163,234,51470,2,0,P|187:192|199:152,1,90,8|0,0:0|0:0,0:0:0:0:
284,45,51786,2,0,P|332:38|375:42,2,90,2|0|8,0:0|0:0|0:0,0:0:0:0:
172,81,52260,1,0,0:0:0:0:
164,234,52418,6,0,P|157:277|134:316,1,90,2|0,0:0|0:0,0:0:0:0:
77,213,52733,2,0,P|84:170|108:130,1,90,8|0,0:0|0:0,0:0:0:0:
404,130,53049,2,0,P|428:170|435:213,1,90,2|0,0:0|0:0,0:0:0:0:
378,316,53365,2,0,P|355:277|348:234,1,90,8|0,0:0|0:0,0:0:0:0:
196,68,53681,5,2,0:0:0:0:
316,148,53839,1,0,0:0:0:0:
196,228,53997,1,8,0:0:0:0:
316,308,54154,1,0,0:0:0:0:
196,308,54312,5,2,0:0:0:0:
316,228,54470,1,0,0:0:0:0:
196,148,54628,1,8,0:0:0:0:
316,68,54786,1,0,0:0:0:0:
436,148,54944,5,8,0:0:0:0:
436,148,55102,1,8,0:0:0:0:
436,148,55260,2,0,P|412:192|380:216,1,90,2|0,0:0|0:0,0:0:0:0:
238,237,55575,2,0,P|222:289|236:332,2,90,2|0|8,0:0|0:0|0:0,0:0:0:0:
316,149,56049,1,0,0:0:0:0:
176,67,56207,5,10,0:0:0:0:
176,67,56365,1,8,0:0:0:0:
176,67,56523,2,0,P|132:91|108:123,1,90,2|0,0:0|0:0,0:0:0:0:
130,264,56839,2,0,P|78:280|35:266,2,90,2|0|8,0:0|0:0|0:0,0:0:0:0:
215,182,57312,1,0,0:0:0:0:
269,335,57470,5,8,0:0:0:0:
269,335,57628,1,8,0:0:0:0:
269,335,57786,2,0,P|317:343|354:326,1,90,2|0,0:0|0:0,0:0:0:0:
421,198,58102,2,0,P|470:208|498:235,2,90,2|0|8,0:0|0:0|0:0,0:0:0:0:
306,218,58575,1,0,0:0:0:0:
175,277,58733,6,0,P|94:227|83:148,1,180,4|0,0:0|0:0,0:0:0:0:
275,67,59207,2,0,B|311:67|330:33|330:33|388:33|431:76,1,180,2|0,0:0|0:0,0:0:0:0:
378,277,59681,2,0,P|305:218|222:208,1,180,2|12,0:0|0:0,0:0:0:0:
64,293,60312,5,2,0:0:0:0:
76,276,60944,1,2,0:0:0:0:
88,260,61575,1,2,0:0:0:0:
100,244,62207,1,2,0:0:0:0:
47,114,62523,5,2,0:0:0:0:
80,100,62602,1,0,0:0:0:0:
115,95,62681,1,0,0:0:0:0:
150,99,62760,1,0,0:0:0:0:
183,111,62839,1,2,0:0:0:0:
210,134,62918,1,0,0:0:0:0:
229,164,62997,1,0,0:0:0:0:
246,194,63075,1,0,0:0:0:0:
250,229,63154,5,2,0:0:0:0:
241,263,63233,1,0,0:0:0:0:
242,298,63312,1,0,0:0:0:0:
260,329,63391,1,0,0:0:0:0:
287,352,63470,1,2,0:0:0:0:
322,356,63549,1,0,0:0:0:0:
358,351,63628,1,0,0:0:0:0:
388,332,63707,1,0,0:0:0:0:
412,304,63786,6,0,P|427:218|377:140,1,180,2|2,0:0|0:0,0:0:0:0:
216,64,64733,1,2,0:0:0:0:
78,180,65049,6,0,P|88:227|114:258,1,90,4|0,0:0|0:0,0:0:0:0:
290,286,65365,2,0,P|252:295|212:325,1,90,8|0,0:0|0:0,0:0:0:0:
398,239,65681,2,0,P|437:269|478:278,2,90,2|0|8,0:0|0:0|0:0,0:0:0:0:
298,162,66154,1,0,0:0:0:0:
188,100,66312,6,0,L|135:26,1,90,2|0,0:0|0:0,0:0:0:0:
92,184,66628,2,0,L|145:258,1,90,8|0,0:0|0:0,0:0:0:0:
277,333,66944,1,2,0:0:0:0:
277,333,67102,1,0,0:0:0:0:
398,240,67260,1,8,0:0:0:0:
398,240,67418,1,0,0:0:0:0:
335,121,67575,6,0,P|266:108|220:64,1,135,2|0,0:0|0:0,0:0:0:0:
201,33,67891,2,0,L|148:106,1,90,8|0,0:0|0:0,0:0:0:0:
51,237,68207,2,0,P|79:278|114:295,1,90,2|0,0:0|0:0,0:0:0:0:
271,250,68523,2,0,P|243:209|207:191,1,90,8|0,0:0|0:0,0:0:0:0:
63,88,68839,6,0,P|100:106|148:106,1,90,2|0,0:0|0:0,0:0:0:0:
449,88,69154,2,0,P|412:106|364:106,1,90,8|0,0:0|0:0,0:0:0:0:
160,32,69470,1,2,0:0:0:0:
204,168,69628,1,0,0:0:0:0:
352,32,69786,1,8,0:0:0:0:
308,168,69944,1,0,0:0:0:0:
256,300,70102,6,0,P|208:312|160:304,1,90,2|0,0:0|0:0,0:0:0:0:
60,216,70418,2,0,P|108:204|156:212,1,90,8|0,0:0|0:0,0:0:0:0:
315,247,70733,2,0,P|389:208|380:124,1,180,2|8,0:0|0:0,0:0:0:0:
268,84,71207,1,0,0:0:0:0:
152,100,71365,6,0,P|121:170|71:202,1,135,2|0,0:0|0:0,0:0:0:0:
46,224,71681,2,0,L|131:258,1,90,8|0,0:0|0:0,0:0:0:0:
286,303,71997,2,0,P|322:333|363:343,2,90,2|0|8,0:0|0:0|0:0,0:0:0:0:
208,192,72470,1,0,0:0:0:0:
307,113,72628,6,0,P|352:95|393:94,1,90,2|0,0:0|0:0,0:0:0:0:
454,290,72944,2,0,P|413:289|368:271,1,90,8|0,0:0|0:0,0:0:0:0:
58,290,73260,2,0,P|99:289|144:271,1,90,2|0,0:0|0:0,0:0:0:0:
205,113,73575,2,0,P|160:95|119:94,1,90,8|0,0:0|0:0,0:0:0:0:
145,271,73891,6,0,L|188:288,3,45,8|0|0|0,0:0|0:0|0:0|0:0,0:0:0:0:
196,322,74207,2,0,L|239:339,3,45,8|0|0|0,0:0|0:0|0:0|0:0,0:0:0:0:
271,351,74523,5,8,0:0:0:0:
306,355,74602,1,0,0:0:0:0:
340,345,74681,1,0,0:0:0:0:
374,334,74760,1,0,0:0:0:0:
398,307,74839,1,8,0:0:0:0:
410,273,74918,1,0,0:0:0:0:
414,237,74997,1,0,0:0:0:0:
403,202,75075,1,0,0:0:0:0:
385,170,75154,6,0,P|351:142|309:126,1,90,4|0,0:0|0:0,0:0:0:0:
139,181,75470,2,0,P|155:139|183:105,1,90,8|0,0:0|0:0,0:0:0:0:
107,304,75786,2,0,P|65:326|23:326,2,90,2|0|8,0:0|0:0|0:0,0:0:0:0:
220,248,76260,1,0,0:0:0:0:
323,175,76418,6,0,P|363:149|403:138,1,90,2|0,0:0|0:0,0:0:0:0:
332,302,76733,2,0,P|292:328|248:339,1,90,8|0,0:0|0:0,0:0:0:0:
73,159,77049,1,2,0:0:0:0:
106,304,77207,1,0,0:0:0:0:
212,70,77365,1,8,0:0:0:0:
177,215,77523,1,0,0:0:0:0:
358,90,77681,6,0,P|379:156|422:211,1,135,2|0,0:0|0:0,0:0:0:0:
451,224,77997,2,0,L|372:272,1,90,8|0,0:0|0:0,0:0:0:0:
247,318,78312,2,0,P|209:292|167:283,1,90,2|0,0:0|0:0,0:0:0:0:
73,159,78628,2,0,P|122:136|157:132,1,90,8|0,0:0|0:0,0:0:0:0:
420,91,78944,5,2,0:0:0:0:
505,205,79102,1,0,0:0:0:0:
377,251,79260,1,8,0:0:0:0:
293,137,79418,1,0,0:0:0:0:
163,183,79575,2,0,P|190:213|237:228,1,90,2|0,0:0|0:0,0:0:0:0:
303,47,79891,2,0,P|261:41|216:51,1,90,8|0,0:0|0:0,0:0:0:0:
322,318,80207,5,2,0:0:0:0:
322,318,80365,2,0,P|363:286|377:251,1,90,0|8,0:0|0:0,0:0:0:0:
375,152,80681,1,0,0:0:0:0:
304,48,80839,2,0,P|227:92|140:80,1,180,2|8,0:0|0:0,0:0:0:0:
33,33,81312,1,8,0:0:0:0:
59,233,81470,6,0,P|136:277|223:265,1,180,2|2,0:0|0:0,0:0:0:0:
376,153,81944,1,0,0:0:0:0:
257,18,82102,2,0,P|213:95|225:182,1,180,2|2,0:0|0:0,0:0:0:0:
256,192,82497,12,0,84470,0:0:0:0:
141,114,84628,5,2,0:0:0:0:
54,193,84786,1,2,0:0:0:0:
112,292,84944,1,2,0:0:0:0:
224,259,85102,2,0,P|256:220|292:200,1,90,0|4,0:0|0:0,0:0:0:0:
452,48,85575,5,8,0:0:0:0:
452,50,85733,1,0,0:0:0:0:
452,52,85891,1,8,0:0:0:0:
452,54,86049,1,0,0:0:0:0:
452,56,86207,1,8,0:0:0:0:
452,58,86365,1,0,0:0:0:0:
489,164,86523,6,0,P|451:190|409:200,1,90,8|0,0:0|0:0,0:0:0:0:
373,196,86760,1,0,0:0:0:0:
338,188,86839,1,10,0:0:0:0:
305,172,86918,1,0,0:0:0:0:
279,146,86997,1,0,0:0:0:0:
258,117,87075,1,0,0:0:0:0:
228,95,87154,5,2,0:0:0:0:
193,90,87233,1,0,0:0:0:0:
158,93,87312,1,0,0:0:0:0:
125,107,87391,1,0,0:0:0:0:
104,135,87470,1,10,0:0:0:0:
94,170,87549,1,0,0:0:0:0:
97,205,87628,1,0,0:0:0:0:
115,236,87707,1,0,0:0:0:0:
138,256,87786,6,0,P|228:264|304:312,1,180,4|8,0:0|0:0,0:0:0:0:
415,275,88260,2,0,P|428:227|425:186,1,90,0|2,0:0|0:0,0:0:0:0:
356,69,88575,2,0,P|399:64|447:72,2,90,0|8|0,0:0|0:0|0:0,0:0:0:0:
229,103,89049,5,2,0:0:0:0:
200,281,89207,1,0,0:0:0:0:
117,136,89365,1,8,0:0:0:0:
287,202,89523,1,0,0:0:0:0:
436,236,89681,2,0,P|445:193|437:148,1,90,2|0,0:0|0:0,0:0:0:0:
288,202,89997,2,0,P|279:245|287:290,1,90,8|0,0:0|0:0,0:0:0:0:
356,69,90312,6,0,P|267:52|184:80,1,180,2|8,0:0|0:0,0:0:0:0:
69,182,90786,1,2,0:0:0:0:
68,182,91102,5,2,0:0:0:0:
89,210,91181,1,2,0:0:0:0:
112,236,91260,1,10,0:0:0:0:
142,255,91339,1,2,0:0:0:0:
176,266,91418,1,2,0:0:0:0:
211,271,91497,1,2,0:0:0:0:
246,265,91575,6,0,P|328:234|369:154,1,180,2|8,0:0|0:0,0:0:0:0:
241,40,92049,2,0,P|212:113|278:179,1,180,2|2,0:0|0:0,0:0:0:0:
457,179,92523,1,10,0:0:0:0:
471,146,92602,1,2,0:0:0:0:
474,110,92681,1,2,0:0:0:0:
459,77,92760,1,2,0:0:0:0:
433,51,92839,6,0,P|350:34|294:104,1,180,2|8,0:0|0:0,0:0:0:0:
171,156,93312,2,0,P|125:138|83:137,1,90,0|2,0:0|0:0,0:0:0:0:
31,261,93628,1,0,0:0:0:0:
128,325,93786,1,8,0:0:0:0:
224,230,93944,1,0,0:0:0:0:
354,160,94102,6,0,P|398:177|427:208,1,90,2|0,0:0|0:0,0:0:0:0:
391,357,94418,2,0,P|346:340|318:310,1,90,8|0,0:0|0:0,0:0:0:0:
286,146,94733,1,0,0:0:0:0:
122,92,94891,1,2,0:0:0:0:
224,230,95049,1,10,0:0:0:0:
223,59,95207,1,2,0:0:0:0:
123,198,95365,6,0,P|104:242|108:284,1,90,2|0,0:0|0:0,0:0:0:0:
124,315,95602,1,0,0:0:0:0:
153,335,95681,1,10,0:0:0:0:
188,343,95760,1,0,0:0:0:0:
223,346,95839,1,0,0:0:0:0:
258,338,95918,1,0,0:0:0:0:
289,320,95997,5,2,0:0:0:0:
310,291,96075,1,0,0:0:0:0:
324,258,96154,1,0,0:0:0:0:
327,222,96233,1,0,0:0:0:0:
323,186,96312,1,10,0:0:0:0:
309,152,96391,1,0,0:0:0:0:
292,120,96470,1,0,0:0:0:0:
261,101,96549,1,0,0:0:0:0:
225,95,96628,5,2,0:0:0:0:
197,117,96707,1,0,0:0:0:0:
184,150,96786,1,0,0:0:0:0:
203,180,96865,1,0,0:0:0:0:
235,196,96944,1,10,0:0:0:0:
270,188,97023,1,0,0:0:0:0:
288,156,97102,1,0,0:0:0:0:
292,120,97181,1,0,0:0:0:0:
296,84,97260,6,0,P|327:59|378:43,1,90,2|0,0:0|0:0,0:0:0:0:
498,97,97575,2,0,P|467:122|416:138,1,90,8|0,0:0|0:0,0:0:0:0:
227,25,97891,6,0,P|142:74|117:148,1,180,4|8,0:0|0:0,0:0:0:0:
143,281,98365,1,0,0:0:0:0:
337,298,98523,2,0,P|366:256|370:212,1,90,2|0,0:0|0:0,0:0:0:0:
283,140,98839,2,0,P|253:181|249:225,1,90,8|0,0:0|0:0,0:0:0:0:
449,122,99154,6,0,P|383:59|298:58,1,180,2|8,0:0|0:0,0:0:0:0:
171,106,99628,1,0,0:0:0:0:
61,224,99786,2,0,P|89:258|130:275,1,90,2|0,0:0|0:0,0:0:0:0:
242,237,100102,2,0,P|214:203|172:185,1,90,8|0,0:0|0:0,0:0:0:0:
194,347,100418,6,0,P|292:330|322:263,1,180,2|8,0:0|0:0,0:0:0:0:
321,128,100891,1,0,0:0:0:0:
209,30,101049,2,0,P|179:66|173:116,1,90,2|0,0:0|0:0,0:0:0:0:
283,205,101365,2,0,P|313:169|321:128,1,90,8|0,0:0|0:0,0:0:0:0:
194,347,101681,6,0,P|178:278|133:234,1,135,2|0,0:0|0:0,0:0:0:0:
99,221,101997,2,0,L|169:162,1,90,8|0,0:0|0:0,0:0:0:0:
311,38,102312,2,0,P|380:48|420:96,1,135,2|0,0:0|0:0,0:0:0:0:
424,132,102628,1,8,0:0:0:0:
436,256,102786,1,0,0:0:0:0:
326,312,102944,6,0,P|233:305|169:251,1,180,2|8,0:0|0:0,0:0:0:0:
121,134,103418,1,0,0:0:0:0:
224,63,103575,2,0,L|311:38,1,90,2|0,0:0|0:0,0:0:0:0:
493,79,103891,2,0,L|406:104,1,90,8|0,0:0|0:0,0:0:0:0:
268,146,104207,6,0,B|243:216|277:270|277:270|250:285|237:310,2,180,2|8|2,0:0|0:0|0:0,0:0:0:0:
387,36,105154,1,8,0:0:0:0:
451,224,105470,6,0,P|472:238|504:250,2,60,4|0|0,0:0|0:0|0:0,0:0:0:0:
306,86,105786,2,0,P|301:56|290:28,2,60,8|0|0,0:0|0:0|0:0,0:0:0:0:
273,252,106102,2,0,P|262:285|258:311,2,60,8|0|0,0:0|0:0|0:0,0:0:0:0:
429,109,106418,2,0,P|450:101|482:82,2,60,8|0|0,0:0|0:0|0:0,0:0:0:0:
192,152,106733,6,0,P|150:179|124:216,1,90,12|0,0:0|0:0,0:0:0:0:
352,300,107049,2,0,P|362:251|354:207,1,90,2|8,0:0|0:0,0:0:0:0:
224,60,107365,5,8,0:0:0:0:
210,51,107523,1,8,0:0:0:0:
192,41,107681,1,8,0:0:0:0:
178,33,107839,1,8,0:0:0:0:
314,316,118102,6,0,P|388:271|391:184,1,180,2|0,0:0|0:0,0:0:0:0:
326,77,118575,1,0,0:0:0:0:
188,154,118733,2,0,P|233:228|319:231,1,180,2|0,0:0|0:0,0:0:0:0:
473,176,119207,1,0,0:0:0:0:
414,64,119365,6,0,P|376:64|326:77,1,90,2|0,0:0|0:0,0:0:0:0:
320,231,119681,2,0,P|358:231|408:218,1,90
188,154,119997,2,0,P|142:154|99:161,2,90,2|0|0,0:0|0:0|0:0,0:0:0:0:
314,156,120470,1,0,0:0:0:0:
261,270,120628,6,0,P|165:282|100:231,1,180,2|0,0:0|0:0,0:0:0:0:
75,101,121102,1,0,0:0:0:0:
237,93,121260,2,0,P|324:75|402:116,1,180,2|0,0:0|0:0,0:0:0:0:
464,236,121733,1,0,0:0:0:0:
329,325,121891,6,0,P|284:301|260:270,1,90,2|0,0:0|0:0,0:0:0:0:
314,156,122207,2,0,P|359:180|383:211,1,90
171,277,122523,2,0,P|128:277|85:258,2,90,2|0|0,0:0|0:0|0:0,0:0:0:0:
256,192,122997,1,0,0:0:0:0:
341,107,123154,6,0,P|381:92|436:86,1,90,10|0,0:0|0:0,0:0:0:0:
341,277,123470,2,0,P|356:317|362:372,1,90,8|0,0:0|0:0,0:0:0:0:
171,277,123786,2,0,P|131:292|76:298,1,90,10|0,0:0|0:0,0:0:0:0:
171,107,124102,2,0,P|156:67|150:12,1,90,8|0,0:0|0:0,0:0:0:0:
340,276,124418,5,10,0:0:0:0:
171,276,124575,1,0,0:0:0:0:
171,107,124733,1,8,0:0:0:0:
340,107,124891,1,0,0:0:0:0:
256,312,125049,1,10,0:0:0:0:
136,192,125207,1,0,0:0:0:0:
256,72,125365,1,8,0:0:0:0:
376,191,125523,1,0,0:0:0:0:
491,265,125681,5,10,0:0:0:0:
468,293,125760,1,0,0:0:0:0:
438,313,125839,1,0,0:0:0:0:
404,325,125918,1,0,0:0:0:0:
368,328,125997,1,8,0:0:0:0:
333,319,126075,1,0,0:0:0:0:
301,302,126154,1,0,0:0:0:0:
277,274,126233,1,0,0:0:0:0:
258,243,126312,5,10,0:0:0:0:
251,207,126391,1,0,0:0:0:0:
235,174,126470,1,0,0:0:0:0:
213,144,126549,1,0,0:0:0:0:
183,123,126628,1,8,0:0:0:0:
148,111,126707,1,0,0:0:0:0:
112,112,126786,1,0,0:0:0:0:
83,133,126865,1,0,0:0:0:0:
62,162,126944,2,0,P|56:209|72:248,1,90,10|0,0:0|0:0,0:0:0:0:
160,304,127260,5,8,0:0:0:0:
175,310,127418,1,0,0:0:0:0:
192,314,127575,1,8,0:0:0:0:
209,314,127733,1,8,0:0:0:0:
226,309,127891,1,8,0:0:0:0:
241,300,128049,1,8,0:0:0:0:
255,288,128207,6,0,P|288:249|293:209,1,90,6|0,0:0|0:0,0:0:0:0:
211,114,128523,2,0,P|178:153|173:193,1,90
383,248,128839,2,0,P|392:197|376:160,2,90,2|0|0,0:0|0:0|0:0,0:0:0:0:
321,325,129312,1,0,0:0:0:0:
321,325,129470,5,2,0:0:0:0:
293,211,129628,2,0,P|304:116|372:74,1,180,2|0,0:0|0:0,0:0:0:0:
453,145,130102,2,0,P|469:189|499:222,1,90,2|0,0:0|0:0,0:0:0:0:
428,324,130418,2,0,P|412:280|382:247,1,90,2|0,0:0|0:0,0:0:0:0:
293,212,130733,5,2,0:0:0:0:
201,173,130891,1,0,0:0:0:0:
136,245,131049,1,2,0:0:0:0:
186,331,131207,1,0,0:0:0:0:
281,311,131365,1,2,0:0:0:0:
293,212,131523,1,0,0:0:0:0:
297,115,131681,1,2,0:0:0:0:
394,89,131839,1,0,0:0:0:0:
447,170,131997,6,0,P|457:254|397:321,1,180,2|0,0:0|0:0,0:0:0:0:
293,212,132470,2,0,P|226:152|142:162,1,180,2|0,0:0|0:0,0:0:0:0:
58,288,132944,2,0,P|109:300|146:295,1,90,2|0,0:0|0:0,0:0:0:0:
293,212,133260,5,10,0:0:0:0:
380,148,133418,1,0,0:0:0:0:
347,45,133575,1,8,0:0:0:0:
238,45,133733,1,0,0:0:0:0:
205,148,133891,5,10,0:0:0:0:
171,251,134049,1,0,0:0:0:0:
63,251,134207,1,8,0:0:0:0:
29,148,134365,1,0,0:0:0:0:
117,85,134523,5,10,0:0:0:0:
293,212,134681,1,0,0:0:0:0:
102,184,134839,1,10,0:0:0:0:
307,112,134997,1,0,0:0:0:0:
171,251,135154,6,0,B|242:296|256:314|256:314|270:296|320:266,1,180,8|8,0:0|0:0,0:0:0:0:
392,176,135628,1,0,0:0:0:0:
220,102,135786,6,0,B|172:50|60:122|96:258|192:242|256:314|256:314|320:242|416:258|452:122|340:50|292:102,1,720,2|2,0:0|0:0,0:0:0:0:
293,100,140207,5,8,0:0:0:0:
293,100,140365,1,8,0:0:0:0:
78,180,140839,6,0,P|88:227|114:258,1,90,4|0,0:0|0:0,0:0:0:0:
290,285,141154,2,0,P|250:315|212:324,1,90,8|0,0:0|0:0,0:0:0:0:
296,164,141470,2,0,P|335:134|376:125,2,90,2|0|8,0:0|0:0|0:0,0:0:0:0:
180,220,141944,1,0,0:0:0:0:
290,286,142102,6,0,P|336:302|377:302,1,90,2|0,0:0|0:0,0:0:0:0:
455,214,142418,2,0,P|409:198|368:198,1,90,8|0,0:0|0:0,0:0:0:0:
213,291,142733,1,2,0:0:0:0:
213,291,142891,1,0,0:0:0:0:
195,112,143049,1,8,0:0:0:0:
195,112,143207,1,0,0:0:0:0:
370,75,143365,6,0,P|357:144|313:190,1,135,2|0,0:0|0:0,0:0:0:0:
282,209,143681,2,0,L|355:262,1,90,8|0,0:0|0:0,0:0:0:0:
274,95,143997,2,0,P|246:54|211:37,1,90,2|0,0:0|0:0,0:0:0:0:
54,82,144312,2,0,P|82:123|118:141,1,90,8|0,0:0|0:0,0:0:0:0:
355,262,144628,6,0,P|373:225|373:177,1,90,2|0,0:0|0:0,0:0:0:0:
274,94,144944,2,0,P|256:131|256:179,1,90,8|0,0:0|0:0,0:0:0:0:
274,305,145260,1,2,0:0:0:0:
323,151,145418,1,0,0:0:0:0:
192,204,145575,1,8,0:0:0:0:
142,50,145733,1,0,0:0:0:0:
57,168,145891,6,0,P|51:207|63:255,1,90,2|0,0:0|0:0,0:0:0:0:
192,361,146207,2,0,P|204:313|198:273,1,90,8|0,0:0|0:0,0:0:0:0:
165,132,146523,2,0,B|238:139|285:106|285:106|308:124|333:129,1,180,2|8,0:0|0:0,0:0:0:0:
459,107,146997,1,0,0:0:0:0:
445,232,147154,6,0,P|375:263|343:313,1,135,2|0,0:0|0:0,0:0:0:0:
321,338,147470,2,0,L|245:275,1,90,8|0,0:0|0:0,0:0:0:0:
165,132,147786,2,0,P|178:86|170:43,2,90,2|0|8,0:0|0:0|0:0,0:0:0:0:
88,232,148260,1,0,0:0:0:0:
190,306,148418,6,0,P|235:301|273:280,1,90,2|0,0:0|0:0,0:0:0:0:
322,78,148733,2,0,P|277:83|239:104,1,90,8|0,0:0|0:0,0:0:0:0:
176,328,149049,2,0,P|230:322|262:307,1,90,2|0,0:0|0:0,0:0:0:0:
335,55,149365,2,0,P|281:61|249:76,1,90,8|0,0:0|0:0,0:0:0:0:
88,233,149681,6,0,L|131:250,3,45,8|0|0|0,0:0|0:0|0:0|0:0,0:0:0:0:
143,283,149997,2,0,L|186:300,3,45,8|0|0|0,0:0|0:0|0:0|0:0,0:0:0:0:
209,326,150312,5,8,0:0:0:0:
244,330,150391,1,0,0:0:0:0:
278,320,150470,1,0,0:0:0:0:
312,309,150549,1,0,0:0:0:0:
336,282,150628,1,8,0:0:0:0:
348,248,150707,1,0,0:0:0:0:
352,212,150786,1,0,0:0:0:0:
341,177,150865,1,0,0:0:0:0:
323,145,150944,6,0,P|289:117|247:101,1,90,4|0,0:0|0:0,0:0:0:0:
73,134,151260,2,0,P|89:92|117:58,1,90,8|0,0:0|0:0,0:0:0:0:
143,283,151575,2,0,P|102:301|49:301,2,90,2|0|8,0:0|0:0|0:0,0:0:0:0:
235,196,152049,1,0,0:0:0:0:
335,86,152207,6,0,P|295:60|254:49,1,90,2|0,0:0|0:0,0:0:0:0:
384,227,152523,2,0,P|424:253|465:264,1,90,8|0,0:0|0:0,0:0:0:0:
289,311,152839,1,2,0:0:0:0:
235,196,152997,1,0,0:0:0:0:
143,283,153154,1,8,0:0:0:0:
89,168,153312,1,0,0:0:0:0:
184,59,153470,6,0,P|250:80|305:123,1,135,2|0,0:0|0:0,0:0:0:0:
318,152,153786,2,0,L|366:73,1,90,8|0,0:0|0:0,0:0:0:0:
89,167,154102,2,0,L|42:243,1,90,2|0,0:0|0:0,0:0:0:0:
337,304,154418,2,0,L|384:228,1,90,8|0,0:0|0:0,0:0:0:0:
436,60,154733,5,2,0:0:0:0:
290,85,154891,1,0,0:3:0:0:
427,129,155049,1,8,0:0:0:0:
377,22,155207,1,0,0:3:0:0:
318,152,155365,2,0,P|300:190|264:220,1,90,2|0,0:0|0:0,0:0:0:0:
127,229,155681,2,0,P|145:191|181:161,1,90,8|0,0:0|0:0,0:0:0:0:
399,224,155997,6,0,P|356:310|282:342,1,180,2|8,0:0|0:0,0:0:0:0:
144,302,156470,1,0,0:0:0:0:
79,172,156628,2,0,P|160:208|249:196,1,180,2|8,0:0|0:0,0:0:0:0:
280,54,157102,1,0,0:0:0:0:
402,130,157260,6,0,P|363:187|362:253,1,135,2|0,0:0|0:0,0:0:0:0:
371,285,157575,2,0,P|325:269|285:269,1,90,8|0,0:0|0:0,0:0:0:0:
144,303,157891,2,0,P|160:257|160:217,1,90,2|0,0:0|0:0,0:0:0:0:
141,99,158207,2,0,P|187:115|227:115,1,90,8|0,0:0|0:0,0:0:0:0:
368,81,158523,6,0,P|352:127|352:167,1,90,4|0,0:0|0:0,0:0:0:0:
372,285,158839,1,10,0:0:0:0:
337,274,158918,1,0,0:0:0:0:
301,268,158997,1,2,0:0:0:0:
265,270,159075,1,0,0:0:0:0:
233,287,159154,6,0,P|213:244|179:217,1,90,4|0,0:0|0:0,0:0:0:0:
54,164,159470,1,10,0:0:0:0:
87,148,159549,1,0,0:0:0:0:
116,126,159628,1,2,0:0:0:0:
140,99,159707,1,0,0:0:0:0:
151,65,159786,6,0,P|195:81|238:76,1,90,4|0,0:0|0:0,0:0:0:0:
365,29,160102,1,10,0:0:0:0:
355,63,160181,1,0,0:0:0:0:
347,98,160260,1,0,0:0:0:0:
339,133,160339,1,0,0:0:0:0:
341,168,160418,5,8,0:0:0:0:
350,202,160497,1,0,0:0:0:0:
369,231,160575,1,0,0:0:0:0:
392,258,160654,1,0,0:0:0:0:
418,282,160733,5,10,0:0:0:0:
383,291,160812,1,0,0:0:0:0:
347,299,160891,1,0,0:0:0:0:
313,311,160970,1,0,0:0:0:0:
279,323,161049,6,0,P|229:339|185:364,1,90,4|0,0:0|0:0,0:0:0:0:
81,268,161365,1,8,0:0:0:0:
81,268,161444,1,0,0:0:0:0:
81,268,161523,1,4,0:0:0:0:
117,132,161681,6,0,L|127:89,3,45,8|0|0|0,0:0|0:0|0:0|0:0,0:0:0:0:
214,207,161997,2,0,L|257:197,3,45,12|0|0|0,0:0|0:0|0:0|0:0,0:0:0:0:
229,88,162312,1,12,0:0:0:0:
229,88,162470,1,0,0:0:0:0:
391,75,162628,5,8,0:0:0:0:
416,104,162707,1,0,0:0:0:0:
440,128,162786,1,4,0:0:0:0:
464,279,162944,5,8,0:0:0:0:
430,292,163023,1,0,0:0:0:0:
395,303,163102,1,0,0:0:0:0:
359,307,163181,1,0,0:0:0:0:
322,307,163260,1,12,0:0:0:0:
287,298,163339,1,0,0:0:0:0:
255,281,163418,1,0,0:0:0:0:
231,253,163497,1,0,0:0:0:0:
217,219,163575,6,0,P|188:182|152:159,1,90,4|0,0:0|0:0,0:0:0:0:
45,270,163891,1,8,0:0:0:0:
45,270,163970,1,0,0:0:0:0:
45,270,164049,1,0,0:0:0:0:
45,270,164128,1,0,0:0:0:0:
70,295,164207,6,0,L|127:273,3,45,10|0|0|0,0:0|0:0|0:0|0:0,0:0:0:0:
147,270,164523,2,0,L|188:286,3,45,10|0|0|0,0:0|0:0|0:0|0:0,0:0:0:0:
222,299,164839,5,10,0:0:0:0:
256,309,164918,1,0,0:0:0:0:
291,302,164997,1,0,0:0:0:0:
322,285,165075,1,0,0:0:0:0:
343,256,165154,1,10,0:0:0:0:
355,222,165233,1,0,0:0:0:0:
357,186,165312,1,0,0:0:0:0:
345,151,165391,1,0,0:0:0:0:
323,121,165470,6,0,L|287:90,1,45,10|0,0:0|0:0,0:0:0:0:
192,32,165628,2,0,L|185:96,1,45,0|0,0:0|0:0,0:0:0:0:
163,188,165786,2,0,L|127:157,1,45,10|0,0:0|0:0,0:0:0:0:
51,75,165944,2,0,L|44:139,1,45,0|0,0:0|0:0,0:0:0:0:
45,270,166102,6,0,P|116:316|189:270,1,180,4|2,0:0|0:0,0:0:0:0:
256,103,167049,1,2,0:0:0:0:
256,103,167681,1,2,0:0:0:0:
256,103,168312,1,2,0:0:0:0:
383,230,168628,5,4,0:0:0:0:
361,316,168786,1,0,0:0:0:0:
274,340,168944,1,10,0:0:0:0:
211,277,169102,1,0,0:0:0:0:
234,191,169260,1,2,0:0:0:0:
256,103,169418,1,0,0:0:0:0:
193,40,169575,1,10,0:0:0:0:
108,63,169733,1,0,0:0:0:0:
84,149,169891,5,4,0:0:0:0:
95,182,169970,1,0,0:0:0:0:
113,212,170049,1,0,0:0:0:0:
137,238,170128,1,0,0:0:0:0:
166,258,170207,1,10,0:0:0:0:
198,272,170286,1,0,0:0:0:0:
233,278,170365,1,0,0:0:0:0:
268,273,170444,1,0,0:0:0:0:
301,260,170523,6,0,L|347:248,1,45,10|0,0:0|0:0,0:0:0:0:
432,172,170681,2,0,L|380:162,1,45
264,124,170839,2,0,L|310:112,1,45,8|0,0:0|0:0,0:0:0:0:
412,36,170997,2,0,L|360:26,1,45
192,39,171154,6,0,P|162:80|129:100,1,90,4|0,0:0|0:0,0:0:0:0:
95,113,171391,1,0,0:0:0:0:
60,122,171470,2,0,L|111:208,1,90,12|0,0:0|0:0,0:0:0:0:
234,279,171786,6,0,P|246:325|275:354,2,90,2|0|8,0:0|0:0|0:0,0:0:0:0:
255,164,172260,1,0,0:0:0:0:
476,184,172418,6,0,P|451:219|412:244,1,90,2|0,0:0|0:0,0:0:0:0:
331,63,172733,2,0,P|376:56|419:64,1,90,8|0,0:0|0:0,0:0:0:0:
255,164,173049,1,2,0:0:0:0:
69,213,173207,1,0,0:0:0:0:
210,105,173365,1,8,0:0:0:0:
114,271,173523,1,0,0:0:0:0:
288,232,173681,6,0,P|358:199|414:200,1,135,2|0,0:0|0:0,0:0:0:0:
450,206,173997,2,0,P|431:156|431:118,1,90,8|0,0:0|0:0,0:0:0:0:
296,84,174312,2,0,P|246:103|208:103,1,90,2|0,0:0|0:0,0:0:0:0:
77,74,174628,2,0,L|92:166,1,90,8|0,0:0|0:0,0:0:0:0:
183,298,174944,2,0,P|147:317|99:326,1,90,2|0,0:0|0:0,0:0:0:0:
246,178,175260,2,0,P|282:159|330:150,1,90,8|0,0:0|0:0,0:0:0:0:
434,177,175575,5,2,0:0:0:0:
282,65,175733,1,0,0:0:0:0:
341,247,175891,1,8,0:0:0:0:
399,66,176049,1,0,0:0:0:0:
246,178,176207,6,0,P|201:196|159:196,1,90,2|0,0:0|0:0,0:0:0:0:
58,106,176523,2,0,P|103:88|145:88,1,90,8|0,0:0|0:0,0:0:0:0:
341,247,176839,2,0,P|397:198|397:133,1,135,2|0,0:0|0:0,0:0:0:0:
389,106,177154,1,8,0:0:0:0:
282,64,177312,1,0,0:0:0:0:
133,183,177470,6,0,P|163:266|234:318,1,180,2|2,0:0|0:0,0:0:0:0:
412,285,177944,1,0,0:0:0:0:
388,106,178102,2,0,P|304:137|252:208,1,180,2|2,0:0|0:0,0:0:0:0:
256,192,178497,12,0,180944,0:0:0:0:
