osu file format v12

[General]
AudioFilename: genjitsugame.mp3
AudioLeadIn: 1500
PreviewTime: 31046
Countdown: 0
SampleSet: None
StackLeniency: 0.7
Mode: 0
LetterboxInBreaks: 1
WidescreenStoryboard: 1

[Editor]
DistanceSpacing: 1
BeatDivisor: 4
GridSize: 4
TimelineZoom: 1

[Metadata]
Title:Genjitsu Game
TitleUnicode:現実ゲーム
Artist:yuikonnu
ArtistUnicode:ゆいこんぬ
Creator:Amamiya Yuko
Version:Normal
Source:
Tags:reality N E K O c84 captin1 nijiiro chocolatier
BeatmapID:303484
BeatmapSetID:112210

[Difficulty]
HPDrainRate:3
CircleSize:3
OverallDifficulty:3
ApproachRate:5
SliderMultiplier:0.999999999999999
SliderTickRate:1

[Events]
//Background and Video events
0,0,"5.jpg",0,0
//Break Periods
2,48646,56846
2,96646,104846
2,139846,145646
//Storyboard Layer 0 (Background)
//Storyboard Layer 1 (Fail)
//Storyboard Layer 2 (Pass)
//Storyboard Layer 3 (Foreground)
//Storyboard Sound Samples
//Background Colour Transformations
3,100,163,162,255

[TimingPoints]
446,300,4,1,1,40,1,0
446,-100,4,1,1,40,0,0
10046,-100,4,3,1,50,0,0
13496,-100,4,3,1,30,0,0
13946,-100,4,3,1,50,0,0
18296,-100,4,3,1,30,0,0
18746,-100,4,3,1,50,0,0
19646,-100,4,3,1,60,0,0
31046,-100,4,2,1,10,0,0
31646,-100,4,1,2,60,0,0
38846,-100,4,3,1,60,0,0
40646,-100,4,1,1,50,0,0
40796,-100,4,1,1,40,0,0
41246,-100,4,1,2,60,0,0
47396,-100,4,1,1,60,0,0
48446,-100,4,2,1,60,0,0
58046,-100,4,3,1,50,0,0
61496,-100,4,3,1,30,0,0
61946,-100,4,3,1,50,0,0
66296,-100,4,3,1,60,0,0
77246,-100,4,3,1,50,0,0
77696,-100,4,3,1,60,0,0
79646,-100,4,1,2,60,0,0
86846,-100,4,3,1,60,0,0
88646,-100,4,1,1,50,0,0
88796,-100,4,1,1,40,0,0
89246,-100,4,1,2,60,0,0
95396,-100,4,1,1,60,0,0
96446,-100,4,3,1,60,0,0
106046,-100,4,1,2,60,0,0
114446,-100,4,1,2,70,0,0
115046,-100,4,3,1,60,0,0
115946,-100,4,1,2,60,0,0
116696,-100,4,3,1,60,0,0
117146,-100,4,1,2,60,0,0
117896,-100,4,3,1,60,0,0
118346,-100,4,1,2,60,0,0
119096,-100,4,3,1,60,0,0
119546,-100,4,1,2,60,0,0
120296,-100,4,3,1,60,0,0
120746,-100,4,1,2,60,0,0
120896,-100,4,3,1,60,0,0
121346,-100,4,1,2,60,0,0
121496,-100,4,3,1,60,0,0
121946,-100,4,1,2,60,0,0
122096,-100,4,3,1,60,0,0
122546,-100,4,1,2,60,0,0
122696,-100,4,3,1,60,0,0
123146,-100,4,1,2,60,0,0
123296,-100,4,3,1,60,0,0
123746,-100,4,1,2,60,0,0
123896,-100,4,3,1,60,0,0
124346,-100,4,1,2,60,0,0
125096,-100,4,3,1,60,0,0
125546,-100,4,1,2,60,0,0
126296,-100,4,3,1,60,0,0
126746,-100,4,1,2,60,0,0
127496,-100,4,3,1,60,0,0
127946,-100,4,1,2,60,0,0
128696,-100,4,3,1,60,0,0
129146,-100,4,1,2,60,0,0
129896,-100,4,3,1,60,0,0
130346,-100,4,1,2,60,0,0
130496,-100,4,3,1,60,0,0
130946,-100,4,1,2,60,0,0
131096,-100,4,3,1,60,0,0
131546,-100,4,1,2,60,0,0
131696,-100,4,3,1,60,0,0
132146,-100,4,1,2,60,0,0
132296,-100,4,3,1,60,0,0
132746,-100,4,1,2,60,0,0
132896,-100,4,3,1,60,0,0
133346,-100,4,1,2,60,0,0
133496,-100,4,3,1,60,0,0
133946,-100,4,1,2,60,0,0
134396,-100,4,3,1,60,0,0
134696,-100,4,3,1,50,0,0
138296,-100,4,2,1,10,0,0
146846,-100,4,3,1,60,0,0
148646,-100,4,1,1,50,0,0
148796,-100,4,1,1,40,0,0
149246,-100,4,1,2,60,0,0
155396,-100,4,1,1,60,0,0
156746,-100,4,1,2,60,0,0
163646,-100,4,3,1,60,0,0
165446,-100,4,1,1,50,0,0
165596,-100,4,1,1,40,0,0
166046,-100,4,1,2,60,0,0
172721,-100,4,1,2,40,0,0
173246,-100,4,1,1,50,0,0

[Colours]
Combo1 : 105,216,155
Combo2 : 250,180,180
Combo3 : 130,200,250
Combo4 : 255,128,255
Combo5 : 128,128,255
Combo6 : 255,128,192

[HitObjects]
36,24,446,2,0,L|72:224,1,200,4|8,0:0|0:0,0:0:0:0:
204,292,1496,2,0,P|272:296|352:240,1,150,4|8,0:0|0:0,0:0:0:0:
376,160,2246,2,8,L|384:56,1,99.9999999999999
288,32,2846,6,0,P|196:88|92:56,1,200,4|8,0:0|0:0,0:0:0:0:
80,268,4046,2,0,P|160:264|252:344,1,200,0|8,0:0|0:0,0:0:0:0:
448,332,5246,6,0,L|408:128,1,200,4|8,0:0|0:0,0:0:0:0:
320,16,6296,2,0,P|264:72|180:72,1,150,4|8,0:0|0:0,0:0:0:0:
96,76,7046,2,8,L|88:176,1,99.9999999999999,8|2,0:0|0:0,0:0:0:0:
112,272,7646,6,0,P|192:320|288:276,1,200,4|8,0:0|0:0,0:0:0:0:
296,132,8696,2,0,P|348:96|444:120,1,150,4|2,0:0|0:0,0:0:0:0:
472,200,9446,2,8,L|480:308,1,99.9999999999999,8|2,0:0|0:0,0:0:0:0:
388,340,10046,6,0,P|284:304|204:352,1,200,4|8,0:0|0:1,0:0:0:0:
112,356,10946,2,0,P|60:296|76:216,2,150,0|8|8,0:0|0:1|0:1,0:0:0:0:
208,332,12146,1,0,0:0:0:0:
264,252,12446,6,0,L|280:44,1,200,0|8,0:0|0:1,0:0:0:0:
428,28,13496,2,0,P|448:84|432:128,2,99.9999999999999,8|8|0,0:0|0:0|0:0,0:0:0:0:
280,40,14546,1,8,0:1:0:0:
184,72,14846,6,0,P|144:160|208:252,1,200,0|8,0:0|0:1,0:0:0:0:
284,284,15746,2,0,L|448:268,2,150,0|8|8,0:0|0:1|0:1,0:0:0:0:
184,300,16946,1,0,0:0:0:0:
84,312,17246,6,0,P|28:228|72:124,1,200,0|8,0:0|0:1,0:0:0:0:
100,116,17996,1,0,0:0:0:0:
192,80,18296,2,8,L|304:88,1,99.9999999999999
340,96,18746,2,0,P|408:144|416:216,1,150,8|0,0:1|0:0,0:0:0:0:
400,252,19346,1,8,0:1:0:0:
320,312,19646,6,0,L|204:300,1,99.9999999999999,4|8,0:0|0:0,0:0:0:0:
196,204,20246,2,0,L|295:214,1,99.9999999999999
344,220,20696,2,0,P|380:168|364:72,1,150,8|8,0:0|0:0,0:0:0:0:
332,56,21296,2,0,L|176:84,1,150,0|8,0:0|0:0,0:0:0:0:
92,124,22046,6,0,P|64:172|72:220,1,99.9999999999999,0|8,0:0|0:0,0:0:0:0:
140,284,22646,2,0,P|168:236|160:188,1,99.9999999999999
204,164,23096,2,8,P|276:200|356:184,1,150
380,160,23696,2,0,L|404:328,1,150,0|8,0:0|0:0,0:0:0:0:
312,352,24446,6,0,L|212:344,1,99.9999999999999,0|8,0:0|0:0,0:0:0:0:
116,320,25046,2,0,P|96:268|112:224,1,99.9999999999999
152,200,25496,2,8,P|236:212|292:160,1,150
288,124,26096,2,0,P|348:83|420:98,1,150,0|8,0:0|0:0,0:0:0:0:
484,176,26846,6,0,L|496:288,1,99.9999999999999,0|8,0:0|0:0,0:0:0:0:
468,320,27296,2,0,P|424:348|364:344,1,99.9999999999999
288,296,27896,2,8,P|212:268|144:304,1,150
104,304,28496,2,0,P|140:236|112:160,1,150,0|8,0:0|0:0,0:0:0:0:
256,192,29246,12,0,31046,0:0:0:0:
404,212,31646,6,0,L|508:224,2,99.9999999999999,6|12|6,0:0|0:0|0:0,0:0:0:0:
304,208,32546,1,12,0:0:0:0:
224,268,32846,2,4,P|180:296|124:288,1,99.9999999999999,6|12,0:0|0:0,0:0:0:0:
64,220,33446,2,4,P|108:192|164:200,1,99.9999999999999,6|12,0:0|0:0,0:0:0:0:
224,268,34046,6,4,L|260:364,2,99.9999999999999,6|12|6,0:0|0:0|0:0,0:0:0:0:
244,172,34946,1,12,0:0:0:0:
300,88,35246,2,4,P|344:64|408:80,1,99.9999999999999,6|12,0:0|0:0,0:0:0:0:
472,132,35846,2,4,L|468:236,1,99.9999999999999,6|12,0:0|0:0,0:0:0:0:
404,308,36446,5,6,0:0:0:0:
308,332,36746,1,12,0:0:0:0:
208,312,37046,2,4,P|164:296|100:308,1,99.9999999999999,6|12,0:0|0:0,0:0:0:0:
28,252,37646,1,6,0:0:0:0:
104,188,37946,1,12,0:0:0:0:
144,96,38246,2,4,P|200:104|252:80,1,99.9999999999999,6|12,0:0|0:0,0:0:0:0:
320,28,38846,6,0,P|408:24|464:72,2,150,8|8|8,0:0|0:0|0:0,0:0:0:0:
252,216,40346,2,0,L|264:328,2,99.9999999999999,8|8|8,0:0|0:0|0:0,0:0:0:0:
188,140,41246,6,4,P|144:120|84:128,2,99.9999999999999,6|12|6,0:0|0:0|0:0,0:0:0:0:
268,80,42146,1,12,0:0:0:0:
352,132,42446,2,4,L|452:148,1,99.9999999999999,6|12,0:0|0:0,0:0:0:0:
464,248,43046,2,4,L|365:232,1,99.9999999999999,6|12,0:0|0:0,0:0:0:0:
280,284,43646,6,4,P|280:336|312:380,2,99.9999999999999,6|12|6,0:0|0:0|0:0,0:0:0:0:
256,188,44546,1,12,0:0:0:0:
204,104,44846,2,4,P|176:72|112:56,1,99.9999999999999,6|12,0:0|0:0,0:0:0:0:
48,124,45446,2,4,L|28:224,1,99.9999999999999,6|12,0:0|0:0,0:0:0:0:
80,308,46046,5,6,0:0:0:0:
172,344,46346,1,12,0:0:0:0:
272,340,46646,2,4,P|320:316|344:272,1,99.9999999999999,6|12,0:0|0:0,0:0:0:0:
356,228,47096,2,0,P|348:152|292:100,1,150,2|8,0:0|0:0,0:0:0:0:
204,68,47846,2,0,L|92:52,1,99.9999999999999,8|8,0:0|0:0,0:0:0:0:
4,44,48446,5,4,0:1:0:0:
0,304,58046,6,0,P|100:328|184:272,1,200,0|8,0:0|0:1,0:0:0:0:
216,188,58946,2,0,L|200:28,2,150,0|8|8,0:0|0:1|0:1,0:0:0:0:
300,244,60146,1,0,0:0:0:0:
400,248,60446,6,0,P|460:176|432:80,1,200,0|8,0:0|0:1,0:0:0:0:
288,36,61496,2,0,L|184:28,2,99.9999999999999,8|8|0,0:0|0:0|0:0,0:0:0:0:
344,176,62546,1,8,0:1:0:0:
300,268,62846,6,0,P|232:312|112:276,1,200,0|8,0:0|0:1,0:0:0:0:
108,188,63746,2,0,P|104:120|44:72,2,150,0|8|8,0:0|0:1|0:1,0:0:0:0:
80,284,64946,1,0,0:0:0:0:
148,356,65246,6,0,P|228:304|328:344,1,200,0|8,0:0|0:1,0:0:0:0:
468,312,66296,2,0,L|440:156,1,150,0|8,0:0|0:1,0:0:0:0:
428,116,66896,2,0,P|360:136|284:112,1,150,0|8,0:0|0:1,0:0:0:0:
232,32,67646,6,0,L|120:56,1,99.9999999999999,4|8,0:0|0:0,0:0:0:0:
92,144,68246,2,0,P|72:192|100:244,1,99.9999999999999
128,264,68696,2,8,P|220:284|280:248,1,150
288,216,69296,2,0,L|440:240,1,150,0|8,0:0|0:0,0:0:0:0:
492,156,70046,6,0,P|496:104|464:64,1,99.9999999999999,0|8,0:0|0:0,0:0:0:0:
372,44,70646,2,0,L|260:52,1,99.9999999999999
224,60,71096,2,8,P|168:120|196:192,1,150
232,196,71696,2,0,P|308:208|344:288,1,150,0|8,0:0|0:0,0:0:0:0:
308,360,72446,6,0,P|260:372|204:352,1,99.9999999999999,0|8,0:0|0:0,0:0:0:0:
156,276,73046,2,0,L|44:288,1,99.9999999999999
8,268,73496,2,8,P|60:224|52:140,1,150
24,112,74096,2,0,L|176:128,1,150,0|8,0:0|0:0,0:0:0:0:
272,148,74846,6,0,P|324:144|368:112,1,99.9999999999999,0|8,0:0|0:0,0:0:0:0:
396,80,75296,2,0,L|428:184,1,99.9999999999999
440,276,75896,2,8,P|360:272|304:332,1,150
284,360,76496,2,0,L|112:348,1,150,0|8,0:0|0:0,0:0:0:0:
36,328,77246,6,0,P|20:244|72:200,1,150,4|0,0:0|0:0,0:0:0:0:
112,200,77846,2,8,P|164:196|204:164,1,99.9999999999999,8|8,0:1|0:1,0:0:0:0:
400,312,79646,6,4,P|348:308|308:276,2,99.9999999999999,6|12|6,0:0|0:0|0:0,0:0:0:0:
476,248,80546,1,12,0:0:0:0:
492,148,80846,2,4,L|468:40,1,99.9999999999999,6|12,0:0|0:0,0:0:0:0:
372,32,81446,2,4,L|393:129,1,99.9999999999999,6|12,0:0|0:0,0:0:0:0:
420,228,82046,6,4,L|441:325,2,99.9999999999999,6|12|6,0:0|0:0|0:0,0:0:0:0:
324,196,82946,1,12,0:0:0:0:
224,208,83246,2,4,P|176:232|152:292,1,99.9999999999999,6|12,0:0|0:0,0:0:0:0:
76,332,83846,2,4,L|44:228,1,99.9999999999999,6|12,0:0|0:0,0:0:0:0:
32,136,84446,5,6,0:0:0:0:
132,144,84746,1,12,0:0:0:0:
228,120,85046,2,4,P|268:88|288:40,1,99.9999999999999,6|12,0:0|0:0,0:0:0:0:
388,28,85646,1,6,0:0:0:0:
372,128,85946,1,12,0:0:0:0:
392,228,86246,2,4,P|416:276|452:304,1,99.9999999999999,6|12,0:0|0:0,0:0:0:0:
492,212,86846,6,8,L|496:56,2,150
320,316,88346,2,8,P|264:332|204:320,2,99.9999999999999
368,228,89246,6,4,P|424:212|484:224,2,99.9999999999999,6|12|6,0:0|0:0|0:0,0:0:0:0:
284,176,90146,1,12,0:0:0:0:
220,100,90446,2,4,L|100:88,1,99.9999999999999,6|12,0:0|0:0,0:0:0:0:
32,140,91046,2,4,P|24:196|56:240,1,99.9999999999999,6|12,0:0|0:0,0:0:0:0:
132,280,91646,6,4,L|112:392,2,99.9999999999999,6|12|6,0:0|0:0|0:0,0:0:0:0:
224,240,92546,1,12,0:0:0:0:
324,240,92846,2,4,P|372:252|416:304,1,99.9999999999999,6|12,0:0|0:0,0:0:0:0:
492,236,93446,2,4,L|468:136,1,99.9999999999999,6|12,0:0|0:0,0:0:0:0:
420,52,94046,5,6,0:0:0:0:
340,112,94346,1,12,0:0:0:0:
244,144,94646,2,4,P|196:148|140:128,1,99.9999999999999,6|12,0:0|0:0,0:0:0:0:
104,108,95096,2,0,L|136:272,1,150,2|8,0:0|0:0,0:0:0:0:
220,304,95846,2,8,P|272:312|324:292,1,99.9999999999999
404,248,96446,5,4,0:0:0:0:
232,88,106046,6,0,L|352:104,1,99.9999999999999,6|12,0:0|0:0,0:0:0:0:
420,148,106646,1,6,0:0:0:0:
452,244,106946,2,0,P|440:288|384:320,1,99.9999999999999,12|6,0:0|0:0,0:0:0:0:
304,280,107546,1,12,0:0:0:0:
208,252,107846,2,4,P|160:248|112:288,1,99.9999999999999,6|12,0:0|0:0,0:0:0:0:
32,224,108446,6,4,L|48:120,1,99.9999999999999,6|12,0:0|0:0,0:0:0:0:
84,32,109046,1,6,0:0:0:0:
164,92,109346,2,4,P|208:96|264:72,1,99.9999999999999,12|6,0:0|0:0,0:0:0:0:
344,24,109946,1,12,0:0:0:0:
424,84,110246,2,4,L|440:184,1,99.9999999999999,6|12,0:0|0:0,0:0:0:0:
432,284,110846,6,4,P|392:308|328:308,1,99.9999999999999,6|12,0:0|0:0,0:0:0:0:
256,260,111446,2,4,L|152:284,1,99.9999999999999,6|12,0:0|0:0,0:0:0:0:
68,236,112046,1,6,0:0:0:0:
92,140,112346,1,12,0:0:0:0:
160,64,112646,2,4,L|257:41,1,99.9999999999999,6|12,0:0|0:0,0:0:0:0:
352,80,113246,5,12,0:0:0:0:
376,176,113546,1,12,0:0:0:0:
400,272,113846,1,12,0:0:0:0:
424,368,114146,1,12,0:0:0:0:
328,340,114446,2,0,B|240:296|152:364|152:364|80:280,1,300
52,236,115496,6,0,P|144:240|192:184,1,150,4|12,0:0|0:0,0:0:0:0:
184,104,116246,2,12,L|288:76,1,99.9999999999999
328,68,116696,2,0,P|408:88|440:148,1,150,4|12,0:0|0:0,0:0:0:0:
428,244,117446,1,12,0:0:0:0:
344,300,117746,1,12,0:0:0:0:
344,300,117896,6,0,L|192:292,1,150,4|12,0:0|0:0,0:0:0:0:
96,276,118646,2,12,P|56:240|48:184,1,99.9999999999999
56,148,119096,2,0,P|100:100|180:100,1,150,4|12,0:0|0:0,0:0:0:0:
260,164,119846,1,12,0:0:0:0:
308,252,120146,1,12,0:0:0:0:
308,252,120296,6,0,L|468:228,1,150,4|8,0:0|0:0,0:0:0:0:
508,144,121046,2,0,P|508:88|468:48,1,99.9999999999999,0|8,0:0|0:0,0:0:0:0:
384,28,121646,2,0,P|335:56|320:110,1,99.9999999999999,0|8,0:0|0:0,0:0:0:0:
345,193,122246,2,0,P|393:221|448:206,1,99.9999999999999,0|8,0:0|0:0,0:0:0:0:
492,296,122846,6,0,P|448:316|424:364,1,99.9999999999999,0|8,0:0|0:0,0:0:0:0:
324,364,123446,2,0,L|220:340,1,99.9999999999999,0|8,0:0|0:0,0:0:0:0:
132,312,124046,2,0,P|100:264|112:212,1,99.9999999999999,0|8,0:0|0:0,0:0:0:0:
168,144,124646,1,8,0:0:0:0:
264,120,124946,1,8,0:0:0:0:
264,120,125096,6,0,P|320:128|376:212,1,150,4|12,0:0|0:0,0:0:0:0:
312,276,125846,2,12,L|208:304,1,99.9999999999999
168,316,126296,2,0,P|112:308|56:224,1,150,4|12,0:0|0:0,0:0:0:0:
56,136,127046,1,12,0:0:0:0:
116,56,127346,1,12,0:0:0:0:
116,56,127496,6,0,L|276:44,1,150,4|12,0:0|0:0,0:0:0:0:
364,48,128246,2,12,P|412:72|424:128,1,99.9999999999999
408,160,128696,2,0,P|376:220|412:308,1,150,4|12,0:0|0:0,0:0:0:0:
492,328,129446,1,12,0:0:0:0:
464,232,129746,1,12,0:0:0:0:
464,232,129896,6,0,L|312:244,1,150,4|8,0:0|0:0,0:0:0:0:
216,244,130646,2,0,P|160:244|124:212,1,99.9999999999999,0|8,0:0|0:0,0:0:0:0:
116,116,131246,2,0,L|216:84,1,99.9999999999999,0|8,0:0|0:0,0:0:0:0:
300,128,131846,2,0,L|395:97,1,99.9999999999999,0|8,0:0|0:0,0:0:0:0:
444,84,132296,6,0,P|480:160|448:224,1,150,4|8,0:0|0:0,0:0:0:0:
380,280,133046,2,0,L|272:272,1,99.9999999999999,0|8,0:0|0:0,0:0:0:0:
180,264,133646,2,0,P|120:264|80:300,1,99.9999999999999,0|8,0:0|0:0,0:0:0:0:
28,208,134246,2,8,L|44:104,1,99.9999999999999,8|8,0:0|0:0,0:0:0:0:
56,60,134696,6,0,P|124:112|196:100,1,150,4|0,0:0|0:0,0:0:0:0:
276,60,135446,2,0,L|436:48,2,150,8|0|0,0:0|0:0|0:0,0:0:0:0:
196,120,136646,2,0,P|180:176|208:224,1,99.9999999999999,8|8,0:0|0:0,0:0:0:0:
240,232,137096,6,0,P|312:224|380:276,1,150,4|0,0:0|0:0,0:0:0:0:
288,320,137846,2,0,L|180:344,1,99.9999999999999,8|0,0:0|0:0,0:0:0:0:
256,192,138296,12,0,139646,0:0:0:0:
348,136,146846,6,8,P|432:132|472:76,2,150
192,264,148346,2,0,L|204:376,2,99.9999999999999,8|8|8,0:0|0:0|0:0,0:0:0:0:
132,184,149246,6,4,P|88:172|28:196,2,99.9999999999999,6|12|6,0:0|0:0|0:0,0:0:0:0:
220,132,150146,1,12,0:0:0:0:
304,188,150446,2,4,L|420:168,1,99.9999999999999,6|12,0:0|0:0,0:0:0:0:
448,260,151046,2,4,L|349:276,1,99.9999999999999,6|12,0:0|0:0,0:0:0:0:
248,268,151646,6,4,P|212:228|208:168,2,99.9999999999999,6|12|6,0:0|0:0|0:0,0:0:0:0:
212,360,152546,1,12,0:0:0:0:
112,356,152846,2,4,L|8:340,1,99.9999999999999,6|12,0:0|0:0,0:0:0:0:
0,240,153446,2,4,L|98:255,1,99.9999999999999,6|12,0:0|0:0,0:0:0:0:
192,216,154046,5,6,0:0:0:0:
280,172,154346,1,12,0:0:0:0:
332,88,154646,2,4,P|384:104|436:96,1,99.9999999999999,6|12,0:0|0:0,0:0:0:0:
472,72,155096,2,0,L|456:228,1,150,2|8,0:0|0:0,0:0:0:0:
416,312,155846,2,8,P|368:328|304:308,1,99.9999999999999
276,296,156296,1,8,0:0:0:0:
224,156,156746,6,0,L|240:56,1,99.9999999999999,12|6,0:0|0:0,0:0:0:0:
336,28,157346,1,12,0:0:0:0:
412,92,157646,2,0,P|428:144|412:204,1,99.9999999999999,6|12,0:0|0:0,0:0:0:0:
364,272,158246,2,0,P|312:288|252:272,1,99.9999999999999,6|12,0:0|0:0,0:0:0:0:
176,240,158846,6,0,L|68:256,2,99.9999999999999,6|12|6,0:0|0:0|0:0,0:0:0:0:
236,160,159746,1,12,0:0:0:0:
228,60,160046,2,0,P|172:44|112:64,1,99.9999999999999,6|12,0:0|0:0,0:0:0:0:
60,120,160646,2,0,P|44:176|64:236,1,99.9999999999999,6|12,0:0|0:0,0:0:0:0:
132,276,161246,5,6,0:0:0:0:
228,244,161546,1,12,0:0:0:0:
328,248,161846,2,0,P|384:256|432:300,1,99.9999999999999,6|12,0:0|0:0,0:0:0:0:
500,224,162446,1,6,0:0:0:0:
436,144,162746,1,12,0:0:0:0:
400,52,163046,2,4,P|352:72|292:76,1,99.9999999999999,6|12,0:0|0:0,0:0:0:0:
204,60,163646,6,8,P|120:36|44:68,2,150
232,260,165146,2,8,L|212:368,2,99.9999999999999
308,196,166046,6,4,P|356:200|412:176,2,99.9999999999999,6|12|6,0:0|0:0|0:0,0:0:0:0:
240,120,166946,1,12,0:0:0:0:
164,56,167246,2,4,L|60:72,1,99.9999999999999,6|12,0:0|0:0,0:0:0:0:
48,172,167846,2,4,L|146:156,1,99.9999999999999,6|12,0:0|0:0,0:0:0:0:
240,120,168446,6,4,L|338:104,2,99.9999999999999,6|12|6,0:0|0:0|0:0,0:0:0:0:
224,220,169346,1,12,0:0:0:0:
252,316,169646,2,4,P|304:336|364:316,1,99.9999999999999,6|12,0:0|0:0,0:0:0:0:
432,276,170246,2,4,L|444:176,1,99.9999999999999,6|12,0:0|0:0,0:0:0:0:
440,76,170846,5,8,0:0:0:0:
350,119,171146,1,8,0:0:0:0:
251,134,171446,1,8,0:0:0:0:
153,120,171746,1,8,0:0:0:0:
153,120,171896,2,0,L|176:280,1,150,0|8,0:0|0:0,0:0:0:0:
272,292,172646,1,8,0:0:0:0:
372,284,172946,1,8,0:0:0:0:
468,252,173246,5,4,0:0:0:0:
