osu file format v12

[General]
AudioFilename: genjitsugame.mp3
AudioLeadIn: 1500
PreviewTime: 31046
Countdown: 0
SampleSet: None
StackLeniency: 0.7
Mode: 0
LetterboxInBreaks: 1
WidescreenStoryboard: 0

[Editor]
DistanceSpacing: 1
BeatDivisor: 4
GridSize: 4
TimelineZoom: 1.5

[Metadata]
Title:Genjitsu Game
TitleUnicode:現実ゲーム
Artist:yuikonnu
ArtistUnicode:ゆいこんぬ
Creator:Amamiya Yuko
Version:Extra
Source:
Tags:reality N E K O c84 captin1 nijiiro chocolatier
BeatmapID:291553
BeatmapSetID:112210

[Difficulty]
HPDrainRate:7
CircleSize:4
OverallDifficulty:8
ApproachRate:9
SliderMultiplier:2
SliderTickRate:1

[Events]
//Background and Video events
0,0,"5.jpg",0,0
//Break Periods
2,48646,57446
//Storyboard Layer 0 (Background)
//Storyboard Layer 1 (Fail)
//Storyboard Layer 2 (Pass)
//Storyboard Layer 3 (Foreground)
//Storyboard Sound Samples
//Background Colour Transformations
3,100,163,162,255

[TimingPoints]
446,300,4,1,1,40,1,0
446,-133.333333333333,4,1,1,40,0,0
3446,-200,4,1,1,30,0,0
3521,-200,4,2,0,10,0,0
3596,-200,4,1,1,40,0,0
3671,-200,4,2,0,10,0,0
3746,-200,4,1,1,40,0,0
3821,-200,4,2,0,10,0,0
3896,-133.333333333333,4,1,1,40,0,0
10046,-133.333333333333,4,3,1,50,0,0
13496,-133.333333333333,4,3,1,30,0,0
13946,-133.333333333333,4,3,1,50,0,0
18296,-133.333333333333,4,3,1,30,0,0
18746,-133.333333333333,4,3,1,50,0,0
19646,-133.333333333333,4,3,1,60,0,0
20396,-200,4,3,1,60,0,0
20696,-133.333333333333,4,3,1,60,0,0
22796,-200,4,3,1,60,0,0
23096,-133.333333333333,4,3,1,60,0,0
25196,-200,4,3,1,60,0,0
25496,-133.333333333333,4,3,1,60,0,0
27296,-200,4,3,1,60,0,0
27896,-133.333333333333,4,3,1,60,0,0
29321,-133.333333333333,4,2,0,30,0,0
30296,-133.333333333333,4,3,1,50,0,0
30521,-133.333333333333,4,2,0,30,0,0
31046,-200,4,2,0,30,0,0
31646,-100,4,1,2,60,0,0
38846,-100,4,3,1,60,0,0
38921,-100,4,3,1,45,0,0
39296,-100,4,3,1,60,0,0
39371,-100,4,3,1,50,0,0
39746,-100,4,3,1,60,0,0
39821,-100,4,2,2,60,0,0
40196,-100,4,3,1,60,0,0
40646,-100,4,1,1,50,0,0
40796,-100,4,1,1,40,0,0
41246,-100,4,1,2,60,0,0
47396,-100,4,1,1,60,0,0
47546,-100,4,1,1,40,0,0
47846,-100,4,1,1,60,0,0
47996,-100,4,1,1,40,0,0
48446,-100,4,2,1,60,0,0
58046,-200,4,3,1,50,0,0
61496,-200,4,3,1,30,0,0
61946,-200,4,3,1,50,0,0
66296,-133.333333333333,4,3,1,60,0,0
68396,-200,4,3,1,60,0,0
68696,-133.333333333333,4,3,1,60,0,0
70796,-200,4,3,1,60,0,0
71096,-133.333333333333,4,3,1,60,0,0
73196,-200,4,3,1,60,0,0
73496,-133.333333333333,4,3,1,60,0,0
75296,-200,4,3,1,60,0,0
75896,-133.333333333333,4,3,1,60,0,0
77246,-200,4,3,1,50,0,0
77696,-133.333333333333,4,3,1,60,0,0
79046,-200,4,2,0,30,0,0
79646,-100,4,1,2,60,0,0
86846,-100,4,3,1,60,0,0
86921,-100,4,3,1,45,0,0
87296,-100,4,3,1,60,0,0
87371,-100,4,3,1,50,0,0
87746,-100,4,3,1,60,0,0
87821,-100,4,2,2,60,0,0
88196,-100,4,3,1,60,0,0
88646,-100,4,1,1,50,0,0
88796,-100,4,1,1,40,0,0
89246,-100,4,1,2,60,0,0
95396,-100,4,1,1,60,0,0
95546,-100,4,1,1,40,0,0
95846,-100,4,1,1,60,0,0
95996,-100,4,1,1,40,0,0
96446,-133.333333333333,4,3,1,60,0,0
97196,-133.333333333333,4,3,1,40,0,0
97346,-133.333333333333,4,3,1,60,0,0
97946,-133.333333333333,4,3,1,40,0,0
98096,-133.333333333333,4,3,1,60,0,0
99596,-133.333333333333,4,3,1,40,0,0
99746,-133.333333333333,4,3,1,60,0,0
101996,-133.333333333333,4,3,1,40,0,0
102146,-133.333333333333,4,3,1,60,0,0
102596,-133.333333333333,4,3,1,40,0,0
102746,-133.333333333333,4,3,1,60,0,0
104396,-133.333333333333,4,3,1,40,0,0
104546,-133.333333333333,4,3,1,60,0,0
106046,-100,4,1,2,60,0,0
113321,-100,4,3,1,60,0,0
113546,-100,4,1,2,60,0,0
113621,-100,4,3,1,60,0,0
113846,-100,4,1,2,60,0,0
113921,-100,4,3,1,60,0,0
114146,-100,4,1,2,60,0,0
114221,-100,4,3,1,60,0,0
114446,-100,4,1,2,70,0,0
114521,-100,4,3,1,50,0,0
114746,-100,4,3,1,55,0,0
115046,-100,4,3,1,60,0,0
115496,-100,4,3,1,95,0,0
115946,-100,4,1,2,60,0,0
116096,-100,4,3,1,60,0,0
116246,-100,4,1,2,60,0,0
116396,-100,4,3,1,60,0,0
116546,-100,4,1,2,60,0,0
116696,-100,4,3,1,60,0,0
117146,-100,4,1,2,60,0,0
117296,-100,4,3,1,60,0,0
117446,-100,4,1,2,60,0,0
117596,-100,4,3,1,60,0,0
117746,-100,4,1,2,60,0,0
117896,-100,4,3,1,70,0,0
118346,-100,4,1,2,60,0,0
118496,-100,4,3,1,60,0,0
118646,-100,4,1,2,60,0,0
118796,-100,4,3,1,60,0,0
118946,-100,4,1,2,60,0,0
119096,-100,4,3,1,60,0,0
119546,-100,4,1,2,60,0,0
119696,-100,4,3,1,60,0,0
119846,-100,4,1,2,60,0,0
119996,-100,4,3,1,60,0,0
120146,-100,4,1,2,60,0,0
120296,-100,4,3,1,80,0,0
120746,-100,4,1,2,60,0,0
120896,-100,4,3,1,60,0,0
121346,-100,4,1,2,60,0,0
121496,-100,4,3,1,60,0,0
121946,-100,4,1,2,60,0,0
122096,-100,4,3,1,60,0,0
122546,-100,4,1,2,60,0,0
122696,-100,4,3,1,70,0,0
123146,-100,4,1,2,60,0,0
123296,-100,4,3,1,60,0,0
123746,-100,4,1,2,60,0,0
123896,-100,4,3,1,60,0,0
124346,-100,4,1,2,60,0,0
124496,-100,4,3,1,60,0,0
124646,-100,4,1,2,60,0,0
124796,-100,4,3,1,60,0,0
124946,-100,4,1,2,60,0,0
125096,-100,4,3,1,90,0,0
125546,-100,4,1,2,60,0,0
125696,-100,4,3,1,60,0,0
125846,-100,4,1,2,60,0,0
125996,-100,4,3,1,60,0,0
126146,-100,4,1,2,60,0,0
126296,-100,4,3,1,60,0,0
126746,-100,4,1,2,60,0,0
126896,-100,4,3,1,60,0,0
127046,-100,4,1,2,60,0,0
127196,-100,4,3,1,60,0,0
127346,-100,4,1,2,60,0,0
127496,-100,4,3,1,70,0,0
127946,-100,4,1,2,60,0,0
128096,-100,4,3,1,60,0,0
128246,-100,4,1,2,60,0,0
128396,-100,4,3,1,60,0,0
128546,-100,4,1,2,60,0,0
128696,-100,4,3,1,60,0,0
129146,-100,4,1,2,60,0,0
129296,-100,4,3,1,60,0,0
129446,-100,4,1,2,60,0,0
129596,-100,4,3,1,60,0,0
129746,-100,4,1,2,60,0,0
129896,-100,4,3,1,80,0,0
130346,-100,4,1,2,60,0,0
130496,-100,4,3,1,60,0,0
130946,-100,4,1,2,60,0,0
131096,-100,4,3,1,60,0,0
131546,-100,4,1,2,60,0,0
131696,-100,4,3,1,60,0,0
132146,-100,4,1,2,60,0,0
132296,-100,4,3,1,70,0,0
132746,-100,4,1,2,60,0,0
132896,-100,4,3,1,60,0,0
133346,-100,4,1,2,60,0,0
133496,-100,4,3,1,60,0,0
133796,-100,4,1,2,40,0,0
133946,-100,4,1,2,60,0,0
134096,-100,4,3,1,60,0,0
134246,-100,4,1,2,60,0,0
134396,-100,4,3,1,60,0,0
134696,-133.333333333333,4,3,1,50,0,0
138296,-200,4,2,1,10,0,0
139646,-200,4,2,1,40,0,0
140096,-200,4,2,1,30,0,0
140696,-200,4,2,1,20,0,0
141296,-200,4,2,1,30,0,0
141446,-200,4,2,1,35,0,0
142046,-200,4,2,1,40,0,0
142496,-200,4,2,1,20,0,0
143096,-200,4,2,1,40,0,0
143396,-200,4,2,1,20,0,0
143546,-200,4,2,1,25,0,0
143696,-200,4,2,1,30,0,0
143846,-200,4,2,1,35,0,0
144446,-200,4,2,1,45,0,0
144896,-200,4,2,1,25,0,0
145496,-200,4,2,1,35,0,0
146096,-200,4,2,1,10,0,0
146846,-100,4,3,1,60,0,0
146921,-100,4,3,1,40,0,0
147296,-100,4,3,1,60,0,0
147371,-100,4,3,1,50,0,0
147746,-100,4,3,1,60,0,0
148646,-100,4,1,1,50,0,0
148796,-100,4,1,1,40,0,0
149246,-100,4,1,2,60,0,0
155396,-100,4,1,1,60,0,0
156746,-100,4,1,2,60,0,0
163646,-100,4,3,1,60,0,0
163721,-100,4,3,1,45,0,0
164096,-100,4,3,1,60,0,0
164171,-100,4,3,1,50,0,0
164546,-100,4,3,1,60,0,0
164621,-100,4,2,2,60,0,0
164996,-100,4,3,1,60,0,0
165446,-100,4,1,1,50,0,0
165596,-100,4,1,1,40,0,0
166046,-100,4,1,2,60,0,0
170921,-100,4,1,2,40,0,0
171146,-100,4,1,2,60,0,0
171221,-100,4,1,2,40,0,0
171446,-100,4,1,2,60,0,0
171521,-100,4,1,2,40,0,0
171746,-100,4,1,2,60,0,0
172196,-100,4,1,2,40,0,0
172346,-100,4,1,2,60,0,0
172421,-100,4,1,2,40,0,0
172646,-100,4,1,2,60,0,0
172721,-100,4,1,2,40,0,0
173246,-100,4,1,1,50,0,0
176358,-100,4,2,0,10,0,0
176396,-100,4,1,1,50,0,0
176508,-100,4,2,0,10,0,0
176546,-100,4,1,1,50,0,0

[Colours]
Combo1 : 105,216,155
Combo2 : 250,180,180
Combo3 : 130,200,250
Combo4 : 255,128,255
Combo5 : 128,128,255
Combo6 : 255,128,192

[HitObjects]
36,96,446,5,6,0:0:0:0:
36,96,596,2,0,L|188:88,1,150.000005722046,8|2,0:0|0:0,0:0:0:0:
312,136,1046,1,8,0:0:0:0:
218,234,1196,2,0,L|132:232,1,75.0000028610231,8|2,0:0|0:0,0:0:0:0:
185,88,1496,6,0,L|220:240,1,150.000005722046,6|8,0:0|0:0,0:0:0:0:
224,256,1871,1,0,0:0:0:0:
232,276,1946,1,8,0:0:0:0:
244,296,2021,1,0,0:0:0:0:
260,312,2096,1,2,0:0:0:0:
280,324,2171,1,0,0:0:0:0:
316,332,2246,6,0,L|360:344,2,37.5000014305115,8|2|2,0:0|0:0|0:0,0:0:0:0:
312,232,2546,2,0,L|308:152,1,75.0000028610231,8|8,0:0|0:0,0:0:0:0:
368,32,2846,5,6,0:0:0:0:
392,132,2996,1,8,0:0:0:0:
348,16,3146,2,0,L|440:52,1,75.0000028610231,0|2,0:0|0:0,0:0:0:0:
308,108,3446,6,0,L|264:88,1,25,8|0,0:0|0:0,0:0:0:0:
212,144,3596,6,0,L|168:124,1,25,8|0,0:0|0:0,0:0:0:0:
116,180,3746,6,0,L|72:160,1,25,8|0,0:0|0:0,0:0:0:0:
20,216,3896,5,6,0:0:0:0:
12,236,3971,1,0,0:0:0:0:
4,256,4046,2,0,L|92:288,1,75.0000028610231,2|8,0:0|0:0,0:0:0:0:
204,324,4346,5,2,0:0:0:0:
336,356,4496,1,2,0:0:0:0:
260,244,4646,1,8,0:0:0:0:
172,348,4796,1,2,0:0:0:0:
304,380,4946,2,0,L|392:360,1,75.0000028610231,8|0,0:0|0:0,0:0:0:0:
476,272,5246,5,6,0:0:0:0:
476,272,5396,2,0,P|488:200|436:128,1,150.000005722046,8|2,0:0|0:0,0:0:0:0:
299,127,5846,1,8,0:0:0:0:
260,244,5996,2,0,L|352:236,1,75.0000028610231,8|2,0:0|0:0,0:0:0:0:
449,136,6296,6,0,L|300:128,1,150.000005722046,6|8,0:0|0:0,0:0:0:0:
277,126,6671,1,2,0:0:0:0:
254,124,6746,2,0,L|187:119,3,37.5000014305115,0|0|2|0,0:0|0:0|0:0|0:0,0:0:0:0:
140,116,7046,6,0,L|60:120,1,75.0000028610231,8|2,0:0|0:0,0:0:0:0:
179,191,7346,2,0,L|196:252,1,37.5000014305115,2|2,0:0|0:0,0:0:0:0:
296,260,7496,2,0,L|312:320,1,37.5000014305115,8|2,0:0|0:0,0:0:0:0:
412,328,7646,5,6,0:0:0:0:
412,328,7796,2,0,P|472:296|484:200,1,150.000005722046,8|2,0:0|0:0,0:0:0:0:
424,112,8246,2,0,L|440:24,1,75.0000028610231,8|8,0:0|0:0,0:0:0:0:
345,185,8546,1,2,0:0:0:0:
490,220,8696,6,0,L|340:184,1,150.000005722046,6|8,0:0|0:0,0:0:0:0:
216,152,9146,2,0,L|120:168,1,75.0000028610231,2|2,0:0|0:0,0:0:0:0:
120,168,9371,1,2,0:0:0:0:
96,172,9446,5,8,0:0:0:0:
208,248,9596,1,8,0:0:0:0:
320,132,9746,1,2,0:0:0:0:
432,288,9896,1,2,0:0:0:0:
496,116,10046,6,0,L|422:113,1,75.0000028610231,4|0,0:0|0:0,0:0:0:0:
292,220,10496,1,0,0:0:0:0:
292,220,10646,2,0,L|366:223,1,75.0000028610231,8|0,0:1|0:0,0:0:0:0:
432,288,10946,1,0,0:0:0:0:
500,228,11096,2,0,L|503:154,1,75.0000028610231,0|0,0:0|2:0,0:0:0:0:
423,46,11396,6,0,L|420:120,1,75.0000028610231,8|0,0:1|0:0,0:0:0:0:
332,136,11696,1,0,0:0:0:0:
244,140,11846,2,0,P|200:144|140:120,1,75.0000028610231,8|0,0:1|0:0,0:0:0:0:
92,92,12146,1,0,0:0:0:0:
64,176,12296,1,0,0:0:0:0:
76,196,12371,1,0,0:0:0:0:
88,216,12446,6,0,L|72:300,1,75.0000028610231,0|8,0:0|0:1,0:0:0:0:
240,364,12896,1,0,0:0:0:0:
316,320,13046,2,0,P|352:312|392:320,1,75.0000028610231,8|0,0:1|0:0,0:0:0:0:
472,356,13346,1,0,0:0:0:0:
496,268,13496,1,10,0:0:0:0:
424,104,13796,1,10,0:0:0:0:
496,268,13946,5,0,0:0:0:0:
424,212,14096,2,0,L|340:208,1,75.0000028610231,0|0,0:0|0:0,0:0:0:0:
260,208,14396,1,0,0:0:0:0:
172,220,14546,2,0,L|84:212,1,75.0000028610231,8|0,0:1|0:0,0:0:0:0:
36,148,14846,6,0,P|24:108|36:68,1,75.0000028610231,0|0,0:0|0:1,0:0:0:0:
204,24,15296,1,0,0:0:0:0:
292,28,15446,2,0,L|372:44,1,75.0000028610231,8|0,0:1|0:0,0:0:0:0:
456,64,15746,1,0,0:0:0:0:
472,152,15896,2,0,P|484:188|472:240,1,75.0000028610231,0|0,0:0|2:0,0:0:0:0:
308,320,16196,6,0,L|212:304,1,75.0000028610231,8|0,0:1|0:0,0:0:0:0:
144,292,16496,1,0,0:0:0:0:
56,276,16646,2,0,P|40:236|48:188,1,75.0000028610231,8|0,0:1|0:0,0:0:0:0:
96,132,16946,1,0,0:0:0:0:
180,96,17096,1,0,0:0:0:0:
204,100,17171,1,0,0:0:0:0:
228,104,17246,6,0,L|260:32,1,75.0000028610231,0|8,0:0|0:1,0:0:0:0:
364,208,17696,1,0,0:0:0:0:
320,288,17846,1,8,0:1:0:0:
232,308,17996,2,0,P|192:312|152:296,1,75.0000028610231
96,236,18296,1,8,0:0:0:0:
84,56,18596,1,8,0:0:0:0:
256,112,18746,5,8,0:1:0:0:
344,120,18896,2,0,L|416:96,1,75.0000028610231,0|0,0:0|2:0,0:0:0:0:
504,80,19196,1,4,0:0:0:0:
468,164,19346,2,0,P|460:184|460:208,1,37.5000014305115,8|8,0:1|0:1,0:0:0:0:
448,276,19496,2,0,P|447:297|455:320,1,37.5000014305115,8|8,0:1|0:1,0:0:0:0:
504,372,19646,5,4,0:0:0:0:
368,308,19796,1,0,0:0:0:0:
452,168,19946,5,8,0:0:0:0:
360,288,20096,1,0,0:0:0:0:
272,140,20246,5,0,0:0:0:0:
352,268,20396,2,0,L|372:200,1,50
344,248,20696,6,0,L|188:236,1,150.000005722046,8|0,0:0|0:0,0:0:0:0:
104,136,21146,1,8,0:0:0:0:
196,36,21296,2,0,L|292:44,1,75.0000028610231
448,112,21596,1,0,0:0:0:0:
316,140,21746,1,8,0:0:0:0:
184,172,21896,1,0,0:0:0:0:
200,188,21971,1,0,0:0:0:0:
216,204,22046,5,0,0:0:0:0:
68,232,22196,1,0,0:0:0:0:
148,92,22346,5,8,0:0:0:0:
60,212,22496,1,0,0:0:0:0:
20,40,22646,5,0,0:0:0:0:
52,192,22796,2,0,L|56:128,1,50
44,172,23096,6,0,B|56:248|56:248|136:296,1,150.000005722046,8|0,0:0|0:0,0:0:0:0:
252,264,23546,1,8,0:0:0:0:
360,184,23696,2,0,L|284:144,1,75.0000028610231
236,28,23996,1,0,0:0:0:0:
368,56,24146,2,0,P|408:60|460:48,1,75.0000028610231,8|0,0:0|0:0,0:0:0:0:
488,200,24446,5,0,0:0:0:0:
348,204,24596,1,0,0:0:0:0:
384,364,24746,5,8,0:0:0:0:
340,224,24896,1,0,0:0:0:0:
216,344,25046,5,0,0:0:0:0:
364,356,25196,2,0,L|420:344,1,50
236,352,25496,6,0,B|140:332|140:332|68:360,1,150.000005722046,8|0,0:0|0:0,0:0:0:0:
8,244,25946,1,8,0:0:0:0:
116,160,26096,2,0,L|188:129,1,75.0000028610231
284,40,26396,1,0,0:0:0:0:
316,172,26546,1,8,0:0:0:0:
348,304,26696,1,0,0:0:0:0:
328,296,26771,1,0,0:0:0:0:
308,288,26846,5,0,0:0:0:0:
452,252,26996,1,0,0:0:0:0:
432,92,27146,5,8,0:0:0:0:
468,236,27296,2,0,L|476:180,1,50
348,76,27596,6,0,L|360:136,1,50
452,104,27896,6,0,L|268:100,1,150.000005722046,8|0,0:0|0:0,0:0:0:0:
168,120,28346,1,8,0:0:0:0:
32,108,28496,2,0,L|64:184,1,75.0000028610231
196,204,28796,1,0,0:0:0:0:
328,184,28946,2,0,L|360:260,1,75.0000028610231,8|0,0:0|0:0,0:0:0:0:
448,308,29246,5,4,0:0:0:0:
448,308,29396,1,0,0:0:0:0:
500,235,29696,1,0,0:0:0:0:
448,162,29996,1,0,0:0:0:0:
362,190,30296,1,0,0:0:0:0:
360,280,30596,1,0,0:0:0:0:
448,308,30896,1,0,0:0:0:0:
362,190,31046,6,0,B|304:184|304:184|272:220|208:212,1,150,0|0,0:0|2:0,0:0:0:0:
220,213,31646,6,0,B|164:200|116:248|116:248|120:231|120:208,1,150,6|0,0:0|0:0,0:0:0:0:
132,136,31946,2,0,P|184:124|240:132,1,100,12|0,0:0|0:0,0:0:0:0:
196,300,32246,1,6,0:0:0:0:
40,220,32396,1,2,0:0:0:0:
224,312,32546,1,12,0:0:0:0:
229,128,32696,5,0,0:0:0:0:
220,100,32771,1,2,0:0:0:0:
208,72,32846,1,6,0:0:0:0:
336,124,32996,1,2,0:0:0:0:
464,176,33146,2,0,L|488:68,1,100,12|0,0:0|0:0,0:0:0:0:
376,208,33446,5,6,0:0:0:0:
248,260,33596,1,2,0:0:0:0:
120,312,33746,2,0,L|96:204,1,100,12|0,0:0|0:0,0:0:0:0:
92,184,33971,1,2,0:0:0:0:
85,154,34046,6,0,P|128:120|224:124,1,150,6|0,0:0|0:0,0:0:0:0:
312,96,34346,2,0,P|272:120|219:121,1,100,12|0,0:0|0:0,0:0:0:0:
56,40,34646,1,6,0:0:0:0:
220,120,34796,1,2,0:0:0:0:
4,192,34946,1,12,0:0:0:0:
120,312,35096,5,0,0:0:0:0:
132,284,35171,1,2,0:0:0:0:
144,256,35246,1,6,0:0:0:0:
236,360,35396,1,2,0:0:0:0:
264,224,35546,2,0,P|308:212|376:232,1,100,12|0,0:0|0:0,0:0:0:0:
494,290,35846,6,0,L|360:222,1,150,6|0,0:0|0:0,0:0:0:0:
320,292,36146,2,0,L|409:336,1,100,8|0,0:0|0:0,0:0:0:0:
360,222,36371,1,2,0:0:0:0:
360,222,36446,6,0,P|292:216|240:292,1,150,6|0,0:0|0:0,0:0:0:0:
192,336,36746,2,0,L|76:356,1,100,12|0,0:0|0:0,0:0:0:0:
176,212,37046,1,6,0:0:0:0:
20,240,37196,1,2,0:0:0:0:
164,184,37346,1,12,0:0:0:0:
284,312,37496,5,0,0:0:0:0:
272,284,37571,1,2,0:0:0:0:
260,256,37646,1,6,0:0:0:0:
416,300,37796,1,2,0:0:0:0:
492,160,37946,2,0,P|448:148|376:176,1,100,12|0,0:0|0:0,0:0:0:0:
260,256,38246,5,6,0:0:0:0:
412,328,38396,1,2,0:0:0:0:
504,188,38546,2,0,L|468:72,1,100,12|0,0:0|0:0,0:0:0:0:
364,12,38846,6,0,L|344:64,1,50,8|0,0:0|0:0,0:0:0:0:
272,92,38996,5,0,0:0:0:0:
284,120,39071,1,0,0:0:0:0:
296,148,39146,1,0,0:0:0:0:
308,176,39221,1,0,0:0:0:0:
344,248,39296,6,0,L|332:300,1,50,8|0,0:0|0:0,0:0:0:0:
264,340,39446,5,0,0:0:0:0:
236,332,39521,1,0,0:0:0:0:
208,324,39596,1,0,0:0:0:0:
180,316,39671,1,0,0:0:0:0:
104,292,39746,6,0,L|88:240,1,50,8|0,0:0|0:0,0:0:0:0:
12,220,39896,6,0,L|216:224,1,200
403,167,40346,2,0,P|368:138|316:132,1,100,8|0,0:0|0:0,0:0:0:0:
211,223,40646,1,8,0:0:0:0:
264,368,40796,6,0,L|320:352,1,50,8|8,0:1|0:1,0:0:0:0:
344,264,40946,2,0,P|343:238|335:214,1,50,8|8,0:1|0:1,0:0:0:0:
288,132,41096,2,0,L|236:140,1,50,8|8,0:1|0:1,0:0:0:0:
120,224,41246,6,0,B|170:218|170:218|236:292,1,150,6|0,0:0|0:0,0:0:0:0:
264,368,41546,2,0,P|296:344|316:288,1,100,12|0,0:0|0:0,0:0:0:0:
160,136,41846,2,0,L|60:147,1,100,6|2,0:0|0:0,0:0:0:0:
140,304,42146,1,12,0:0:0:0:
264,368,42296,5,0,0:0:0:0:
292,356,42371,1,2,0:0:0:0:
320,344,42446,1,6,0:0:0:0:
400,216,42596,1,2,0:0:0:0:
496,332,42746,2,0,P|464:364|408:372,1,100,12|0,0:0|0:0,0:0:0:0:
324,256,43046,5,6,0:0:0:0:
404,128,43196,1,2,0:0:0:0:
480,248,43346,2,0,L|496:148,1,100,12|0,0:0|0:0,0:0:0:0:
412,48,43571,1,2,0:0:0:0:
412,48,43646,6,0,B|300:60|300:60|260:108,1,150,6|0,0:0|0:0,0:0:0:0:
236,160,43946,1,12,0:0:0:0:
404,128,44096,2,0,B|341:135|341:135|317:164,1,100,0|6,0:0|0:0,0:0:0:0:
268,312,44396,1,2,0:0:0:0:
384,208,44546,1,12,0:0:0:0:
236,160,44696,5,0,0:0:0:0:
208,156,44771,1,2,0:0:0:0:
180,152,44846,1,6,0:0:0:0:
308,92,44996,1,2,0:0:0:0:
384,208,45146,2,0,L|484:212,1,100,12|0,0:0|0:0,0:0:0:0:
496,384,45446,6,0,B|416:380|416:380|396:348,1,100,6|2,0:0|0:0,0:0:0:0:
268,312,45746,2,0,L|168:308,1,100,8|0,0:0|0:0,0:0:0:0:
46,270,45971,1,2,0:0:0:0:
46,270,46046,6,0,B|91:284|91:284|80:344|124:376,1,150,6|0,0:0|0:0,0:0:0:0:
168,308,46346,2,0,P|166:259|120:204,1,100,12|0,0:0|0:0,0:0:0:0:
4,156,46646,1,6,0:0:0:0:
91,284,46796,1,2,0:0:0:0:
32,144,46946,1,12,0:0:0:0:
108,196,47096,5,2,0:0:0:0:
328,0,47396,1,2,0:0:0:0:
448,72,47546,1,8,0:1:0:0:
312,104,47696,1,8,0:1:0:0:
432,176,47846,1,2,0:0:0:0:
296,208,47996,6,0,L|348:188,1,50,8|8,0:1|0:1,0:0:0:0:
416,280,48146,2,0,L|360:276,1,50,8|8,0:1|0:1,0:0:0:0:
280,312,48296,2,0,L|320:356,1,50,8|8,0:1|0:1,0:0:0:0:
400,384,48446,1,4,0:1:0:0:
124,32,58046,5,0,0:0:0:0:
124,32,58196,2,0,L|232:40,1,100,0|0,0:0|0:0,0:0:0:0:
319,127,58646,2,0,L|220:120,1,100,8|0,0:1|0:0,0:0:0:0:
160,172,59096,1,2,0:0:0:0:
160,172,59396,6,0,P|152:216|192:264,1,100,8|0,0:1|0:0,0:0:0:0:
260,276,59846,2,0,L|324:268,1,50,8|0,0:1|0:0,0:0:0:0:
388,256,60146,1,0,0:0:0:0:
480,252,60296,1,0,0:0:0:0:
480,252,60371,1,8,0:1:0:0:
480,252,60446,5,0,0:0:0:0:
480,252,60596,2,0,L|496:136,1,100,8|0,0:1|0:0,0:0:0:0:
408,0,61046,1,8,0:1:0:0:
436,76,61196,1,0,0:0:0:0:
340,196,61346,1,0,0:0:0:0:
368,120,61496,6,0,P|320:104|264:120,1,100,10|10,0:0|0:0,0:0:0:0:
220,172,61946,1,8,0:1:0:0:
184,244,62096,2,0,P|196:296|248:328,1,100
312,340,62546,2,0,P|336:340|376:328,1,50,8|0,0:1|0:0,0:0:0:0:
424,284,62846,5,0,0:0:0:0:
424,284,62996,2,0,L|436:172,1,100
366,72,63446,2,0,L|356:172,1,100,8|0,0:1|0:0,0:0:0:0:
280,196,63896,1,2,0:0:0:0:
280,196,64196,6,0,P|232:204|176:184,1,100,8|0,0:1|0:0,0:0:0:0:
128,132,64646,2,0,L|64:148,1,50,8|0,0:1|0:0,0:0:0:0:
4,168,64946,1,0,0:0:0:0:
44,256,65096,1,0,0:0:0:0:
44,256,65171,1,8,0:1:0:0:
44,256,65246,5,0,0:0:0:0:
44,256,65396,2,0,P|100:256|148:300,1,100,8|0,0:1|0:0,0:0:0:0:
192,340,65846,1,8,0:1:0:0:
272,340,65996,2,0,L|336:316,1,50,8|0,0:1|0:0,0:0:0:0:
272,340,66296,6,0,B|344:316|344:316|380:228,1,150.000005722046
320,132,66746,1,8,0:1:0:0:
412,56,66896,2,0,L|432:152,1,75.0000028610231
372,247,67196,1,0,0:0:0:0:
256,212,67346,2,0,P|212:208|168:236,1,75.0000028610231,8|0,0:1|0:0,0:0:0:0:
104,336,67646,5,0,0:0:0:0:
96,192,67796,1,0,0:0:0:0:
228,292,67946,5,8,0:0:0:0:
144,132,68096,1,0,0:0:0:0:
313,191,68246,5,0,0:0:0:0:
155,56,68396,2,0,L|216:48,1,50,0|0,0:0|0:0,0:0:0:0:
155,56,68696,6,0,B|144:132|144:132|176:156|176:220,1,150.000005722046,8|0,0:0|0:0,0:0:0:0:
308,352,69146,1,8,0:0:0:0:
416,324,69296,2,0,L|424:248,1,75.0000028610231
228,276,69596,1,0,0:0:0:0:
156,364,69746,1,8,0:0:0:0:
76,288,69896,2,0,L|52:232,1,37.5000014305115
120,179,70046,5,0,0:0:0:0:
228,276,70196,1,0,0:0:0:0:
264,48,70346,5,8,0:0:0:0:
212,188,70496,1,0,0:0:0:0:
352,240,70646,5,0,0:0:0:0:
404,100,70796,2,0,L|408:36,1,50
264,48,71096,6,0,L|404:100,1,150.000005722046,8|0,0:0|0:0,0:0:0:0:
352,240,71546,1,8,0:0:0:0:
212,188,71696,2,0,P|176:180|120:200,1,75.0000028610231
176,320,71996,1,0,0:0:0:0:
300,164,72146,2,0,L|308:76,1,75.0000028610231,8|0,0:0|0:0,0:0:0:0:
306,89,72371,1,0,0:0:0:0:
306,89,72446,5,0,0:0:0:0:
352,240,72596,1,0,0:0:0:0:
443,105,72746,5,8,0:0:0:0:
307,89,72896,1,0,0:0:0:0:
216,224,73046,5,0,0:0:0:0:
80,208,73196,2,0,L|90:256,1,50
91,257,73496,6,0,B|131:193|131:193|115:119,1,150.000005722046,8|0,0:0|0:0,0:0:0:0:
4,100,73946,1,8,0:0:0:0:
8,248,74096,2,0,L|26:331,1,75.0000028610231
184,312,74396,1,0,0:0:0:0:
180,164,74546,1,8,0:0:0:0:
272,344,74696,1,0,0:0:0:0:
268,320,74771,1,0,0:0:0:0:
264,296,74846,5,0,0:0:0:0:
408,336,74996,1,0,0:0:0:0:
296,220,75146,5,8,0:0:0:0:
440,116,75296,2,0,P|448:96|448:64,1,50
376,156,75596,6,0,P|389:172|417:188,1,50
374,81,75896,6,0,B|344:80|320:104|320:104|220:92,1,150.000005722046,8|0,0:0|0:0,0:0:0:0:
104,152,76346,1,8,0:0:0:0:
104,152,76496,2,0,B|161:158|161:158|189:174|189:174|249:182,1,150.000005722046
272,184,76871,1,0,0:0:0:0:
272,184,76946,2,0,L|300:260,1,75.0000028610231,8|0,0:0|0:0,0:0:0:0:
364,348,77246,5,0,0:0:0:0:
364,348,77396,2,0,L|376:299,1,50
440,196,77696,5,0,0:0:0:0:
460,208,77771,1,0,0:0:0:0:
480,220,77846,2,0,L|456:132,1,75.0000028610231,8|0,0:1|0:0,0:0:0:0:
340,120,78146,2,0,L|316:32,1,75.0000028610231,8|0,0:1|0:0,0:0:0:0:
320,47,79046,6,0,B|304:116|304:116|336:148|328:200,1,150
329,188,79646,6,0,B|304:224|256:236|256:236|248:204|255:175,1,150,6|0,0:0|0:0,0:0:0:0:
182,240,79946,2,0,P|201:285|244:309,1,100,12|0,0:0|0:0,0:0:0:0:
396,224,80246,2,0,P|404:176|368:120,1,100,6|2,0:0|0:0,0:0:0:0:
184,152,80546,1,12,0:0:0:0:
244,309,80696,5,0,0:0:0:0:
273,318,80771,1,2,0:0:0:0:
301,327,80846,1,6,0:0:0:0:
388,200,80996,1,2,0:0:0:0:
256,120,81146,2,0,L|136:140,1,100,12|0,0:0|0:0,0:0:0:0:
112,308,81446,5,6,0:0:0:0:
128,144,81596,1,2,0:0:0:0:
240,320,81746,2,0,L|140:320,1,100,12|0,0:0|0:0,0:0:0:0:
32,316,81971,1,2,0:0:0:0:
32,316,82046,6,0,P|64:243|140:232,1,150,6|0,0:0|0:0,0:0:0:0:
212,308,82346,2,0,L|112:308,1,100,12|0,0:0|0:0,0:0:0:0:
128,144,82646,1,6,0:0:0:0:
264,240,82796,1,2,0:0:0:0:
156,132,82946,1,12,0:0:0:0:
264,24,83096,6,0,L|336:28,1,50,0|2,0:0|0:0,0:0:0:0:
427,22,83246,2,0,L|332:52,1,100,6|2,0:0|0:0,0:0:0:0:
184,120,83546,2,0,P|128:128|72:80,1,100,12|0,0:0|0:0,0:0:0:0:
264,24,83846,6,0,L|292:196,1,150,6|0,0:0|0:0,0:0:0:0:
306,279,84146,2,0,L|316:180,1,100,8|0,0:0|0:0,0:0:0:0:
228,288,84371,1,2,0:0:0:0:
228,288,84446,6,0,P|260:344|356:340,1,150,6|0,0:0|0:0,0:0:0:0:
410,378,84746,2,0,P|411:329|384:287,1,100,12|0,0:0|0:0,0:0:0:0:
260,172,85046,1,6,0:0:0:0:
276,352,85196,1,2,0:0:0:0:
165,182,85346,2,0,P|211:163|260:172,1,100,12|0,0:0|0:0,0:0:0:0:
288,188,85571,1,2,0:0:0:0:
308,212,85646,5,6,0:0:0:0:
152,264,85796,1,2,0:0:0:0:
208,108,85946,2,0,L|224:220,1,100,12|0,0:0|0:0,0:0:0:0:
276,352,86246,5,6,0:0:0:0:
380,224,86396,1,2,0:0:0:0:
402,383,86546,2,0,L|304:364,1,100,12|0,0:0|0:0,0:0:0:0:
324,164,86846,6,0,P|348:148|396:148,1,50,8|0,0:0|0:0,0:0:0:0:
444,176,86996,5,0,0:0:0:0:
456,203,87071,1,0,0:0:0:0:
458,232,87146,1,0,0:0:0:0:
449,261,87221,1,0,0:0:0:0:
380,304,87296,6,0,P|352:300|316:272,1,50,8|0,0:0|0:0,0:0:0:0:
276,232,87446,5,0,0:0:0:0:
249,218,87521,1,0,0:0:0:0:
220,212,87596,1,0,0:0:0:0:
190,213,87671,1,0,0:0:0:0:
120,252,87746,6,0,L|60:240,1,50,8|0,0:0|0:0,0:0:0:0:
0,200,87896,6,0,B|101:221|101:221|201:157,1,200
272,16,88346,2,0,L|296:136,1,100,8|0,0:0|0:0,0:0:0:0:
264,260,88646,1,8,0:0:0:0:
182,169,88796,5,8,0:0:0:0:
156,155,88871,1,8,0:0:0:0:
126,149,88946,1,8,0:0:0:0:
97,151,89021,1,8,0:0:0:0:
69,162,89096,1,8,0:0:0:0:
45,180,89171,1,8,0:0:0:0:
27,205,89246,6,0,L|52:40,1,150,6|0,0:0|0:0,0:0:0:0:
232,104,89546,2,0,P|260:152|240:228,1,100,12|0,0:0|0:0,0:0:0:0:
92,256,89846,2,0,P|52:285|3:286,1,100,6|2,0:0|0:0,0:0:0:0:
173,351,90146,2,0,L|272:336,1,100,12|0,0:0|0:0,0:0:0:0:
300,332,90371,1,2,0:0:0:0:
328,328,90446,5,6,0:0:0:0:
368,140,90596,1,2,0:0:0:0:
493,263,90746,2,0,P|448:283|399:276,1,100,12|0,0:0|0:0,0:0:0:0:
288,120,91046,5,6,0:0:0:0:
440,52,91196,1,2,0:0:0:0:
322,208,91346,2,0,P|292:169|288:120,1,100,12|0,0:0|0:0,0:0:0:0:
404,213,91571,1,2,0:0:0:0:
360,281,91646,6,0,B|308:300|264:264|264:264|196:300,1,150,6|0,0:0|0:0,0:0:0:0:
167,339,91946,2,0,P|211:360|260:352,1,100,12|0,0:0|0:0,0:0:0:0:
240,188,92246,1,6,0:0:0:0:
116,280,92396,2,0,P|92:316|100:384,1,100,2|12,0:0|0:0,0:0:0:0:
260,352,92696,5,0,0:0:0:0:
276,328,92771,1,2,0:0:0:0:
292,304,92846,1,6,0:0:0:0:
152,200,92996,1,2,0:0:0:0:
308,124,93146,2,0,L|420:112,1,100,12|0,0:0|0:0,0:0:0:0:
264,212,93446,5,6,0:0:0:0:
428,272,93596,1,2,0:0:0:0:
260,352,93746,2,0,P|208:352|164:320,1,100,8|0,0:0|0:0,0:0:0:0:
152,200,93971,1,2,0:0:0:0:
201,261,94046,6,0,P|166:325|96:344,1,150,6|0,0:0|0:0,0:0:0:0:
28,300,94346,2,0,L|8:188,1,100,12|0,0:0|0:0,0:0:0:0:
136,72,94646,1,6,0:0:0:0:
113,258,94796,2,0,L|96:160,1,100,2|12,0:0|0:0,0:0:0:0:
95,159,95096,5,2,0:0:0:0:
316,16,95396,1,2,0:0:0:0:
264,208,95546,1,8,0:0:0:0:
376,88,95696,1,8,0:0:0:0:
180,184,95846,1,2,0:0:0:0:
436,160,95996,5,8,0:0:0:0:
465,186,96071,1,8,0:0:0:0:
485,221,96146,1,8,0:0:0:0:
492,260,96221,1,8,0:0:0:0:
485,299,96296,1,8,0:0:0:0:
467,334,96371,1,8,0:0:0:0:
437,362,96446,5,4,0:0:0:0:
316,364,96596,2,0,B|264:360|264:360|228:344|228:344|164:340,1,150.000005722046,8|0,0:1|0:0,0:0:0:0:
40,376,97046,1,8,0:1:0:0:
92,212,97196,1,8,0:1:0:0:
148,340,97346,1,0,0:0:0:0:
20,192,97496,2,0,L|92:212,1,75.0000028610231,4|0,0:0|2:0,0:0:0:0:
260,360,97796,5,8,0:1:0:0:
268,176,97946,2,0,L|240:80,1,75.0000028610231,8|0,0:1|0:0,0:0:0:0:
327,236,98246,2,0,P|296:255|259:260,1,75.0000028610231,8|0,0:1|0:0,0:0:0:0:
236,256,98471,1,0,0:0:0:0:
236,256,98546,2,0,L|156:288,1,75.0000028610231,8|0,0:1|0:0,0:0:0:0:
32,184,98846,6,0,L|101:156,1,75.0000028610231,4|8,0:0|0:1,0:0:0:0:
124,148,99296,1,0,0:0:0:0:
32,264,99446,1,8,0:1:0:0:
64,88,99596,1,8,0:1:0:0:
160,220,99746,1,0,0:0:0:0:
47,337,99896,2,0,L|32:264,1,75.0000028610231,4|0,0:0|2:0,0:0:0:0:
220,164,100196,6,0,P|240:232|184:304,1,150.000005722046,8|0,0:1|0:0,0:0:0:0:
88,168,100646,2,0,L|72:94,1,75.0000028610231,8|0,0:1|0:0,0:0:0:0:
164,36,100946,1,8,0:1:0:0:
200,304,101246,5,4,0:0:0:0:
304,240,101396,2,0,P|368:216|452:260,1,150.000005722046,8|0,0:1|0:0,0:0:0:0:
496,372,101846,1,8,0:1:0:0:
312,332,101996,1,8,0:1:0:0:
456,264,102146,1,0,0:0:0:0:
311,165,102296,2,0,L|304:240,1,75.0000028610231,4|0,0:0|2:0,0:0:0:0:
172,316,102596,5,8,0:1:0:0:
104,152,102746,2,0,L|96:77,1,75.0000028610231,8|0,0:1|0:0,0:0:0:0:
168,216,103046,2,0,P|136:236|80:240,1,75.0000028610231,8|0,0:1|0:0,0:0:0:0:
96,56,103346,1,0,0:0:0:0:
115,44,103421,1,0,0:0:0:0:
136,37,103496,1,8,0:1:0:0:
158,35,103571,1,0,0:0:0:0:
181,37,103646,5,4,0:0:0:0:
280,108,103796,2,0,L|272:288,1,150.000005722046,8|0,0:1|0:0,0:0:0:0:
408,360,104246,1,8,0:1:0:0:
380,204,104396,1,8,0:1:0:0:
428,356,104546,2,0,L|440:280,1,75.0000028610231,0|4,0:0|0:0,0:0:0:0:
444,260,105746,5,8,0:1:0:0:
328,336,106046,5,6,0:0:0:0:
276,328,106146,1,0,0:0:0:0:
224,320,106246,1,0,0:0:0:0:
172,312,106346,1,12,0:0:0:0:
120,304,106446,1,0,0:0:0:0:
68,296,106546,2,0,L|-8:284,1,66.6666666666667,0|6,0:0|0:0,0:0:0:0:
100,152,106796,1,2,0:0:0:0:
224,212,106946,1,12,0:0:0:0:
320,64,107096,6,0,P|368:40|444:60,2,100,2|4|2,0:0|2:1|0:0,0:0:0:0:
228,184,107546,1,12,0:0:0:0:
360,304,107696,2,0,L|380:192,1,100,2|4,0:0|2:1,0:0:0:0:
232,156,107996,1,2,0:0:0:0:
116,260,108146,1,12,0:0:0:0:
220,376,108296,1,0,0:0:0:0:
220,376,108371,1,0,0:0:0:0:
220,376,108446,5,6,0:0:0:0:
272,336,108546,1,0,0:0:0:0:
272,268,108646,1,0,0:0:0:0:
227,218,108746,2,0,L|96:232,1,100,12|0,0:0|0:0,0:0:0:0:
48,232,108971,2,0,L|60:168,1,50,8|6,0:0|0:0,0:0:0:0:
168,88,109196,1,2,0:0:0:0:
252,236,109346,1,12,0:0:0:0:
196,92,109496,1,2,0:0:0:0:
328,128,109646,6,0,P|384:136|448:92,1,100,4|2,2:1|0:0,0:0:0:0:
296,340,109946,2,0,P|249:322|201:331,1,100,12|2,0:0|0:0,0:0:0:0:
301,107,110246,2,0,P|357:95|402:32,1,100,12|2,0:0|0:0,0:0:0:0:
256,344,110546,2,0,P|213:303|113:299,1,150,12|0,0:0|0:0,0:0:0:0:
96,300,110846,5,6,0:0:0:0:
196,184,110996,2,0,P|204:128|160:76,1,100,2|4,0:0|0:0,0:0:0:0:
80,184,111296,2,0,L|128:224,1,50,0|8,0:0|0:0,0:0:0:0:
220,272,111446,2,0,P|272:284|344:236,1,100,6|2,0:0|0:0,0:0:0:0:
448,176,111746,2,0,L|432:288,1,100,12|2,0:0|0:0,0:0:0:0:
336,124,112046,6,0,P|320:88|336:28,1,100,4|2,2:1|0:0,0:0:0:0:
436,148,112346,1,12,0:0:0:0:
320,216,112496,1,2,0:0:0:0:
228,52,112646,1,4,2:1:0:0:
296,200,112796,1,2,0:0:0:0:
148,268,112946,2,0,P|100:272|52:240,1,100,12|0,0:0|0:0,0:0:0:0:
224,368,113246,5,4,0:0:0:0:
243,345,113321,1,0,0:0:0:0:
266,326,113396,1,0,0:0:0:0:
293,313,113471,1,0,0:0:0:0:
322,306,113546,1,4,0:0:0:0:
352,305,113621,1,0,0:0:0:0:
382,310,113696,1,0,0:0:0:0:
409,321,113771,1,0,0:0:0:0:
434,338,113846,5,4,0:0:0:0:
450,313,113921,1,0,0:0:0:0:
462,286,113996,1,0,0:0:0:0:
469,257,114071,1,0,0:0:0:0:
471,227,114146,1,4,0:0:0:0:
469,197,114221,1,0,0:0:0:0:
461,168,114296,1,0,0:0:0:0:
448,141,114371,1,0,0:0:0:0:
431,116,114446,6,0,L|352:108,1,50,8|0,0:0|0:0,0:0:0:0:
304,112,114596,5,0,0:0:0:0:
296,116,114671,1,0,0:0:0:0:
288,120,114746,1,0,0:0:0:0:
280,124,114821,1,0,0:0:0:0:
272,128,114896,1,0,0:0:0:0:
264,132,114971,1,0,0:0:0:0:
256,136,115046,1,0,0:0:0:0:
248,140,115121,1,0,0:0:0:0:
240,144,115196,1,0,0:0:0:0:
232,148,115271,1,0,0:0:0:0:
224,152,115346,1,0,0:0:0:0:
216,156,115421,1,0,0:0:0:0:
208,160,115496,6,0,P|124:160|80:60,1,200,4|0,1:0|0:0,0:0:0:0:
328,52,115946,2,0,L|312:192,1,100,12|0,0:0|0:0,0:0:0:0:
464,192,116246,2,0,L|448:332,1,100,12|0,0:0|0:0,0:0:0:0:
264,256,116546,2,0,L|248:396,1,100,12|4,0:0|1:0,0:0:0:0:
448,256,116996,5,0,0:0:0:0:
448,256,117146,2,0,L|432:116,1,100,12|0,0:0|0:0,0:0:0:0:
308,152,117446,2,0,L|292:12,1,100,12|0,0:0|0:0,0:0:0:0:
175,235,117746,1,12,0:0:0:0:
164,136,117896,6,0,P|79:107|3:179,1,200,4|0,1:0|0:0,1:0:0:0:
124,348,118346,2,0,L|240:328,1,100,12|0,0:0|0:0,0:0:0:0:
300,220,118646,2,0,L|416:200,1,100,12|0,0:0|0:0,0:0:0:0:
200,108,118946,2,0,L|316:88,1,100,12|4,0:0|1:0,0:0:0:0:
312,348,119396,5,0,0:0:0:0:
312,348,119546,2,0,L|196:328,1,100,12|0,0:0|0:0,0:0:0:0:
392,240,119846,2,0,L|276:220,1,100,12|0,0:0|0:0,0:0:0:0:
324,112,120146,1,12,0:0:0:0:
225,95,120296,6,0,B|152:84|152:84|108:88|108:88|24:72,1,200,4|0,1:0|0:0,0:0:0:0:
0,296,120746,2,0,B|48:304|48:304|100:300,1,100,8|0,0:1|2:0,0:0:0:0:
200,168,121046,1,0,0:0:0:0:
200,168,121196,2,0,B|152:160|152:160|100:164,1,100,0|8,0:0|0:1,0:0:0:0:
272,288,121496,6,0,B|320:296|320:296|372:292,2,100,0|0|0,0:0|2:0|0:0,0:0:0:0:
228,156,121946,1,8,0:1:0:0:
336,72,122096,1,0,2:0:0:0:
328,212,122246,1,0,0:0:0:0:
172,248,122396,1,0,0:0:0:0:
32,168,122546,1,8,0:1:0:0:
172,88,122696,6,0,B|244:102|244:102|284:121|284:121|369:135,1,200,4|0,0:0|0:0,0:0:0:0:
476,296,123146,2,0,L|354:277,1,100,8|0,0:0|2:0,0:0:0:0:
156,264,123446,1,0,0:0:0:0:
341,196,123596,1,0,0:0:0:0:
232,360,123746,1,8,0:0:0:0:
223,162,123896,1,0,0:0:0:0:
348,316,124046,6,0,L|446:331,1,100,0|0,2:0|0:0,0:0:0:0:
496,192,124346,1,8,0:0:0:0:
368,212,124496,1,0,0:0:0:0:
260,88,124646,1,8,0:0:0:0:
388,108,124796,1,0,0:0:0:0:
240,192,124946,1,8,0:0:0:0:
132,68,125096,6,0,P|48:68|16:176,1,200,4|0,1:0|0:0,0:0:0:0:
100,336,125546,2,0,L|113:236,1,100,12|0,0:0|0:0,0:0:0:0:
248,240,125846,2,0,L|261:140,1,100,12|0,0:0|0:0,0:0:0:0:
396,144,126146,2,0,L|409:44,1,100,12|4,0:0|1:0,0:0:0:0:
100,48,126596,5,0,0:0:0:0:
100,48,126746,2,0,L|113:147,1,100,12|0,0:0|0:0,0:0:0:0:
248,144,127046,2,0,L|261:243,1,100,12|0,0:0|0:0,0:0:0:0:
396,240,127346,1,12,0:0:0:0:
409,339,127496,6,0,P|476:296|468:172,1,200,4|0,1:0|0:0,0:0:0:0:
352,88,127946,2,0,L|212:112,1,100,12|0,0:0|0:0,0:0:0:0:
312,320,128246,2,0,L|172:344,1,100,12|0,0:0|0:0,0:0:0:0:
139,206,128546,2,0,L|-1:230,1,100,12|4,0:0|1:0,0:0:0:0:
308,52,128996,5,0,0:0:0:0:
308,52,129146,2,0,L|448:76,1,100,12|0,0:0|0:0,0:0:0:0:
268,296,129446,2,0,L|408:320,1,100,12|0,0:0|0:0,0:0:0:0:
228,164,129746,1,12,0:0:0:0:
324,180,129896,6,0,B|396:192|396:192|436:224|436:224|512:240,1,200,4|0,1:0|0:0,0:0:0:0:
440,332,130346,2,0,L|362:269,1,100,8|0,0:0|2:0,0:0:0:0:
396,88,130646,1,0,0:0:0:0:
396,88,130796,2,0,L|473:150,1,100,0|8,0:0|0:0,0:0:0:0:
362,269,131096,6,0,P|316:276|248:240,1,100,0|0,0:0|2:0,0:0:0:0:
196,112,131396,1,0,0:0:0:0:
128,228,131546,2,0,L|152:360,1,100,8|0,0:0|2:0,0:0:0:0:
244,240,131846,1,0,0:0:0:0:
172,92,131996,1,0,0:0:0:0:
24,164,132146,1,8,0:0:0:0:
96,312,132296,6,0,B|168:304|168:304|216:332|216:332|296:324,1,200,4|0,0:0|0:0,0:0:0:0:
380,144,132746,2,0,L|276:159,1,100,8|0,0:0|2:0,0:0:0:0:
71,223,133046,1,0,0:0:0:0:
185,261,133196,1,0,0:0:0:0:
185,66,133346,1,8,0:0:0:0:
71,103,133496,1,0,0:0:0:0:
256,164,133646,6,0,L|354:149,1,100,0|8,2:0|0:0,0:0:0:0:
512,256,133946,2,0,P|464:264|412:240,1,100,8|0,0:0|0:0,0:0:0:0:
380,144,134246,2,0,L|384:36,1,100,8|0,0:0|0:0,0:0:0:0:
383,44,134546,1,0,0:0:0:0:
383,44,134696,6,0,P|308:24|236:64,1,150.000005722046,4|0,0:0|0:0,0:0:0:0:
232,144,135146,2,0,L|264:296,1,150.000005722046,0|8,0:0|0:0,0:0:0:0:
320,120,135746,1,0,0:0:0:0:
232,144,135896,6,0,P|152:160|88:124,1,150.000005722046
32,64,136346,1,0,0:0:0:0:
32,64,136646,2,0,L|56:232,1,150.000005722046,8|8,0:0|0:0,0:0:0:0:
122,356,137096,6,0,P|161:294|143:223,1,150.000005722046,4|0,0:0|0:0,0:0:0:0:
60,188,137546,2,0,L|38:39,1,150.000005722046,0|8,0:0|0:0,0:0:0:0:
72,280,138146,1,0,0:0:0:0:
9,333,138296,6,0,B|40:296|20:240|20:240|68:248|68:248|116:216|160:228|160:228|196:200|196:200|256:196|280:148|280:148|332:132,1,450,0|2,0:0|0:0,0:0:0:0:
200,112,140096,1,2,0:0:0:0:
276,296,140696,1,2,0:0:0:0:
420,252,141146,1,2,0:0:0:0:
436,272,141296,1,2,0:0:0:0:
452,292,141446,2,0,L|464:184,1,100,2|0,0:0|0:0,0:0:0:0:
308,28,142046,5,2,0:0:0:0:
236,160,142496,1,2,0:0:0:0:
80,32,143096,1,2,0:0:0:0:
132,116,143396,1,2,0:0:0:0:
108,124,143546,1,2,0:0:0:0:
84,132,143696,1,2,0:0:0:0:
60,140,143846,1,2,0:0:0:0:
448,208,144446,5,2,0:0:0:0:
388,348,144896,1,2,0:0:0:0:
348,152,145496,2,0,L|388:348,1,200,2|0,0:0|0:0,0:0:0:0:
156,176,146846,6,0,L|168:124,1,50,8|0,0:0|0:0,0:0:0:0:
60,76,146996,5,0,0:0:0:0:
64,104,147071,1,0,0:0:0:0:
68,132,147146,1,0,0:0:0:0:
72,160,147221,1,0,0:0:0:0:
76,188,147296,2,0,P|84:216|124:248,1,50,8|0,0:0|0:0,0:0:0:0:
224,248,147446,5,0,0:0:0:0:
232,220,147521,1,0,0:0:0:0:
240,192,147596,1,0,0:0:0:0:
248,164,147671,1,0,0:0:0:0:
256,136,147746,2,0,L|336:120,1,50,8|0,0:0|0:0,0:0:0:0:
392,120,147896,5,0,0:0:0:0:
421,123,147971,1,0,0:0:0:0:
449,134,148046,1,0,0:0:0:0:
472,152,148121,1,0,0:0:0:0:
490,177,148196,1,0,0:0:0:0:
499,205,148271,1,0,0:0:0:0:
501,235,148346,2,0,L|464:352,1,100,8|0,0:0|0:0,0:0:0:0:
288,368,148646,6,0,L|276:312,1,50,8|0,0:0|2:0,0:0:0:0:
224,248,148796,1,8,0:0:0:0:
200,229,148871,1,8,0:0:0:0:
173,215,148946,1,8,0:0:0:0:
144,208,149021,1,8,0:0:0:0:
115,206,149096,1,8,0:0:0:0:
85,211,149171,1,8,0:0:0:0:
57,221,149246,6,0,P|100:156|84:88,1,150,6|0,0:0|0:0,0:0:0:0:
5,50,149546,2,0,P|-3:98|15:143,1,100,12|0,0:0|0:0,0:0:0:0:
124,324,149846,1,6,0:0:0:0:
208,188,149996,1,2,0:0:0:0:
228,368,150146,1,12,0:0:0:0:
396,304,150296,5,0,0:0:0:0:
384,276,150371,1,2,0:0:0:0:
372,248,150446,1,6,0:0:0:0:
235,275,150596,1,2,0:0:0:0:
328,380,150746,2,0,L|448:380,1,100,12|0,0:0|0:0,0:0:0:0:
440,172,151046,1,6,0:0:0:0:
303,199,151196,1,2,0:0:0:0:
396,304,151346,2,0,L|516:304,1,100,12|0,0:0|0:0,0:0:0:0:
368,380,151571,1,2,0:0:0:0:
368,380,151646,6,0,P|316:320|344:244,1,150,6|0,0:0|0:0,0:0:0:0:
404,224,151946,1,12,0:0:0:0:
235,275,152096,2,0,L|116:288,1,100,0|6,0:0|0:0,0:0:0:0:
72,136,152396,1,2,0:0:0:0:
184,176,152546,1,12,0:0:0:0:
256,48,152696,5,0,0:0:0:0:
284,36,152771,1,2,0:0:0:0:
312,24,152846,1,6,0:0:0:0:
296,164,152996,1,2,0:0:0:0:
276,304,153146,2,0,L|156:288,1,100,12|0,0:0|0:0,0:0:0:0:
52,120,153446,6,0,B|127:129|127:129|155:173,1,100,6|2,0:0|0:0,0:0:0:0:
196,312,153746,2,0,L|295:325,1,100,8|0,0:0|0:0,0:0:0:0:
408,347,153971,1,2,0:0:0:0:
408,347,154046,6,0,B|368:368|368:368|388:316|356:268,1,150,6|0,0:0|0:0,0:0:0:0:
284,228,154346,2,0,P|328:192|392:192,1,100,12|0,0:0|0:0,0:0:0:0:
295,325,154646,1,6,0:0:0:0:
200,196,154796,2,0,L|176:84,1,100,2|12,0:0|0:0,0:0:0:0:
123,249,155096,6,0,P|210:287|283:228,1,200,2|8,0:0|0:0,0:0:0:0:
100,116,155546,1,8,0:0:0:0:
292,200,155696,1,8,0:0:0:0:
104,224,155846,1,8,0:0:0:0:
292,172,155996,1,8,0:0:0:0:
112,88,156146,1,8,0:0:0:0:
284,144,156296,1,8,0:0:0:0:
268,116,156746,6,0,L|404:120,1,100,8|0,0:0|0:0,0:0:0:0:
500,216,157046,1,6,0:0:0:0:
396,120,157196,1,2,0:0:0:0:
328,244,157346,1,12,0:0:0:0:
156,288,157496,5,0,0:0:0:0:
132,268,157571,1,2,0:0:0:0:
112,248,157646,1,6,0:0:0:0:
172,84,157796,1,2,0:0:0:0:
92,228,157946,2,0,L|100:340,1,100,12|0,0:0|0:0,0:0:0:0:
264,220,158246,5,6,0:0:0:0:
324,384,158396,1,2,0:0:0:0:
244,240,158546,2,0,L|252:128,1,100,12|0,0:0|0:0,0:0:0:0:
228,24,158771,1,2,0:0:0:0:
228,24,158846,6,0,P|164:4|88:68,1,150,6|0,0:0|0:0,0:0:0:0:
88,128,159146,2,0,P|136:118|172:84,1,100,12|0,0:0|0:0,0:0:0:0:
316,12,159446,1,6,0:0:0:0:
240,140,159596,1,2,0:0:0:0:
392,60,159746,1,12,0:0:0:0:
356,244,159896,5,0,0:0:0:0:
364,272,159971,1,2,0:0:0:0:
372,300,160046,2,0,P|412:336|480:332,1,100,6|2,0:0|0:0,0:0:0:0:
392,176,160346,2,0,P|332:168|280:212,1,100,12|0,0:0|0:0,0:0:0:0:
206,304,160646,6,0,L|299:185,1,150,6|0,0:0|0:0,0:0:0:0:
356,244,160946,2,0,L|293:321,1,100,8|0,0:0|0:0,0:0:0:0:
299,185,161171,1,2,0:0:0:0:
299,185,161246,6,0,P|360:164|436:236,1,150,6|0,0:0|0:0,0:0:0:0:
424,288,161546,2,0,P|384:320|328:320,1,100,12|0,0:0|0:0,0:0:0:0:
212,220,161846,1,6,0:0:0:0:
80,176,161996,1,2,0:0:0:0:
108,312,162146,1,12,0:0:0:0:
216,192,162296,5,0,0:0:0:0:
220,164,162371,1,2,0:0:0:0:
224,136,162446,1,6,0:0:0:0:
320,256,162596,1,2,0:0:0:0:
228,108,162746,2,0,L|340:128,1,100,12|0,0:0|0:0,0:0:0:0:
452,252,163046,5,6,0:0:0:0:
356,132,163196,1,2,0:0:0:0:
448,280,163346,2,0,L|349:262,1,100,12|0,0:0|0:0,0:0:0:0:
140,244,163646,6,0,P|116:248|68:276,1,50,8|0,0:0|0:0,0:0:0:0:
144,328,163796,5,0,0:0:0:0:
172,332,163871,1,0,0:0:0:0:
200,332,163946,1,0,0:0:0:0:
228,324,164021,1,0,0:0:0:0:
288,272,164096,6,0,L|304:188,1,50,8|0,0:0|0:0,0:0:0:0:
280,144,164246,5,0,0:0:0:0:
264,120,164321,1,0,0:0:0:0:
240,100,164396,1,0,0:0:0:0:
212,84,164471,1,0,0:0:0:0:
132,68,164546,6,0,P|108:64|64:72,1,50,8|0,0:0|0:0,0:0:0:0:
24,120,164696,6,0,L|216:64,1,200
360,132,165146,2,0,P|356:180|284:228,1,100,8|0,0:0|0:0,0:0:0:0:
184,200,165446,1,8,0:0:0:0:
104,96,165596,6,8,L|124:32,1,50
232,24,165746,2,8,L|217:71,1,50
296,154,165896,2,8,L|310:106,1,50
424,84,166046,6,0,P|488:104|504:188,1,150,6|0,0:0|0:0,0:0:0:0:
448,236,166346,2,0,L|332:228,1,100,12|0,0:0|0:0,0:0:0:0:
192,312,166646,1,6,0:0:0:0:
324,248,166796,1,2,0:0:0:0:
152,236,166946,1,12,0:0:0:0:
256,60,167096,5,0,0:0:0:0:
280,76,167171,1,2,0:0:0:0:
304,92,167246,1,6,0:0:0:0:
296,240,167396,1,2,0:0:0:0:
184,100,167546,2,0,P|176:36|208:-8,1,100,12|0,0:0|0:0,0:0:0:0:
328,112,167846,5,6,0:0:0:0:
268,232,167996,1,2,0:0:0:0:
400,76,168146,2,0,P|407:126|360:186,1,100,12|0,0:0|0:0,0:0:0:0:
332,32,168371,1,2,0:0:0:0:
332,32,168446,6,0,P|388:-4|468:32,1,150,6|0,0:0|0:0,0:0:0:0:
491,96,168746,2,0,P|442:100|400:76,1,100,12|0,0:0|0:0,0:0:0:0:
232,21,169046,2,0,L|332:32,1,100,6|2,0:0|0:0,0:0:0:0:
404,168,169346,1,12,0:0:0:0:
228,188,169496,5,0,0:0:0:0:
200,176,169571,1,2,0:0:0:0:
172,164,169646,1,6,0:0:0:0:
135,300,169796,1,2,0:0:0:0:
272,264,169946,2,0,P|304:228|308:160,1,100,12|0,0:0|0:0,0:0:0:0:
84,92,170246,6,0,L|94:191,1,100,6|2,0:0|0:0,0:0:0:0:
232,336,170546,2,0,P|280:344|348:308,1,100,8|2,0:0|0:0,0:0:0:0:
348,304,170771,1,2,0:0:0:0:
364,280,170846,6,0,L|376:208,1,50,8|0,0:0|0:0,0:0:0:0:
372,200,170996,2,0,L|384:128,1,50
268,108,171146,6,0,L|280:180,1,50,8|0,0:0|0:0,0:0:0:0:
276,188,171296,2,0,L|288:260,1,50
172,280,171446,6,0,L|184:208,1,50,8|0,0:0|0:0,0:0:0:0:
180,200,171596,2,0,L|192:128,1,50
76,108,171746,6,0,L|88:180,1,50,8|0,0:0|0:0,0:0:0:0:
84,188,171896,1,0,0:0:0:0:
336,368,172196,1,0,0:0:0:0:
364,360,172271,1,0,0:0:0:0:
392,352,172346,5,8,0:0:0:0:
400,324,172421,1,0,0:0:0:0:
408,296,172496,1,0,0:0:0:0:
416,268,172571,1,0,0:0:0:0:
424,240,172646,1,8,0:0:0:0:
432,212,172721,1,0,0:0:0:0:
440,184,172796,1,0,0:0:0:0:
448,156,172871,1,0,0:0:0:0:
456,128,172946,2,0,L|472:64,3,50,8|0|0|0,0:0|0:0|0:0|0:0,0:0:0:0:
428,16,173246,5,6,0:0:0:0:
428,16,173396,2,0,B|360:24|360:24|320:48|320:48|232:56,1,200,8|2,0:0|0:0,0:0:0:0:
48,80,173846,1,8,0:0:0:0:
92,188,173996,2,0,L|212:176,1,100,8|2,0:0|0:0,0:0:0:0:
235,55,174296,6,0,B|192:180|192:180|224:240,1,200,6|8,0:0|0:0,0:0:0:0:
240,268,174671,1,0,0:0:0:0:
256,296,174746,5,8,0:0:0:0:
284,292,174821,1,0,0:0:0:0:
312,288,174896,1,2,0:0:0:0:
340,284,174971,1,0,0:0:0:0:
360,264,175046,5,8,0:0:0:0:
388,260,175121,1,0,0:0:0:0:
416,256,175196,1,2,0:0:0:0:
444,252,175271,1,2,0:0:0:0:
472,264,175346,2,0,L|492:212,3,50,8|0|8|0,0:0|0:0|0:0|0:0,0:0:0:0:
456,144,175646,5,6,0:0:0:0:
332,72,175796,1,8,0:0:0:0:
260,192,175946,2,0,L|280:312,1,100,0|2,0:0|0:0,0:0:0:0:
120,217,176246,6,0,L|136:144,1,75,8|0,0:0|2:0,0:0:0:0:
156,128,176396,6,0,L|140:201,1,75,8|0,0:0|2:0,0:0:0:0:
128,296,176546,6,0,P|72:280|44:220,1,100,8|6,0:0|0:0,0:0:0:0:
44,216,176771,1,0,0:0:0:0:
48,188,176846,6,0,P|84:148|148:144,1,100,2|8,0:0|0:0,0:0:0:0:
240,264,177146,2,0,L|220:388,1,100,2|2,0:0|0:0,0:0:0:0:
376,280,177446,1,8,0:0:0:0:
328,140,177596,1,2,0:0:0:0:
356,300,177746,1,8,0:0:0:0:
356,148,177896,1,0,0:0:0:0:
424,352,178046,5,6,0:0:0:0:
424,352,178196,2,0,B|392:396|316:396|284:352|284:352|216:368,1,200,8|2,0:0|0:0,0:0:0:0:
112,232,178646,1,8,0:0:0:0:
220,280,178796,2,0,L|244:144,1,100,8|2,0:0|0:0,0:0:0:0:
119,41,179096,6,0,B|88:104|88:104|112:232,1,200,6|8,0:0|0:0,0:0:0:0:
120,260,179471,1,0,0:0:0:0:
128,288,179546,5,2,0:0:0:0:
148,264,179621,1,0,0:0:0:0:
168,240,179696,1,2,0:0:0:0:
188,216,179771,1,0,0:0:0:0:
208,192,179846,2,0,L|184:76,1,100,8|2,0:0|0:0,0:0:0:0:
332,32,180146,6,0,L|320:84,1,50,2|2,0:0|0:0,0:0:0:0:
384,152,180296,2,0,L|372:204,1,50,8|2,0:0|0:0,0:0:0:0:
436,272,180446,5,6,0:0:0:0:
436,272,180596,2,0,B|452:376|452:376|328:360,1,200,8|2,0:0|0:0,0:0:0:0:
192,192,181046,2,0,L|293:204,1,100,8|8,0:0|0:0,0:0:0:0:
436,272,181346,1,2,0:0:0:0:
425,92,181496,6,0,B|316:120|316:120|291:203,1,200,6|8,0:0|0:0,0:0:0:0:
407,367,181946,2,0,L|436:272,1,100,2|2,0:0|0:0,0:0:0:0:
448,244,182171,1,2,0:0:0:0:
460,216,182246,5,2,0:0:0:0:
332,296,182396,1,8,0:0:0:0:
200,192,182546,1,2,0:0:0:0:
72,320,182696,1,8,0:0:0:0:
