osu file format v13

[General]
AudioFilename: Yuikonnu Chikyuu.mp3
AudioLeadIn: 0
PreviewTime: 83476
Countdown: 0
SampleSet: None
StackLeniency: 0.7
Mode: 3
LetterboxInBreaks: 0
SpecialStyle: 0
WidescreenStoryboard: 0

[Editor]
DistanceSpacing: 0.5
BeatDivisor: 4
GridSize: 4
TimelineZoom: 2.3

[Metadata]
Title:Chikyuu Saigo no Kokuhaku wo
TitleUnicode:Chikyuu Saigo no Kokuhaku wo
Artist:yuikonnu
ArtistUnicode:yuikonnu
Creator:Zenonia
Version:ZenoCORE!
Source:
Tags:
BeatmapID:580759
BeatmapSetID:252901

[Difficulty]
HPDrainRate:7
CircleSize:7
OverallDifficulty:5
ApproachRate:5
SliderMultiplier:1.4
SliderTickRate:1

[Events]
//Background and Video events
0,0,"bg.jpg",0,0
//Break Periods
//Storyboard Layer 0 (Background)
//Storyboard Layer 1 (Fail)
//Storyboard Layer 2 (Pass)
//Storyboard Layer 3 (Foreground)
//Storyboard Sound Samples

[TimingPoints]
101,428.571428571429,4,2,0,5,1,0
20672,416.666666666667,4,2,0,5,1,0
22755,-10,4,2,0,5,0,0
22963,-133.333333333333,4,2,0,5,0,0
23172,416.666666666667,4,2,0,5,1,0
23172,-133.333333333333,4,2,0,5,0,0
23484,315.789473684211,4,2,0,5,1,0
23484,-100,4,2,0,5,0,0
23484,-100,4,2,0,5,0,0
23634,315.789473684211,4,2,0,5,1,0
27265,-76.9230769230769,4,2,0,5,0,0
27423,-100,4,2,0,5,0,0
27502,-200,4,2,0,5,0,0
27581,-76.9230769230769,4,2,0,5,0,0
27739,-100,4,2,0,5,0,0
27818,-200,4,2,0,5,0,0
27897,-76.9230769230769,4,2,0,5,0,0
28055,-100,4,2,0,5,0,0
28134,-200,4,2,0,5,0,0
28212,-100,4,2,0,5,0,0
33265,-125,4,2,0,5,0,0
33502,-100,4,2,0,5,0,0
33581,-83.3333333333333,4,2,0,5,0,0
33660,-62.5,4,2,0,5,0,0
33739,-100,4,2,0,5,0,0
74791,-62.5,4,2,0,5,0,0
74870,-100,4,2,0,5,0,0
74949,-133.333333333333,4,2,0,5,0,0
75028,-200,4,2,0,5,0,0
75107,-100,4,2,0,5,0,0
76055,-62.5,4,2,0,5,0,0
76134,-100,4,2,0,5,0,0
76213,-133.333333333333,4,2,0,5,0,0
76292,-200,4,2,0,5,0,0
76371,-100,4,2,0,5,0,0
77949,-100,4,2,0,5,0,0
83318,-10,4,2,0,5,0,0
83397,-333.333333333333,4,2,0,5,0,0
83949,-76.9230769230769,4,2,0,5,0,0
84107,-100,4,2,0,5,0,0
84186,-200,4,2,0,5,0,0
84265,-100,4,2,0,5,0,0
261107,-100,4,2,0,5,0,0

[HitObjects]
256,192,3101,5,0,0:0:0:0:
36,192,3529,128,0,5243:0:0:0:0:
182,192,3529,128,0,3743:0:0:0:0:
256,192,3958,1,0,0:0:0:0:
256,192,4172,128,0,4386:0:0:0:0:
329,192,4601,128,0,4815:0:0:0:0:
402,192,5029,128,0,5458:0:0:0:0:
109,192,5243,128,0,6958:0:0:0:0:
402,192,5672,1,0,0:0:0:0:
475,192,5886,128,0,6208:0:0:0:0:
402,192,6529,1,0,0:0:0:0:
402,192,6743,1,0,0:0:0:0:
182,192,6958,128,0,8672:0:0:0:0:
329,192,6958,128,0,7172:0:0:0:0:
475,192,7386,1,0,0:0:0:0:
475,192,7601,128,0,7815:0:0:0:0:
475,192,8029,1,0,0:0:0:0:
475,192,8458,128,0,8672:0:0:0:0:
329,192,8672,128,0,10386:0:0:0:0:
256,192,8886,128,0,9101:0:0:0:0:
182,192,9315,128,0,9529:0:0:0:0:
109,192,9743,128,0,10172:0:0:0:0:
36,192,10172,128,0,11458:0:0:0:0:
256,192,10386,128,0,12101:0:0:0:0:
329,192,12101,128,0,12529:0:0:0:0:
182,192,12101,128,0,13815:0:0:0:0:
36,192,12101,128,0,12529:0:0:0:0:
109,192,12529,128,0,12958:0:0:0:0:
402,192,12529,128,0,12958:0:0:0:0:
256,192,12958,128,0,13386:0:0:0:0:
475,192,12958,128,0,13386:0:0:0:0:
36,192,13386,128,0,13601:0:0:0:0:
329,192,13386,128,0,13815:0:0:0:0:
109,192,13815,128,0,15529:0:0:0:0:
475,192,13815,1,0,0:0:0:0:
256,192,14458,1,0,0:0:0:0:
256,192,14672,128,0,15529:0:0:0:0:
402,192,15529,128,0,17243:0:0:0:0:
256,192,16386,128,0,16815:0:0:0:0:
36,192,16815,128,0,17243:0:0:0:0:
329,192,17243,128,0,18958:0:0:0:0:
109,192,17243,128,0,17565:0:0:0:0:
256,192,17672,128,0,17779:0:0:0:0:
182,192,17886,128,0,18208:0:0:0:0:
109,192,18422,128,0,18636:0:0:0:0:
182,192,18851,128,0,20672:0:0:0:0:
256,192,18958,128,0,20672:0:0:0:0:
36,192,20672,128,0,22338:0:0:0:0:
475,192,20672,128,0,22338:0:0:0:0:
402,192,21088,128,0,21505:0:0:0:0:
329,192,21297,128,0,21713:0:0:0:0:
256,192,21505,128,0,21922:0:0:0:0:
182,192,21713,128,0,22338:0:0:0:0:
329,192,21922,128,0,22338:0:0:0:0:
402,192,22130,128,0,22338:0:0:0:0:
109,192,22338,128,0,23634:0:0:0:0:
182,192,22755,128,0,23634:0:0:0:0:
402,192,23484,1,0,0:0:0:0:
329,192,23562,1,0,0:0:0:0:
402,192,23634,1,0,0:0:0:0:
36,192,23634,1,0,0:0:0:0:
475,192,23634,128,0,24897:0:0:0:0:
256,192,23634,1,0,0:0:0:0:
36,192,23949,1,0,0:0:0:0:
256,192,23949,1,0,0:0:0:0:
329,192,23949,1,0,0:0:0:0:
182,192,23949,1,0,0:0:0:0:
36,192,24265,1,0,0:0:0:0:
182,192,24265,128,0,24897:0:0:0:0:
256,192,24265,1,0,0:0:0:0:
329,192,24265,1,0,0:0:0:0:
36,192,24581,1,0,0:0:0:0:
256,192,24581,1,0,0:0:0:0:
329,192,24581,1,0,0:0:0:0:
36,192,24897,1,0,0:0:0:0:
402,192,24897,128,0,26160:0:0:0:0:
256,192,24897,128,0,25528:0:0:0:0:
329,192,24897,1,0,0:0:0:0:
109,192,24897,1,0,0:0:0:0:
182,192,25212,1,0,0:0:0:0:
329,192,25212,1,0,0:0:0:0:
36,192,25370,1,0,0:0:0:0:
109,192,25370,1,0,0:0:0:0:
475,192,25528,128,0,26160:0:0:0:0:
182,192,25528,1,0,0:0:0:0:
256,192,25686,1,0,0:0:0:0:
109,192,25686,1,0,0:0:0:0:
329,192,25844,1,0,0:0:0:0:
182,192,25923,1,0,0:0:0:0:
256,192,26002,1,0,0:0:0:0:
109,192,26081,1,0,0:0:0:0:
36,192,26160,1,0,0:0:0:0:
182,192,26160,128,0,26318:0:0:0:0:
329,192,26160,128,0,26476:0:0:0:0:
109,192,26318,128,0,26476:0:0:0:0:
36,192,26476,1,0,0:0:0:0:
182,192,26476,128,0,26634:0:0:0:0:
256,192,26476,128,0,26791:0:0:0:0:
475,192,26476,128,0,26634:0:0:0:0:
109,192,26634,128,0,26791:0:0:0:0:
402,192,26634,1,0,0:0:0:0:
475,192,26791,128,0,26949:0:0:0:0:
329,192,26791,128,0,27107:0:0:0:0:
182,192,26791,128,0,26949:0:0:0:0:
36,192,26791,128,0,27107:0:0:0:0:
402,192,26791,128,0,26870:0:0:0:0:
256,192,26870,128,0,26949:0:0:0:0:
109,192,26949,128,0,27028:0:0:0:0:
402,192,27028,128,0,27107:0:0:0:0:
182,192,27107,1,0,0:0:0:0:
475,192,27107,128,0,27186:0:0:0:0:
256,192,27186,1,0,0:0:0:0:
109,192,27186,128,0,27265:0:0:0:0:
475,192,27265,128,0,27581:0:0:0:0:
36,192,27265,1,0,0:0:0:0:
182,192,27265,1,0,0:0:0:0:
329,192,27265,1,0,0:0:0:0:
402,192,27265,1,0,0:0:0:0:
36,192,27581,128,0,27897:0:0:0:0:
402,192,27581,1,0,0:0:0:0:
109,192,27581,1,0,0:0:0:0:
256,192,27581,1,0,0:0:0:0:
109,192,27897,1,0,0:0:0:0:
256,192,27897,1,0,0:0:0:0:
475,192,27897,1,0,0:0:0:0:
402,192,27897,1,0,0:0:0:0:
256,192,28212,1,0,0:0:0:0:
475,192,28212,128,0,28370:0:0:0:0:
36,192,28212,128,0,28370:0:0:0:0:
402,192,28291,128,0,28449:0:0:0:0:
109,192,28291,128,0,28449:0:0:0:0:
329,192,28370,128,0,28528:0:0:0:0:
182,192,28370,128,0,28528:0:0:0:0:
256,192,28449,128,0,28607:0:0:0:0:
402,192,28528,1,0,0:0:0:0:
36,192,28528,128,0,29318:0:0:0:0:
475,192,28528,128,0,29318:0:0:0:0:
109,192,28528,128,0,28686:0:0:0:0:
182,192,28607,128,0,28765:0:0:0:0:
329,192,28686,128,0,28844:0:0:0:0:
402,192,28765,128,0,28923:0:0:0:0:
256,192,28844,1,0,0:0:0:0:
109,192,28844,128,0,29002:0:0:0:0:
182,192,28923,128,0,29081:0:0:0:0:
256,192,29002,1,0,0:0:0:0:
329,192,29002,128,0,29160:0:0:0:0:
402,192,29081,128,0,29239:0:0:0:0:
256,192,29160,128,0,29239:0:0:0:0:
329,192,29239,128,0,29318:0:0:0:0:
256,192,29318,128,0,29634:0:0:0:0:
182,192,29318,128,0,29397:0:0:0:0:
109,192,29318,128,0,29397:0:0:0:0:
402,192,29397,128,0,29476:0:0:0:0:
475,192,29397,128,0,29476:0:0:0:0:
109,192,29476,128,0,29555:0:0:0:0:
36,192,29476,128,0,29555:0:0:0:0:
329,192,29555,128,0,29634:0:0:0:0:
402,192,29555,128,0,29634:0:0:0:0:
36,192,29634,128,0,29949:0:0:0:0:
475,192,29634,128,0,29949:0:0:0:0:
109,192,29634,128,0,29791:0:0:0:0:
182,192,29712,128,0,29870:0:0:0:0:
256,192,29791,128,0,29949:0:0:0:0:
329,192,29870,128,0,30028:0:0:0:0:
109,192,29949,128,0,30581:0:0:0:0:
402,192,29949,128,0,30581:0:0:0:0:
182,192,29949,128,0,30107:0:0:0:0:
256,192,30028,128,0,30186:0:0:0:0:
329,192,30107,128,0,30265:0:0:0:0:
475,192,30186,128,0,30344:0:0:0:0:
36,192,30265,128,0,30423:0:0:0:0:
182,192,30344,128,0,30502:0:0:0:0:
256,192,30423,128,0,30581:0:0:0:0:
329,192,30502,128,0,30660:0:0:0:0:
36,192,30581,128,0,30897:0:0:0:0:
475,192,30581,128,0,30739:0:0:0:0:
402,192,30660,128,0,30739:0:0:0:0:
329,192,30739,128,0,30897:0:0:0:0:
182,192,30739,1,0,0:0:0:0:
402,192,30818,128,0,30897:0:0:0:0:
109,192,30897,128,0,31212:0:0:0:0:
475,192,30897,128,0,31055:0:0:0:0:
256,192,30897,1,0,0:0:0:0:
402,192,30976,128,0,31055:0:0:0:0:
182,192,30976,1,0,0:0:0:0:
329,192,31055,128,0,31212:0:0:0:0:
36,192,31055,1,0,0:0:0:0:
402,192,31134,128,0,31212:0:0:0:0:
182,192,31134,1,0,0:0:0:0:
256,192,31212,128,0,31528:0:0:0:0:
36,192,31212,1,0,0:0:0:0:
475,192,31212,128,0,31370:0:0:0:0:
182,192,31291,128,0,31449:0:0:0:0:
36,192,31370,128,0,31686:0:0:0:0:
402,192,31370,128,0,31528:0:0:0:0:
109,192,31449,128,0,31607:0:0:0:0:
329,192,31528,128,0,31844:0:0:0:0:
475,192,31528,128,0,31686:0:0:0:0:
182,192,31607,128,0,31765:0:0:0:0:
109,192,31686,128,0,32002:0:0:0:0:
402,192,31686,128,0,31765:0:0:0:0:
256,192,31765,128,0,31844:0:0:0:0:
402,192,31844,128,0,32160:0:0:0:0:
36,192,31844,128,0,31923:0:0:0:0:
256,192,31923,128,0,32002:0:0:0:0:
182,192,32002,128,0,32318:0:0:0:0:
475,192,32002,128,0,32081:0:0:0:0:
329,192,32002,1,0,0:0:0:0:
329,192,32081,128,0,32160:0:0:0:0:
475,192,32160,128,0,32476:0:0:0:0:
256,192,32160,128,0,32239:0:0:0:0:
36,192,32160,1,0,0:0:0:0:
109,192,32239,128,0,32318:0:0:0:0:
256,192,32318,128,0,32476:0:0:0:0:
36,192,32318,128,0,32397:0:0:0:0:
329,192,32318,1,0,0:0:0:0:
109,192,32397,128,0,32476:0:0:0:0:
182,192,32476,1,0,0:0:0:0:
36,192,32476,1,0,0:0:0:0:
402,192,32476,1,0,0:0:0:0:
329,192,32476,1,0,0:0:0:0:
182,192,32634,1,0,0:0:0:0:
109,192,32634,1,0,0:0:0:0:
402,192,32634,1,0,0:0:0:0:
329,192,32634,1,0,0:0:0:0:
182,192,32791,1,0,0:0:0:0:
109,192,32791,1,0,0:0:0:0:
402,192,32791,1,0,0:0:0:0:
329,192,32791,1,0,0:0:0:0:
402,192,32949,1,0,0:0:0:0:
329,192,32949,1,0,0:0:0:0:
182,192,32949,1,0,0:0:0:0:
109,192,32949,1,0,0:0:0:0:
256,192,33107,1,0,0:0:0:0:
36,192,33107,1,0,0:0:0:0:
475,192,33107,1,0,0:0:0:0:
109,192,33107,1,0,0:0:0:0:
402,192,33107,1,0,0:0:0:0:
256,192,33265,1,0,0:0:0:0:
36,192,33265,1,0,0:0:0:0:
475,192,33265,1,0,0:0:0:0:
109,192,33265,1,0,0:0:0:0:
402,192,33265,1,0,0:0:0:0:
329,192,33581,1,0,0:0:0:0:
256,192,33739,1,0,0:0:0:0:
109,192,33739,1,0,0:0:0:0:
402,192,33739,1,0,0:0:0:0:
329,192,34055,1,0,0:0:0:0:
329,192,34370,1,0,0:0:0:0:
329,192,34686,1,0,0:0:0:0:
329,192,35002,1,0,0:0:0:0:
329,192,35318,1,0,0:0:0:0:
329,192,35634,1,0,0:0:0:0:
329,192,35949,1,0,0:0:0:0:
182,192,36107,1,0,0:0:0:0:
329,192,36265,1,0,0:0:0:0:
182,192,36265,1,0,0:0:0:0:
109,192,36265,1,0,0:0:0:0:
182,192,36581,1,0,0:0:0:0:
182,192,36897,1,0,0:0:0:0:
182,192,37212,1,0,0:0:0:0:
182,192,37528,1,0,0:0:0:0:
182,192,37844,1,0,0:0:0:0:
182,192,38160,1,0,0:0:0:0:
256,192,38318,1,0,0:0:0:0:
475,192,38318,128,0,38476:0:0:0:0:
182,192,38476,1,0,0:0:0:0:
329,192,38634,1,0,0:0:0:0:
329,192,38791,1,0,0:0:0:0:
402,192,38791,1,0,0:0:0:0:
109,192,38791,1,0,0:0:0:0:
329,192,39107,1,0,0:0:0:0:
329,192,39423,1,0,0:0:0:0:
329,192,39739,1,0,0:0:0:0:
329,192,40055,1,0,0:0:0:0:
329,192,40370,1,0,0:0:0:0:
329,192,40686,1,0,0:0:0:0:
329,192,41002,1,0,0:0:0:0:
182,192,41160,1,0,0:0:0:0:
182,192,41318,1,0,0:0:0:0:
109,192,41318,1,0,0:0:0:0:
182,192,41634,1,0,0:0:0:0:
182,192,41949,1,0,0:0:0:0:
182,192,42265,1,0,0:0:0:0:
182,192,42581,1,0,0:0:0:0:
182,192,42897,1,0,0:0:0:0:
36,192,43055,1,0,0:0:0:0:
182,192,43212,1,0,0:0:0:0:
109,192,43370,1,0,0:0:0:0:
182,192,43528,128,0,43686:0:0:0:0:
329,192,43686,1,0,0:0:0:0:
109,192,43686,1,0,0:0:0:0:
36,192,43844,1,0,0:0:0:0:
256,192,43844,1,0,0:0:0:0:
475,192,43844,1,0,0:0:0:0:
475,192,44160,1,0,0:0:0:0:
475,192,44476,1,0,0:0:0:0:
475,192,44791,1,0,0:0:0:0:
256,192,44949,1,0,0:0:0:0:
329,192,45107,1,0,0:0:0:0:
36,192,45107,1,0,0:0:0:0:
109,192,45107,1,0,0:0:0:0:
36,192,45423,1,0,0:0:0:0:
36,192,45739,1,0,0:0:0:0:
36,192,46055,1,0,0:0:0:0:
329,192,46212,1,0,0:0:0:0:
329,192,46370,1,0,0:0:0:0:
256,192,46370,1,0,0:0:0:0:
475,192,46370,1,0,0:0:0:0:
256,192,46686,1,0,0:0:0:0:
256,192,47002,1,0,0:0:0:0:
36,192,47160,1,0,0:0:0:0:
256,192,47318,1,0,0:0:0:0:
402,192,47476,1,0,0:0:0:0:
256,192,47634,1,0,0:0:0:0:
329,192,47634,1,0,0:0:0:0:
109,192,47634,1,0,0:0:0:0:
256,192,47949,1,0,0:0:0:0:
109,192,48107,1,0,0:0:0:0:
36,192,48107,1,0,0:0:0:0:
402,192,48107,128,0,48265:0:0:0:0:
256,192,48265,1,0,0:0:0:0:
402,192,48423,1,0,0:0:0:0:
475,192,48423,1,0,0:0:0:0:
109,192,48423,128,0,48581:0:0:0:0:
256,192,48581,1,0,0:0:0:0:
109,192,48739,1,0,0:0:0:0:
182,192,48818,1,0,0:0:0:0:
256,192,48897,1,0,0:0:0:0:
475,192,48897,1,0,0:0:0:0:
256,192,49212,1,0,0:0:0:0:
475,192,49212,1,0,0:0:0:0:
256,192,49528,1,0,0:0:0:0:
475,192,49528,1,0,0:0:0:0:
256,192,49844,1,0,0:0:0:0:
475,192,49844,1,0,0:0:0:0:
256,192,50160,1,0,0:0:0:0:
475,192,50160,1,0,0:0:0:0:
256,192,50476,1,0,0:0:0:0:
475,192,50476,1,0,0:0:0:0:
256,192,50791,1,0,0:0:0:0:
475,192,50791,1,0,0:0:0:0:
256,192,51107,1,0,0:0:0:0:
475,192,51107,1,0,0:0:0:0:
402,192,51265,1,0,0:0:0:0:
256,192,51423,1,0,0:0:0:0:
36,192,51423,1,0,0:0:0:0:
475,192,51423,1,0,0:0:0:0:
109,192,51581,1,0,0:0:0:0:
475,192,51581,1,0,0:0:0:0:
256,192,51739,1,0,0:0:0:0:
36,192,51739,1,0,0:0:0:0:
475,192,51739,1,0,0:0:0:0:
182,192,51897,1,0,0:0:0:0:
475,192,51897,1,0,0:0:0:0:
256,192,52055,1,0,0:0:0:0:
36,192,52055,1,0,0:0:0:0:
475,192,52055,1,0,0:0:0:0:
329,192,52212,1,0,0:0:0:0:
475,192,52212,1,0,0:0:0:0:
256,192,52370,1,0,0:0:0:0:
36,192,52370,1,0,0:0:0:0:
475,192,52370,1,0,0:0:0:0:
182,192,52528,1,0,0:0:0:0:
475,192,52528,1,0,0:0:0:0:
256,192,52686,1,0,0:0:0:0:
36,192,52686,1,0,0:0:0:0:
475,192,52686,1,0,0:0:0:0:
256,192,52844,1,0,0:0:0:0:
36,192,52844,1,0,0:0:0:0:
475,192,52844,1,0,0:0:0:0:
36,192,53002,1,0,0:0:0:0:
256,192,53002,1,0,0:0:0:0:
475,192,53002,1,0,0:0:0:0:
109,192,53160,1,0,0:0:0:0:
256,192,53160,1,0,0:0:0:0:
475,192,53160,1,0,0:0:0:0:
182,192,53318,1,0,0:0:0:0:
256,192,53318,1,0,0:0:0:0:
475,192,53318,1,0,0:0:0:0:
402,192,53397,1,0,0:0:0:0:
109,192,53476,1,0,0:0:0:0:
182,192,53555,1,0,0:0:0:0:
36,192,53634,1,0,0:0:0:0:
402,192,53634,1,0,0:0:0:0:
329,192,53712,1,0,0:0:0:0:
256,192,53791,1,0,0:0:0:0:
109,192,53791,1,0,0:0:0:0:
329,192,53870,1,0,0:0:0:0:
402,192,53949,1,0,0:0:0:0:
36,192,53949,1,0,0:0:0:0:
182,192,53949,128,0,55212:0:0:0:0:
475,192,53949,128,0,54028:0:0:0:0:
329,192,54107,1,0,0:0:0:0:
402,192,54265,1,0,0:0:0:0:
36,192,54265,1,0,0:0:0:0:
256,192,54265,128,0,54344:0:0:0:0:
109,192,54423,1,0,0:0:0:0:
329,192,54581,1,0,0:0:0:0:
475,192,54581,1,0,0:0:0:0:
36,192,54581,128,0,54660:0:0:0:0:
402,192,54739,1,0,0:0:0:0:
109,192,54897,1,0,0:0:0:0:
256,192,54897,1,0,0:0:0:0:
402,192,54897,128,0,54976:0:0:0:0:
475,192,55055,1,0,0:0:0:0:
256,192,55212,128,0,56476:0:0:0:0:
36,192,55212,1,0,0:0:0:0:
329,192,55212,128,0,55291:0:0:0:0:
109,192,55370,1,0,0:0:0:0:
182,192,55528,1,0,0:0:0:0:
475,192,55528,128,0,55607:0:0:0:0:
329,192,55528,1,0,0:0:0:0:
36,192,55686,1,0,0:0:0:0:
402,192,55844,1,0,0:0:0:0:
109,192,55844,128,0,55923:0:0:0:0:
182,192,55844,1,0,0:0:0:0:
329,192,56002,1,0,0:0:0:0:
402,192,56160,1,0,0:0:0:0:
475,192,56160,1,0,0:0:0:0:
182,192,56160,128,0,56239:0:0:0:0:
109,192,56318,1,0,0:0:0:0:
329,192,56476,128,0,57739:0:0:0:0:
36,192,56476,1,0,0:0:0:0:
475,192,56476,128,0,56555:0:0:0:0:
182,192,56476,1,0,0:0:0:0:
109,192,56634,1,0,0:0:0:0:
256,192,56791,1,0,0:0:0:0:
36,192,56791,1,0,0:0:0:0:
402,192,56791,128,0,56870:0:0:0:0:
475,192,56949,1,0,0:0:0:0:
109,192,57107,1,0,0:0:0:0:
256,192,57107,128,0,57186:0:0:0:0:
475,192,57265,1,0,0:0:0:0:
182,192,57265,1,0,0:0:0:0:
36,192,57423,1,0,0:0:0:0:
402,192,57423,1,0,0:0:0:0:
182,192,57423,128,0,57502:0:0:0:0:
109,192,57581,1,0,0:0:0:0:
402,192,57739,128,0,59002:0:0:0:0:
256,192,57739,1,0,0:0:0:0:
36,192,57739,128,0,57818:0:0:0:0:
182,192,57897,1,0,0:0:0:0:
256,192,58055,1,0,0:0:0:0:
475,192,58055,1,0,0:0:0:0:
109,192,58055,128,0,58134:0:0:0:0:
182,192,58212,1,0,0:0:0:0:
329,192,58370,1,0,0:0:0:0:
36,192,58370,128,0,58449:0:0:0:0:
475,192,58528,1,0,0:0:0:0:
109,192,58528,1,0,0:0:0:0:
36,192,58686,1,0,0:0:0:0:
329,192,58686,1,0,0:0:0:0:
256,192,58686,128,0,58765:0:0:0:0:
109,192,58844,1,0,0:0:0:0:
475,192,59002,128,0,60265:0:0:0:0:
182,192,59002,1,0,0:0:0:0:
36,192,59002,128,0,59081:0:0:0:0:
256,192,59160,1,0,0:0:0:0:
109,192,59318,1,0,0:0:0:0:
402,192,59318,1,0,0:0:0:0:
329,192,59318,128,0,59397:0:0:0:0:
182,192,59476,1,0,0:0:0:0:
256,192,59634,1,0,0:0:0:0:
36,192,59634,1,0,0:0:0:0:
109,192,59634,128,0,59712:0:0:0:0:
182,192,59791,1,0,0:0:0:0:
256,192,59949,1,0,0:0:0:0:
36,192,59949,1,0,0:0:0:0:
402,192,59949,128,0,60028:0:0:0:0:
329,192,60107,1,0,0:0:0:0:
256,192,60265,128,0,61528:0:0:0:0:
182,192,60265,128,0,60344:0:0:0:0:
402,192,60265,1,0,0:0:0:0:
36,192,60265,1,0,0:0:0:0:
329,192,60423,1,0,0:0:0:0:
109,192,60581,128,0,60660:0:0:0:0:
475,192,60581,1,0,0:0:0:0:
402,192,60581,1,0,0:0:0:0:
329,192,60739,1,0,0:0:0:0:
182,192,60897,128,0,60976:0:0:0:0:
109,192,60897,1,0,0:0:0:0:
402,192,60897,1,0,0:0:0:0:
36,192,61055,1,0,0:0:0:0:
402,192,61212,128,0,61291:0:0:0:0:
182,192,61212,1,0,0:0:0:0:
329,192,61212,1,0,0:0:0:0:
475,192,61370,1,0,0:0:0:0:
109,192,61528,128,0,64055:0:0:0:0:
402,192,61528,128,0,62791:0:0:0:0:
329,192,61528,128,0,61607:0:0:0:0:
182,192,61528,1,0,0:0:0:0:
256,192,61686,1,0,0:0:0:0:
182,192,61844,1,0,0:0:0:0:
36,192,61844,128,0,61923:0:0:0:0:
256,192,62002,1,0,0:0:0:0:
329,192,62160,1,0,0:0:0:0:
475,192,62160,128,0,62239:0:0:0:0:
182,192,62318,1,0,0:0:0:0:
329,192,62476,1,0,0:0:0:0:
36,192,62476,1,0,0:0:0:0:
256,192,62476,128,0,62555:0:0:0:0:
475,192,62634,1,0,0:0:0:0:
329,192,62791,128,0,63107:0:0:0:0:
182,192,62791,128,0,62870:0:0:0:0:
256,192,62791,1,0,0:0:0:0:
402,192,62949,128,0,63107:0:0:0:0:
475,192,63107,128,0,63423:0:0:0:0:
256,192,63107,128,0,63186:0:0:0:0:
329,192,63265,1,0,0:0:0:0:
402,192,63423,128,0,63739:0:0:0:0:
256,192,63423,1,0,0:0:0:0:
182,192,63423,1,0,0:0:0:0:
329,192,63581,1,0,0:0:0:0:
182,192,63660,1,0,0:0:0:0:
329,192,63739,128,0,64055:0:0:0:0:
256,192,63739,1,0,0:0:0:0:
475,192,63897,1,0,0:0:0:0:
402,192,63976,1,0,0:0:0:0:
182,192,64055,1,0,0:0:0:0:
36,192,64055,1,0,0:0:0:0:
256,192,64055,128,0,65318:0:0:0:0:
109,192,64212,1,0,0:0:0:0:
329,192,64370,1,0,0:0:0:0:
475,192,64370,1,0,0:0:0:0:
36,192,64370,1,0,0:0:0:0:
182,192,64528,1,0,0:0:0:0:
402,192,64686,1,0,0:0:0:0:
475,192,64686,1,0,0:0:0:0:
109,192,64686,1,0,0:0:0:0:
36,192,64844,1,0,0:0:0:0:
109,192,65002,1,0,0:0:0:0:
329,192,65002,1,0,0:0:0:0:
402,192,65002,1,0,0:0:0:0:
475,192,65160,1,0,0:0:0:0:
182,192,65318,128,0,66581:0:0:0:0:
402,192,65318,1,0,0:0:0:0:
109,192,65318,1,0,0:0:0:0:
36,192,65476,1,0,0:0:0:0:
256,192,65634,1,0,0:0:0:0:
475,192,65634,1,0,0:0:0:0:
329,192,65791,1,0,0:0:0:0:
36,192,65949,1,0,0:0:0:0:
256,192,65949,1,0,0:0:0:0:
402,192,65949,1,0,0:0:0:0:
109,192,66107,1,0,0:0:0:0:
256,192,66265,1,0,0:0:0:0:
475,192,66265,1,0,0:0:0:0:
402,192,66423,1,0,0:0:0:0:
109,192,66581,128,0,67844:0:0:0:0:
329,192,66581,1,0,0:0:0:0:
36,192,66581,1,0,0:0:0:0:
475,192,66581,1,0,0:0:0:0:
256,192,66739,1,0,0:0:0:0:
329,192,66897,1,0,0:0:0:0:
475,192,66897,1,0,0:0:0:0:
36,192,66897,1,0,0:0:0:0:
182,192,67055,1,0,0:0:0:0:
256,192,67212,1,0,0:0:0:0:
402,192,67212,1,0,0:0:0:0:
329,192,67212,1,0,0:0:0:0:
475,192,67370,1,0,0:0:0:0:
36,192,67528,1,0,0:0:0:0:
182,192,67528,1,0,0:0:0:0:
256,192,67528,1,0,0:0:0:0:
402,192,67686,1,0,0:0:0:0:
36,192,67844,128,0,68949:0:0:0:0:
182,192,67844,1,0,0:0:0:0:
475,192,67844,1,0,0:0:0:0:
329,192,67844,1,0,0:0:0:0:
256,192,68002,1,0,0:0:0:0:
182,192,68160,1,0,0:0:0:0:
329,192,68160,1,0,0:0:0:0:
402,192,68160,1,0,0:0:0:0:
475,192,68318,1,0,0:0:0:0:
256,192,68476,1,0,0:0:0:0:
182,192,68476,1,0,0:0:0:0:
329,192,68476,1,0,0:0:0:0:
109,192,68634,128,0,68791:0:0:0:0:
402,192,68634,1,0,0:0:0:0:
182,192,68791,128,0,68949:0:0:0:0:
475,192,68791,1,0,0:0:0:0:
329,192,68791,1,0,0:0:0:0:
256,192,68949,128,0,70212:0:0:0:0:
402,192,68949,1,0,0:0:0:0:
109,192,69107,1,0,0:0:0:0:
329,192,69107,1,0,0:0:0:0:
475,192,69107,1,0,0:0:0:0:
182,192,69265,1,0,0:0:0:0:
36,192,69423,1,0,0:0:0:0:
109,192,69423,1,0,0:0:0:0:
329,192,69423,1,0,0:0:0:0:
402,192,69581,1,0,0:0:0:0:
36,192,69739,1,0,0:0:0:0:
329,192,69739,1,0,0:0:0:0:
475,192,69739,1,0,0:0:0:0:
109,192,69897,1,0,0:0:0:0:
36,192,70055,1,0,0:0:0:0:
402,192,70055,1,0,0:0:0:0:
475,192,70055,1,0,0:0:0:0:
329,192,70212,128,0,70370:0:0:0:0:
182,192,70212,128,0,70686:0:0:0:0:
109,192,70370,128,0,70528:0:0:0:0:
402,192,70370,128,0,70528:0:0:0:0:
36,192,70528,128,0,70686:0:0:0:0:
475,192,70528,128,0,70686:0:0:0:0:
109,192,70686,128,0,71160:0:0:0:0:
329,192,70686,128,0,70844:0:0:0:0:
256,192,70844,128,0,71002:0:0:0:0:
475,192,70844,128,0,71002:0:0:0:0:
402,192,71002,128,0,71160:0:0:0:0:
329,192,71002,128,0,71160:0:0:0:0:
36,192,71160,128,0,71634:0:0:0:0:
182,192,71160,128,0,71318:0:0:0:0:
256,192,71318,128,0,71476:0:0:0:0:
475,192,71318,128,0,71476:0:0:0:0:
329,192,71476,128,0,71634:0:0:0:0:
109,192,71476,128,0,71634:0:0:0:0:
402,192,71634,128,0,71949:0:0:0:0:
182,192,71634,128,0,72897:0:0:0:0:
256,192,71791,1,0,0:0:0:0:
36,192,71949,1,0,0:0:0:0:
329,192,71949,1,0,0:0:0:0:
475,192,71949,1,0,0:0:0:0:
256,192,72107,1,0,0:0:0:0:
109,192,72265,1,0,0:0:0:0:
329,192,72265,1,0,0:0:0:0:
402,192,72265,1,0,0:0:0:0:
256,192,72423,1,0,0:0:0:0:
475,192,72423,128,0,72581:0:0:0:0:
36,192,72581,1,0,0:0:0:0:
329,192,72581,1,0,0:0:0:0:
402,192,72739,1,0,0:0:0:0:
109,192,72739,128,0,72897:0:0:0:0:
256,192,72818,1,0,0:0:0:0:
329,192,72897,1,0,0:0:0:0:
475,192,72897,1,0,0:0:0:0:
36,192,72897,128,0,73528:0:0:0:0:
329,192,73055,1,0,0:0:0:0:
475,192,73055,128,0,73212:0:0:0:0:
329,192,73212,1,0,0:0:0:0:
109,192,73212,1,0,0:0:0:0:
475,192,73291,1,0,0:0:0:0:
182,192,73291,1,0,0:0:0:0:
402,192,73370,1,0,0:0:0:0:
256,192,73370,1,0,0:0:0:0:
402,192,73528,1,0,0:0:0:0:
329,192,73528,1,0,0:0:0:0:
475,192,73528,128,0,74160:0:0:0:0:
109,192,73686,1,0,0:0:0:0:
402,192,73686,1,0,0:0:0:0:
36,192,73765,1,0,0:0:0:0:
329,192,73765,1,0,0:0:0:0:
182,192,73844,1,0,0:0:0:0:
256,192,73844,1,0,0:0:0:0:
109,192,74002,1,0,0:0:0:0:
182,192,74081,1,0,0:0:0:0:
256,192,74160,1,0,0:0:0:0:
402,192,74160,1,0,0:0:0:0:
36,192,74160,1,0,0:0:0:0:
402,192,74318,1,0,0:0:0:0:
329,192,74318,1,0,0:0:0:0:
109,192,74476,1,0,0:0:0:0:
182,192,74476,1,0,0:0:0:0:
402,192,74634,1,0,0:0:0:0:
329,192,74634,1,0,0:0:0:0:
182,192,74791,128,0,75265:0:0:0:0:
109,192,74791,128,0,75265:0:0:0:0:
36,192,74791,128,0,75265:0:0:0:0:
475,192,75107,128,0,75265:0:0:0:0:
329,192,75107,128,0,75265:0:0:0:0:
402,192,75265,128,0,75423:0:0:0:0:
256,192,75265,128,0,75423:0:0:0:0:
475,192,75423,1,0,0:0:0:0:
36,192,75423,1,0,0:0:0:0:
182,192,75423,1,0,0:0:0:0:
329,192,75423,1,0,0:0:0:0:
109,192,75581,1,0,0:0:0:0:
182,192,75581,1,0,0:0:0:0:
475,192,75739,1,0,0:0:0:0:
329,192,75739,1,0,0:0:0:0:
182,192,75897,1,0,0:0:0:0:
109,192,75897,1,0,0:0:0:0:
475,192,76055,128,0,76528:0:0:0:0:
402,192,76055,128,0,76528:0:0:0:0:
329,192,76055,128,0,76528:0:0:0:0:
36,192,76370,1,0,0:0:0:0:
109,192,76528,1,0,0:0:0:0:
36,192,76686,1,0,0:0:0:0:
182,192,76686,1,0,0:0:0:0:
475,192,76686,1,0,0:0:0:0:
329,192,76686,1,0,0:0:0:0:
109,192,76844,1,0,0:0:0:0:
402,192,76844,1,0,0:0:0:0:
329,192,76844,1,0,0:0:0:0:
109,192,77002,1,0,0:0:0:0:
256,192,77002,1,0,0:0:0:0:
36,192,77002,1,0,0:0:0:0:
182,192,77160,1,0,0:0:0:0:
475,192,77160,1,0,0:0:0:0:
329,192,77160,1,0,0:0:0:0:
109,192,77318,128,0,77949:0:0:0:0:
36,192,77318,128,0,77949:0:0:0:0:
402,192,77318,128,0,77949:0:0:0:0:
475,192,77318,128,0,77949:0:0:0:0:
182,192,77949,1,0,0:0:0:0:
256,192,77949,1,0,0:0:0:0:
329,192,77949,1,0,0:0:0:0:
36,192,78107,1,0,0:0:0:0:
475,192,78107,1,0,0:0:0:0:
402,192,78107,1,0,0:0:0:0:
109,192,78107,1,0,0:0:0:0:
109,192,78265,1,0,0:0:0:0:
182,192,78265,1,0,0:0:0:0:
329,192,78265,1,0,0:0:0:0:
402,192,78265,1,0,0:0:0:0:
182,192,78423,1,0,0:0:0:0:
109,192,78423,1,0,0:0:0:0:
329,192,78423,1,0,0:0:0:0:
402,192,78423,1,0,0:0:0:0:
36,192,78581,1,0,0:0:0:0:
109,192,78581,1,0,0:0:0:0:
475,192,78581,1,0,0:0:0:0:
402,192,78581,1,0,0:0:0:0:
256,192,78581,128,0,78897:0:0:0:0:
36,192,78739,1,0,0:0:0:0:
402,192,78739,1,0,0:0:0:0:
329,192,78897,128,0,79212:0:0:0:0:
475,192,78897,1,0,0:0:0:0:
182,192,78897,1,0,0:0:0:0:
109,192,78897,1,0,0:0:0:0:
256,192,79055,1,0,0:0:0:0:
109,192,79055,1,0,0:0:0:0:
402,192,79212,128,0,80081:0:0:0:0:
182,192,79212,1,0,0:0:0:0:
36,192,79212,1,0,0:0:0:0:
475,192,79212,1,0,0:0:0:0:
475,192,80160,1,0,0:0:0:0:
475,192,80318,128,0,80791:0:0:0:0:
182,192,81107,128,0,81423:0:0:0:0:
256,192,81423,128,0,81739:0:0:0:0:
36,192,81581,1,0,0:0:0:0:
475,192,81581,1,0,0:0:0:0:
109,192,81660,1,0,0:0:0:0:
329,192,81739,128,0,82134:0:0:0:0:
36,192,81739,1,0,0:0:0:0:
475,192,81739,1,0,0:0:0:0:
182,192,81739,1,0,0:0:0:0:
36,192,81897,1,0,0:0:0:0:
475,192,81897,1,0,0:0:0:0:
182,192,81897,1,0,0:0:0:0:
36,192,82055,1,0,0:0:0:0:
182,192,82055,1,0,0:0:0:0:
475,192,82055,1,0,0:0:0:0:
182,192,82212,1,0,0:0:0:0:
36,192,82212,1,0,0:0:0:0:
475,192,82212,1,0,0:0:0:0:
256,192,82212,1,0,0:0:0:0:
256,192,82370,128,0,82844:0:0:0:0:
36,192,82370,1,0,0:0:0:0:
182,192,82370,1,0,0:0:0:0:
475,192,82370,1,0,0:0:0:0:
329,192,82370,1,0,0:0:0:0:
109,192,82449,1,0,0:0:0:0:
402,192,82449,1,0,0:0:0:0:
36,192,82528,1,0,0:0:0:0:
475,192,82528,1,0,0:0:0:0:
109,192,82607,1,0,0:0:0:0:
402,192,82607,1,0,0:0:0:0:
182,192,82686,1,0,0:0:0:0:
329,192,82686,1,0,0:0:0:0:
109,192,82765,1,0,0:0:0:0:
402,192,82765,1,0,0:0:0:0:
36,192,82844,1,0,0:0:0:0:
475,192,82844,1,0,0:0:0:0:
256,192,83002,1,0,0:0:0:0:
36,192,83160,1,0,0:0:0:0:
182,192,83160,1,0,0:0:0:0:
329,192,83160,1,0,0:0:0:0:
475,192,83160,1,0,0:0:0:0:
182,192,83318,1,0,0:0:0:0:
36,192,83318,1,0,0:0:0:0:
329,192,83318,1,0,0:0:0:0:
475,192,83318,1,0,0:0:0:0:
256,192,83318,1,0,0:0:0:0:
182,192,83949,128,0,84265:0:0:0:0:
36,192,84265,128,0,85528:0:0:0:0:
475,192,84265,1,0,0:0:0:0:
109,192,84265,1,0,0:0:0:0:
329,192,84265,1,0,0:0:0:0:
256,192,84344,1,0,0:0:0:0:
182,192,84423,1,0,0:0:0:0:
109,192,84502,1,0,0:0:0:0:
402,192,84581,1,0,0:0:0:0:
256,192,84581,1,0,0:0:0:0:
475,192,84581,1,0,0:0:0:0:
182,192,84660,1,0,0:0:0:0:
402,192,84739,1,0,0:0:0:0:
256,192,84818,1,0,0:0:0:0:
329,192,84897,1,0,0:0:0:0:
475,192,84897,1,0,0:0:0:0:
109,192,84897,1,0,0:0:0:0:
256,192,84976,1,0,0:0:0:0:
182,192,85055,1,0,0:0:0:0:
402,192,85134,1,0,0:0:0:0:
475,192,85212,1,0,0:0:0:0:
109,192,85212,1,0,0:0:0:0:
256,192,85212,1,0,0:0:0:0:
329,192,85291,1,0,0:0:0:0:
402,192,85370,1,0,0:0:0:0:
182,192,85449,1,0,0:0:0:0:
256,192,85528,128,0,86791:0:0:0:0:
475,192,85528,1,0,0:0:0:0:
329,192,85528,1,0,0:0:0:0:
109,192,85607,1,0,0:0:0:0:
402,192,85686,1,0,0:0:0:0:
182,192,85765,1,0,0:0:0:0:
36,192,85844,1,0,0:0:0:0:
329,192,85844,1,0,0:0:0:0:
475,192,85844,1,0,0:0:0:0:
402,192,85923,1,0,0:0:0:0:
182,192,86002,1,0,0:0:0:0:
109,192,86081,1,0,0:0:0:0:
329,192,86160,1,0,0:0:0:0:
182,192,86160,1,0,0:0:0:0:
36,192,86160,1,0,0:0:0:0:
402,192,86239,1,0,0:0:0:0:
475,192,86318,1,0,0:0:0:0:
329,192,86397,1,0,0:0:0:0:
475,192,86476,1,0,0:0:0:0:
182,192,86476,1,0,0:0:0:0:
36,192,86476,1,0,0:0:0:0:
402,192,86555,1,0,0:0:0:0:
109,192,86634,1,0,0:0:0:0:
182,192,86712,1,0,0:0:0:0:
475,192,86791,128,0,88055:0:0:0:0:
329,192,86791,1,0,0:0:0:0:
36,192,86791,128,0,86949:0:0:0:0:
402,192,86791,1,0,0:0:0:0:
182,192,86870,1,0,0:0:0:0:
109,192,86949,1,0,0:0:0:0:
182,192,87028,1,0,0:0:0:0:
329,192,87107,1,0,0:0:0:0:
109,192,87107,128,0,87265:0:0:0:0:
256,192,87107,1,0,0:0:0:0:
402,192,87186,1,0,0:0:0:0:
36,192,87265,1,0,0:0:0:0:
182,192,87265,1,0,0:0:0:0:
329,192,87344,1,0,0:0:0:0:
36,192,87423,1,0,0:0:0:0:
256,192,87423,128,0,87581:0:0:0:0:
402,192,87423,1,0,0:0:0:0:
109,192,87502,1,0,0:0:0:0:
402,192,87581,1,0,0:0:0:0:
182,192,87660,1,0,0:0:0:0:
36,192,87739,1,0,0:0:0:0:
329,192,87739,128,0,87897:0:0:0:0:
256,192,87739,1,0,0:0:0:0:
182,192,87818,1,0,0:0:0:0:
109,192,87897,1,0,0:0:0:0:
182,192,87976,1,0,0:0:0:0:
109,192,88055,128,0,89318:0:0:0:0:
36,192,88055,1,0,0:0:0:0:
329,192,88055,1,0,0:0:0:0:
256,192,88055,128,0,88212:0:0:0:0:
475,192,88134,1,0,0:0:0:0:
402,192,88212,1,0,0:0:0:0:
329,192,88291,1,0,0:0:0:0:
402,192,88370,1,0,0:0:0:0:
182,192,88370,128,0,88528:0:0:0:0:
36,192,88370,1,0,0:0:0:0:
329,192,88449,1,0,0:0:0:0:
256,192,88528,1,0,0:0:0:0:
329,192,88607,1,0,0:0:0:0:
475,192,88686,1,0,0:0:0:0:
402,192,88686,128,0,88844:0:0:0:0:
36,192,88686,1,0,0:0:0:0:
182,192,88765,1,0,0:0:0:0:
256,192,88844,1,0,0:0:0:0:
329,192,88844,1,0,0:0:0:0:
475,192,88923,1,0,0:0:0:0:
36,192,89002,1,0,0:0:0:0:
256,192,89002,128,0,89160:0:0:0:0:
329,192,89002,1,0,0:0:0:0:
475,192,89081,1,0,0:0:0:0:
402,192,89160,1,0,0:0:0:0:
329,192,89239,1,0,0:0:0:0:
402,192,89318,128,0,90581:0:0:0:0:
36,192,89318,128,0,89634:0:0:0:0:
475,192,89318,1,0,0:0:0:0:
256,192,89318,1,0,0:0:0:0:
182,192,89397,1,0,0:0:0:0:
329,192,89476,1,0,0:0:0:0:
256,192,89555,1,0,0:0:0:0:
109,192,89634,128,0,89949:0:0:0:0:
475,192,89634,1,0,0:0:0:0:
329,192,89634,1,0,0:0:0:0:
182,192,89712,1,0,0:0:0:0:
256,192,89791,1,0,0:0:0:0:
36,192,89870,1,0,0:0:0:0:
182,192,89949,128,0,90265:0:0:0:0:
329,192,89949,1,0,0:0:0:0:
475,192,89949,1,0,0:0:0:0:
256,192,90028,1,0,0:0:0:0:
109,192,90107,1,0,0:0:0:0:
475,192,90186,1,0,0:0:0:0:
256,192,90265,128,0,90581:0:0:0:0:
36,192,90265,1,0,0:0:0:0:
329,192,90265,1,0,0:0:0:0:
109,192,90344,1,0,0:0:0:0:
182,192,90423,1,0,0:0:0:0:
329,192,90502,1,0,0:0:0:0:
182,192,90581,128,0,91844:0:0:0:0:
36,192,90581,128,0,90897:0:0:0:0:
475,192,90581,1,0,0:0:0:0:
109,192,90581,1,0,0:0:0:0:
402,192,90660,1,0,0:0:0:0:
256,192,90739,1,0,0:0:0:0:
109,192,90818,1,0,0:0:0:0:
329,192,90897,128,0,91212:0:0:0:0:
402,192,90897,1,0,0:0:0:0:
475,192,90897,1,0,0:0:0:0:
109,192,90976,1,0,0:0:0:0:
475,192,91055,1,0,0:0:0:0:
36,192,91134,1,0,0:0:0:0:
475,192,91212,128,0,91528:0:0:0:0:
256,192,91212,1,0,0:0:0:0:
109,192,91212,1,0,0:0:0:0:
329,192,91291,1,0,0:0:0:0:
402,192,91370,1,0,0:0:0:0:
109,192,91449,1,0,0:0:0:0:
402,192,91528,128,0,91844:0:0:0:0:
329,192,91528,1,0,0:0:0:0:
36,192,91528,1,0,0:0:0:0:
256,192,91607,1,0,0:0:0:0:
109,192,91686,1,0,0:0:0:0:
256,192,91765,1,0,0:0:0:0:
109,192,91844,128,0,92160:0:0:0:0:
475,192,91844,128,0,92160:0:0:0:0:
36,192,91844,128,0,92002:0:0:0:0:
329,192,91844,128,0,92002:0:0:0:0:
182,192,92002,128,0,92160:0:0:0:0:
402,192,92002,128,0,92160:0:0:0:0:
329,192,92160,128,0,92476:0:0:0:0:
36,192,92160,128,0,92476:0:0:0:0:
256,192,92160,128,0,92318:0:0:0:0:
109,192,92318,128,0,92476:0:0:0:0:
402,192,92318,128,0,92476:0:0:0:0:
475,192,92476,128,0,92791:0:0:0:0:
182,192,92476,128,0,92791:0:0:0:0:
256,192,92476,128,0,92634:0:0:0:0:
329,192,92634,128,0,92791:0:0:0:0:
36,192,92634,128,0,92791:0:0:0:0:
109,192,92791,128,0,93107:0:0:0:0:
402,192,92791,128,0,93107:0:0:0:0:
256,192,92791,128,0,92949:0:0:0:0:
329,192,92949,128,0,93107:0:0:0:0:
475,192,93107,1,0,0:0:0:0:
36,192,93107,128,0,93186:0:0:0:0:
109,192,93186,128,0,93265:0:0:0:0:
182,192,93265,128,0,93344:0:0:0:0:
256,192,93344,128,0,93423:0:0:0:0:
36,192,93423,1,0,0:0:0:0:
182,192,93423,1,0,0:0:0:0:
475,192,93423,1,0,0:0:0:0:
329,192,93423,128,0,93502:0:0:0:0:
402,192,93502,128,0,93581:0:0:0:0:
329,192,93581,128,0,93660:0:0:0:0:
256,192,93660,128,0,93739:0:0:0:0:
36,192,93739,1,0,0:0:0:0:
329,192,93739,1,0,0:0:0:0:
475,192,93739,1,0,0:0:0:0:
182,192,93739,128,0,93818:0:0:0:0:
402,192,93818,1,0,0:0:0:0:
109,192,93818,128,0,93897:0:0:0:0:
329,192,93897,1,0,0:0:0:0:
182,192,93897,128,0,93976:0:0:0:0:
36,192,93976,1,0,0:0:0:0:
256,192,93976,128,0,94055:0:0:0:0:
109,192,94055,1,0,0:0:0:0:
329,192,94055,128,0,94134:0:0:0:0:
182,192,94134,1,0,0:0:0:0:
402,192,94134,128,0,94212:0:0:0:0:
475,192,94212,128,0,94291:0:0:0:0:
256,192,94212,1,0,0:0:0:0:
182,192,94291,1,0,0:0:0:0:
402,192,94291,128,0,94370:0:0:0:0:
256,192,94370,1,0,0:0:0:0:
329,192,94449,1,0,0:0:0:0:
402,192,94528,1,0,0:0:0:0:
475,192,94607,1,0,0:0:0:0:
36,192,94686,128,0,95002:0:0:0:0:
109,192,94686,128,0,94923:0:0:0:0:
182,192,94686,128,0,94844:0:0:0:0:
256,192,94686,128,0,94765:0:0:0:0:
329,192,94686,1,0,0:0:0:0:
402,192,94686,1,0,0:0:0:0:
475,192,94765,128,0,95318:0:0:0:0:
402,192,94844,128,0,95239:0:0:0:0:
329,192,94923,128,0,95160:0:0:0:0:
256,192,95002,128,0,95081:0:0:0:0:
36,192,95081,128,0,95634:0:0:0:0:
109,192,95160,128,0,95555:0:0:0:0:
182,192,95239,128,0,95476:0:0:0:0:
256,192,95318,128,0,95397:0:0:0:0:
475,192,95397,128,0,95634:0:0:0:0:
402,192,95476,128,0,95634:0:0:0:0:
329,192,95555,128,0,95634:0:0:0:0:
182,192,95634,1,0,0:0:0:0:
256,192,95634,128,0,95949:0:0:0:0:
109,192,95634,1,0,0:0:0:0:
329,192,95712,1,0,0:0:0:0:
36,192,95791,128,0,96107:0:0:0:0:
182,192,95791,1,0,0:0:0:0:
475,192,95870,1,0,0:0:0:0:
402,192,95949,128,0,96265:0:0:0:0:
109,192,95949,1,0,0:0:0:0:
329,192,96028,1,0,0:0:0:0:
182,192,96107,128,0,96423:0:0:0:0:
475,192,96107,1,0,0:0:0:0:
256,192,96186,1,0,0:0:0:0:
329,192,96265,128,0,96581:0:0:0:0:
36,192,96265,1,0,0:0:0:0:
402,192,96344,1,0,0:0:0:0:
109,192,96423,128,0,96739:0:0:0:0:
256,192,96423,1,0,0:0:0:0:
36,192,96502,1,0,0:0:0:0:
402,192,96581,128,0,96897:0:0:0:0:
182,192,96581,1,0,0:0:0:0:
475,192,96660,1,0,0:0:0:0:
256,192,96739,128,0,97055:0:0:0:0:
329,192,96739,1,0,0:0:0:0:
182,192,96818,1,0,0:0:0:0:
109,192,96897,128,0,97212:0:0:0:0:
329,192,96897,1,0,0:0:0:0:
402,192,96976,1,0,0:0:0:0:
475,192,97055,128,0,97370:0:0:0:0:
182,192,97055,1,0,0:0:0:0:
36,192,97134,1,0,0:0:0:0:
329,192,97212,128,0,97528:0:0:0:0:
256,192,97212,1,0,0:0:0:0:
182,192,97291,1,0,0:0:0:0:
36,192,97370,128,0,97686:0:0:0:0:
109,192,97370,1,0,0:0:0:0:
256,192,97449,1,0,0:0:0:0:
182,192,97528,128,0,97844:0:0:0:0:
475,192,97528,1,0,0:0:0:0:
329,192,97607,1,0,0:0:0:0:
402,192,97686,128,0,98002:0:0:0:0:
109,192,97686,1,0,0:0:0:0:
256,192,97765,1,0,0:0:0:0:
36,192,97765,1,0,0:0:0:0:
329,192,97844,1,0,0:0:0:0:
109,192,97844,1,0,0:0:0:0:
256,192,97923,1,0,0:0:0:0:
36,192,97923,1,0,0:0:0:0:
329,192,98002,1,0,0:0:0:0:
475,192,98002,1,0,0:0:0:0:
182,192,98002,1,0,0:0:0:0:
109,192,98002,128,0,98634:0:0:0:0:
475,192,98318,1,0,0:0:0:0:
36,192,98318,1,0,0:0:0:0:
402,192,98397,1,0,0:0:0:0:
182,192,98397,1,0,0:0:0:0:
329,192,98476,1,0,0:0:0:0:
36,192,98476,1,0,0:0:0:0:
402,192,98555,1,0,0:0:0:0:
182,192,98555,1,0,0:0:0:0:
36,192,98634,1,0,0:0:0:0:
475,192,98634,1,0,0:0:0:0:
329,192,98634,1,0,0:0:0:0:
36,192,98949,1,0,0:0:0:0:
182,192,98949,1,0,0:0:0:0:
256,192,98949,1,0,0:0:0:0:
402,192,98949,1,0,0:0:0:0:
36,192,99265,1,0,0:0:0:0:
329,192,99265,1,0,0:0:0:0:
475,192,99265,1,0,0:0:0:0:
256,192,99265,128,0,100055:0:0:0:0:
182,192,99581,1,0,0:0:0:0:
182,192,99739,1,0,0:0:0:0:
182,192,99897,1,0,0:0:0:0:
182,192,100055,1,0,0:0:0:0:
36,192,100055,1,0,0:0:0:0:
475,192,100055,1,0,0:0:0:0:
329,192,100055,128,0,100686:0:0:0:0:
182,192,100686,128,0,101318:0:0:0:0:
475,192,100686,1,0,0:0:0:0:
402,192,100686,1,0,0:0:0:0:
36,192,100686,128,0,101002:0:0:0:0:
475,192,100844,1,0,0:0:0:0:
402,192,100844,1,0,0:0:0:0:
475,192,101002,1,0,0:0:0:0:
402,192,101002,1,0,0:0:0:0:
109,192,101002,128,0,101318:0:0:0:0:
475,192,101160,1,0,0:0:0:0:
402,192,101160,1,0,0:0:0:0:
256,192,101318,128,0,101634:0:0:0:0:
475,192,101318,128,0,101634:0:0:0:0:
402,192,101318,128,0,101634:0:0:0:0:
329,192,101634,128,0,101949:0:0:0:0:
182,192,101634,1,0,0:0:0:0:
109,192,101634,1,0,0:0:0:0:
402,192,101949,128,0,102423:0:0:0:0:
109,192,101949,1,0,0:0:0:0:
36,192,101949,1,0,0:0:0:0:
109,192,102107,1,0,0:0:0:0:
36,192,102107,1,0,0:0:0:0:
109,192,102265,1,0,0:0:0:0:
36,192,102265,1,0,0:0:0:0:
475,192,102423,1,0,0:0:0:0:
109,192,102423,1,0,0:0:0:0:
36,192,102423,1,0,0:0:0:0:
475,192,102581,128,0,103212:0:0:0:0:
109,192,102581,128,0,103212:0:0:0:0:
36,192,102581,128,0,103212:0:0:0:0:
329,192,103212,128,0,103844:0:0:0:0:
256,192,103212,1,0,0:0:0:0:
182,192,103212,1,0,0:0:0:0:
256,192,103370,1,0,0:0:0:0:
182,192,103370,1,0,0:0:0:0:
256,192,103528,1,0,0:0:0:0:
182,192,103528,1,0,0:0:0:0:
256,192,103686,1,0,0:0:0:0:
182,192,103686,1,0,0:0:0:0:
256,192,103844,1,0,0:0:0:0:
109,192,103844,1,0,0:0:0:0:
256,192,104002,1,0,0:0:0:0:
182,192,104002,1,0,0:0:0:0:
36,192,104160,1,0,0:0:0:0:
256,192,104160,1,0,0:0:0:0:
109,192,104239,1,0,0:0:0:0:
329,192,104318,1,0,0:0:0:0:
475,192,104318,1,0,0:0:0:0:
182,192,104397,1,0,0:0:0:0:
329,192,104476,1,0,0:0:0:0:
402,192,104476,1,0,0:0:0:0:
256,192,104634,1,0,0:0:0:0:
109,192,104634,1,0,0:0:0:0:
475,192,104634,1,0,0:0:0:0:
402,192,104712,1,0,0:0:0:0:
329,192,104791,1,0,0:0:0:0:
182,192,104870,1,0,0:0:0:0:
256,192,104949,1,0,0:0:0:0:
109,192,104949,1,0,0:0:0:0:
36,192,104949,1,0,0:0:0:0:
402,192,104949,1,0,0:0:0:0:
256,192,105265,1,0,0:0:0:0:
109,192,105265,1,0,0:0:0:0:
402,192,105265,1,0,0:0:0:0:
475,192,105265,1,0,0:0:0:0:
256,192,105581,1,0,0:0:0:0:
182,192,105581,1,0,0:0:0:0:
36,192,105581,1,0,0:0:0:0:
402,192,105581,1,0,0:0:0:0:
256,192,107002,1,0,0:0:0:0:
36,192,107002,128,0,107634:0:0:0:0:
329,192,107002,1,0,0:0:0:0:
475,192,107081,1,0,0:0:0:0:
182,192,107160,1,0,0:0:0:0:
402,192,107239,1,0,0:0:0:0:
109,192,107318,1,0,0:0:0:0:
256,192,107318,1,0,0:0:0:0:
329,192,107397,1,0,0:0:0:0:
182,192,107476,1,0,0:0:0:0:
329,192,107555,1,0,0:0:0:0:
182,192,107634,1,0,0:0:0:0:
402,192,107634,128,0,108265:0:0:0:0:
475,192,107634,1,0,0:0:0:0:
36,192,107712,1,0,0:0:0:0:
256,192,107791,1,0,0:0:0:0:
109,192,107870,1,0,0:0:0:0:
475,192,107949,1,0,0:0:0:0:
36,192,107949,1,0,0:0:0:0:
256,192,108028,1,0,0:0:0:0:
109,192,108107,1,0,0:0:0:0:
329,192,108186,1,0,0:0:0:0:
256,192,108265,128,0,108897:0:0:0:0:
36,192,108265,1,0,0:0:0:0:
182,192,108265,1,0,0:0:0:0:
402,192,108344,1,0,0:0:0:0:
109,192,108423,1,0,0:0:0:0:
329,192,108502,1,0,0:0:0:0:
182,192,108581,1,0,0:0:0:0:
475,192,108581,1,0,0:0:0:0:
36,192,108660,1,0,0:0:0:0:
402,192,108739,1,0,0:0:0:0:
182,192,108818,1,0,0:0:0:0:
109,192,108897,128,0,109528:0:0:0:0:
329,192,108897,1,0,0:0:0:0:
402,192,108897,1,0,0:0:0:0:
36,192,108976,1,0,0:0:0:0:
256,192,109055,1,0,0:0:0:0:
475,192,109134,1,0,0:0:0:0:
329,192,109212,1,0,0:0:0:0:
182,192,109212,1,0,0:0:0:0:
402,192,109291,1,0,0:0:0:0:
256,192,109370,1,0,0:0:0:0:
475,192,109449,1,0,0:0:0:0:
182,192,109528,128,0,110791:0:0:0:0:
329,192,109528,1,0,0:0:0:0:
36,192,109528,1,0,0:0:0:0:
475,192,109607,1,0,0:0:0:0:
256,192,109686,1,0,0:0:0:0:
402,192,109765,1,0,0:0:0:0:
109,192,109844,1,0,0:0:0:0:
475,192,109844,1,0,0:0:0:0:
329,192,109923,1,0,0:0:0:0:
36,192,110002,1,0,0:0:0:0:
256,192,110081,1,0,0:0:0:0:
402,192,110160,1,0,0:0:0:0:
109,192,110160,1,0,0:0:0:0:
475,192,110239,1,0,0:0:0:0:
329,192,110318,1,0,0:0:0:0:
109,192,110397,1,0,0:0:0:0:
36,192,110476,1,0,0:0:0:0:
402,192,110476,1,0,0:0:0:0:
256,192,110555,1,0,0:0:0:0:
402,192,110634,1,0,0:0:0:0:
329,192,110712,1,0,0:0:0:0:
402,192,110791,128,0,111107:0:0:0:0:
256,192,110791,1,0,0:0:0:0:
36,192,110791,1,0,0:0:0:0:
475,192,110791,1,0,0:0:0:0:
109,192,110870,1,0,0:0:0:0:
182,192,110949,1,0,0:0:0:0:
256,192,111028,1,0,0:0:0:0:
329,192,111107,128,0,111423:0:0:0:0:
36,192,111107,1,0,0:0:0:0:
109,192,111107,1,0,0:0:0:0:
475,192,111107,1,0,0:0:0:0:
182,192,111186,1,0,0:0:0:0:
402,192,111265,1,0,0:0:0:0:
182,192,111344,1,0,0:0:0:0:
256,192,111423,128,0,111739:0:0:0:0:
109,192,111423,1,0,0:0:0:0:
36,192,111423,1,0,0:0:0:0:
475,192,111423,1,0,0:0:0:0:
182,192,111502,1,0,0:0:0:0:
329,192,111581,1,0,0:0:0:0:
182,192,111660,1,0,0:0:0:0:
402,192,111739,128,0,112055:0:0:0:0:
109,192,111739,1,0,0:0:0:0:
329,192,111739,1,0,0:0:0:0:
475,192,111739,1,0,0:0:0:0:
256,192,111818,1,0,0:0:0:0:
182,192,111897,1,0,0:0:0:0:
109,192,111976,1,0,0:0:0:0:
475,192,112055,128,0,112212:0:0:0:0:
182,192,112055,128,0,112134:0:0:0:0:
256,192,112055,128,0,112528:0:0:0:0:
36,192,112055,1,0,0:0:0:0:
402,192,112134,128,0,112212:0:0:0:0:
36,192,112212,128,0,112370:0:0:0:0:
329,192,112212,128,0,112291:0:0:0:0:
109,192,112291,128,0,112370:0:0:0:0:
475,192,112370,128,0,112528:0:0:0:0:
182,192,112370,128,0,112449:0:0:0:0:
402,192,112449,128,0,112528:0:0:0:0:
109,192,112528,128,0,112686:0:0:0:0:
329,192,112528,128,0,112607:0:0:0:0:
182,192,112607,128,0,112686:0:0:0:0:
36,192,112686,128,0,113318:0:0:0:0:
475,192,112686,128,0,113318:0:0:0:0:
402,192,112686,128,0,112765:0:0:0:0:
256,192,112686,128,0,113318:0:0:0:0:
109,192,112765,128,0,112844:0:0:0:0:
402,192,112844,128,0,112923:0:0:0:0:
182,192,112923,128,0,113002:0:0:0:0:
329,192,113002,128,0,113081:0:0:0:0:
109,192,113081,128,0,113160:0:0:0:0:
402,192,113160,128,0,113239:0:0:0:0:
182,192,113239,128,0,113318:0:0:0:0:
109,192,113318,128,0,113949:0:0:0:0:
402,192,113318,128,0,113949:0:0:0:0:
329,192,113318,128,0,113476:0:0:0:0:
256,192,113397,128,0,113555:0:0:0:0:
182,192,113476,128,0,113634:0:0:0:0:
329,192,113555,128,0,113712:0:0:0:0:
256,192,113634,128,0,113791:0:0:0:0:
36,192,113634,1,0,0:0:0:0:
475,192,113634,1,0,0:0:0:0:
182,192,113712,128,0,113870:0:0:0:0:
329,192,113791,128,0,113949:0:0:0:0:
256,192,113870,128,0,113949:0:0:0:0:
475,192,113949,128,0,114265:0:0:0:0:
36,192,113949,128,0,114107:0:0:0:0:
182,192,113949,1,0,0:0:0:0:
109,192,114028,128,0,114107:0:0:0:0:
329,192,114107,1,0,0:0:0:0:
182,192,114107,128,0,114265:0:0:0:0:
109,192,114186,128,0,114265:0:0:0:0:
36,192,114265,128,0,114423:0:0:0:0:
402,192,114265,128,0,114581:0:0:0:0:
256,192,114265,1,0,0:0:0:0:
109,192,114344,128,0,114423:0:0:0:0:
475,192,114344,1,0,0:0:0:0:
182,192,114423,128,0,114581:0:0:0:0:
329,192,114423,1,0,0:0:0:0:
256,192,114502,1,0,0:0:0:0:
109,192,114502,128,0,114581:0:0:0:0:
475,192,114581,1,0,0:0:0:0:
36,192,114581,128,0,114897:0:0:0:0:
329,192,114581,128,0,114897:0:0:0:0:
109,192,114739,128,0,115055:0:0:0:0:
402,192,114739,128,0,115055:0:0:0:0:
182,192,114897,128,0,115212:0:0:0:0:
475,192,114897,128,0,115212:0:0:0:0:
36,192,115055,128,0,115370:0:0:0:0:
329,192,115055,128,0,115370:0:0:0:0:
402,192,115212,128,0,115528:0:0:0:0:
256,192,115212,128,0,115528:0:0:0:0:
109,192,115212,128,0,115528:0:0:0:0:
182,192,115370,128,0,115686:0:0:0:0:
475,192,115370,128,0,115686:0:0:0:0:
329,192,115528,128,0,115844:0:0:0:0:
36,192,115528,128,0,115844:0:0:0:0:
256,192,115686,1,0,0:0:0:0:
182,192,115765,1,0,0:0:0:0:
402,192,115765,1,0,0:0:0:0:
475,192,115844,1,0,0:0:0:0:
256,192,115844,1,0,0:0:0:0:
109,192,115844,1,0,0:0:0:0:
109,192,116002,1,0,0:0:0:0:
182,192,116081,1,0,0:0:0:0:
256,192,116160,1,0,0:0:0:0:
36,192,116160,1,0,0:0:0:0:
475,192,116160,1,0,0:0:0:0:
182,192,116239,1,0,0:0:0:0:
109,192,116318,1,0,0:0:0:0:
182,192,116397,1,0,0:0:0:0:
256,192,116476,1,0,0:0:0:0:
36,192,116476,1,0,0:0:0:0:
402,192,116476,1,0,0:0:0:0:
475,192,116476,1,0,0:0:0:0:
36,192,116634,1,0,0:0:0:0:
256,192,116634,1,0,0:0:0:0:
402,192,116634,1,0,0:0:0:0:
475,192,116634,1,0,0:0:0:0:
182,192,116949,1,0,0:0:0:0:
109,192,117107,1,0,0:0:0:0:
36,192,117107,1,0,0:0:0:0:
402,192,117107,1,0,0:0:0:0:
475,192,117107,1,0,0:0:0:0:
182,192,117423,1,0,0:0:0:0:
256,192,117739,1,0,0:0:0:0:
329,192,118055,1,0,0:0:0:0:
402,192,118370,1,0,0:0:0:0:
256,192,118686,1,0,0:0:0:0:
329,192,118844,1,0,0:0:0:0:
182,192,119318,1,0,0:0:0:0:
256,192,119634,1,0,0:0:0:0:
182,192,119949,1,0,0:0:0:0:
329,192,120107,1,0,0:0:0:0:
402,192,120581,1,0,0:0:0:0:
256,192,120897,1,0,0:0:0:0:
109,192,121212,1,0,0:0:0:0:
402,192,121370,1,0,0:0:0:0:
36,192,121528,1,0,0:0:0:0:
109,192,121686,1,0,0:0:0:0:
182,192,121844,1,0,0:0:0:0:
256,192,122002,1,0,0:0:0:0:
329,192,122160,1,0,0:0:0:0:
475,192,122160,1,0,0:0:0:0:
402,192,122476,1,0,0:0:0:0:
256,192,122634,1,0,0:0:0:0:
36,192,122791,1,0,0:0:0:0:
182,192,123265,1,0,0:0:0:0:
329,192,123423,1,0,0:0:0:0:
256,192,123739,1,0,0:0:0:0:
475,192,123897,1,0,0:0:0:0:
402,192,124055,1,0,0:0:0:0:
329,192,124212,1,0,0:0:0:0:
256,192,124370,1,0,0:0:0:0:
182,192,124528,1,0,0:0:0:0:
109,192,124686,128,0,125002:0:0:0:0:
256,192,125002,128,0,125318:0:0:0:0:
402,192,125318,128,0,125634:0:0:0:0:
256,192,125949,1,0,0:0:0:0:
256,192,126739,1,0,0:0:0:0:
329,192,126897,1,0,0:0:0:0:
402,192,127055,1,0,0:0:0:0:
182,192,127055,1,0,0:0:0:0:
182,192,127212,1,0,0:0:0:0:
256,192,127212,1,0,0:0:0:0:
402,192,127212,1,0,0:0:0:0:
36,192,127212,1,0,0:0:0:0:
329,192,127528,1,0,0:0:0:0:
329,192,127844,1,0,0:0:0:0:
329,192,128160,1,0,0:0:0:0:
329,192,128476,1,0,0:0:0:0:
329,192,128791,1,0,0:0:0:0:
329,192,129107,1,0,0:0:0:0:
329,192,129423,1,0,0:0:0:0:
329,192,129739,1,0,0:0:0:0:
329,192,130055,1,0,0:0:0:0:
329,192,130370,1,0,0:0:0:0:
475,192,130686,128,0,130844:0:0:0:0:
329,192,131002,1,0,0:0:0:0:
329,192,131318,1,0,0:0:0:0:
475,192,131476,128,0,131634:0:0:0:0:
329,192,131634,1,0,0:0:0:0:
475,192,131791,128,0,131949:0:0:0:0:
329,192,131949,1,0,0:0:0:0:
256,192,131949,1,0,0:0:0:0:
109,192,132107,1,0,0:0:0:0:
182,192,132186,1,0,0:0:0:0:
256,192,132265,1,0,0:0:0:0:
36,192,132265,1,0,0:0:0:0:
475,192,132265,1,0,0:0:0:0:
36,192,132581,1,0,0:0:0:0:
256,192,132581,1,0,0:0:0:0:
475,192,132581,1,0,0:0:0:0:
402,192,132739,1,0,0:0:0:0:
36,192,132897,1,0,0:0:0:0:
256,192,132897,1,0,0:0:0:0:
475,192,132897,1,0,0:0:0:0:
109,192,133055,1,0,0:0:0:0:
36,192,133212,1,0,0:0:0:0:
256,192,133212,1,0,0:0:0:0:
475,192,133212,1,0,0:0:0:0:
329,192,133370,1,0,0:0:0:0:
36,192,133528,1,0,0:0:0:0:
256,192,133528,1,0,0:0:0:0:
475,192,133528,1,0,0:0:0:0:
36,192,133686,1,0,0:0:0:0:
256,192,133686,1,0,0:0:0:0:
475,192,133686,1,0,0:0:0:0:
36,192,133844,1,0,0:0:0:0:
329,192,133844,1,0,0:0:0:0:
475,192,133844,1,0,0:0:0:0:
109,192,133844,1,0,0:0:0:0:
475,192,134002,1,0,0:0:0:0:
182,192,134002,1,0,0:0:0:0:
36,192,134002,1,0,0:0:0:0:
402,192,134002,1,0,0:0:0:0:
36,192,134160,1,0,0:0:0:0:
256,192,134160,1,0,0:0:0:0:
475,192,134160,1,0,0:0:0:0:
182,192,134160,1,0,0:0:0:0:
36,192,134318,1,0,0:0:0:0:
256,192,134318,1,0,0:0:0:0:
475,192,134318,1,0,0:0:0:0:
329,192,134318,1,0,0:0:0:0:
475,192,134476,1,0,0:0:0:0:
256,192,134476,1,0,0:0:0:0:
36,192,134476,1,0,0:0:0:0:
109,192,134476,1,0,0:0:0:0:
329,192,134476,1,0,0:0:0:0:
36,192,134634,1,0,0:0:0:0:
182,192,134634,1,0,0:0:0:0:
256,192,134634,1,0,0:0:0:0:
402,192,134634,1,0,0:0:0:0:
475,192,134634,1,0,0:0:0:0:
109,192,134712,1,0,0:0:0:0:
182,192,134791,1,0,0:0:0:0:
329,192,134791,1,0,0:0:0:0:
256,192,134791,1,0,0:0:0:0:
475,192,134791,1,0,0:0:0:0:
36,192,134791,1,0,0:0:0:0:
329,192,134949,1,0,0:0:0:0:
475,192,134949,1,0,0:0:0:0:
182,192,134949,1,0,0:0:0:0:
329,192,135107,1,0,0:0:0:0:
475,192,135107,1,0,0:0:0:0:
256,192,135107,1,0,0:0:0:0:
329,192,135265,1,0,0:0:0:0:
475,192,135265,1,0,0:0:0:0:
109,192,135265,1,0,0:0:0:0:
329,192,135423,1,0,0:0:0:0:
475,192,135423,1,0,0:0:0:0:
36,192,135423,1,0,0:0:0:0:
329,192,135581,1,0,0:0:0:0:
475,192,135581,1,0,0:0:0:0:
109,192,135581,1,0,0:0:0:0:
475,192,135739,1,0,0:0:0:0:
329,192,135739,1,0,0:0:0:0:
182,192,135739,1,0,0:0:0:0:
329,192,135897,1,0,0:0:0:0:
475,192,135897,1,0,0:0:0:0:
109,192,135897,1,0,0:0:0:0:
402,192,135976,1,0,0:0:0:0:
329,192,136055,1,0,0:0:0:0:
256,192,136055,1,0,0:0:0:0:
182,192,136055,1,0,0:0:0:0:
36,192,136055,1,0,0:0:0:0:
109,192,136134,1,0,0:0:0:0:
182,192,136212,1,0,0:0:0:0:
109,192,136291,1,0,0:0:0:0:
36,192,136370,1,0,0:0:0:0:
475,192,136370,1,0,0:0:0:0:
256,192,136370,1,0,0:0:0:0:
402,192,136449,1,0,0:0:0:0:
329,192,136528,1,0,0:0:0:0:
402,192,136607,1,0,0:0:0:0:
475,192,136686,1,0,0:0:0:0:
109,192,136686,128,0,137002:0:0:0:0:
256,192,136686,1,0,0:0:0:0:
182,192,137002,128,0,137318:0:0:0:0:
329,192,137318,1,0,0:0:0:0:
402,192,137318,1,0,0:0:0:0:
182,192,137476,1,0,0:0:0:0:
109,192,137476,1,0,0:0:0:0:
402,192,137634,1,0,0:0:0:0:
475,192,137634,1,0,0:0:0:0:
109,192,137791,1,0,0:0:0:0:
36,192,137791,1,0,0:0:0:0:
329,192,137949,128,0,138265:0:0:0:0:
402,192,137949,128,0,138265:0:0:0:0:
182,192,138265,128,0,138423:0:0:0:0:
256,192,138423,128,0,138581:0:0:0:0:
182,192,138581,1,0,0:0:0:0:
109,192,138581,1,0,0:0:0:0:
475,192,138739,1,0,0:0:0:0:
402,192,138739,1,0,0:0:0:0:
109,192,138897,1,0,0:0:0:0:
36,192,138897,1,0,0:0:0:0:
329,192,139055,1,0,0:0:0:0:
402,192,139055,1,0,0:0:0:0:
182,192,139212,128,0,139528:0:0:0:0:
109,192,139212,128,0,139528:0:0:0:0:
475,192,139212,1,0,0:0:0:0:
256,192,139528,1,0,0:0:0:0:
329,192,139686,1,0,0:0:0:0:
402,192,139844,1,0,0:0:0:0:
475,192,139844,1,0,0:0:0:0:
109,192,140002,1,0,0:0:0:0:
36,192,140002,1,0,0:0:0:0:
329,192,140160,1,0,0:0:0:0:
402,192,140160,1,0,0:0:0:0:
182,192,140318,1,0,0:0:0:0:
109,192,140318,1,0,0:0:0:0:
475,192,140476,128,0,140949:0:0:0:0:
402,192,140476,128,0,140949:0:0:0:0:
256,192,140476,1,0,0:0:0:0:
182,192,140949,128,0,141107:0:0:0:0:
329,192,141107,1,0,0:0:0:0:
402,192,141107,1,0,0:0:0:0:
182,192,141265,1,0,0:0:0:0:
109,192,141265,1,0,0:0:0:0:
402,192,141423,1,0,0:0:0:0:
475,192,141423,1,0,0:0:0:0:
36,192,141581,1,0,0:0:0:0:
329,192,141581,1,0,0:0:0:0:
109,192,141581,1,0,0:0:0:0:
256,192,141660,1,0,0:0:0:0:
109,192,141739,128,0,142055:0:0:0:0:
182,192,141739,1,0,0:0:0:0:
329,192,141739,1,0,0:0:0:0:
402,192,141739,1,0,0:0:0:0:
475,192,141739,1,0,0:0:0:0:
402,192,141897,1,0,0:0:0:0:
182,192,142055,128,0,142370:0:0:0:0:
329,192,142055,1,0,0:0:0:0:
475,192,142055,1,0,0:0:0:0:
36,192,142055,1,0,0:0:0:0:
402,192,142212,1,0,0:0:0:0:
475,192,142212,1,0,0:0:0:0:
109,192,142212,1,0,0:0:0:0:
256,192,142370,128,0,143318:0:0:0:0:
329,192,142370,1,0,0:0:0:0:
402,192,142370,1,0,0:0:0:0:
475,192,142370,1,0,0:0:0:0:
36,192,142370,1,0,0:0:0:0:
475,192,143318,1,0,0:0:0:0:
475,192,143476,128,0,144265:0:0:0:0:
36,192,144265,128,0,144581:0:0:0:0:
109,192,144581,128,0,144897:0:0:0:0:
475,192,144581,1,0,0:0:0:0:
402,192,144660,1,0,0:0:0:0:
329,192,144739,1,0,0:0:0:0:
256,192,144818,1,0,0:0:0:0:
182,192,144897,128,0,145370:0:0:0:0:
402,192,144897,1,0,0:0:0:0:
36,192,144897,1,0,0:0:0:0:
475,192,144897,1,0,0:0:0:0:
402,192,145055,1,0,0:0:0:0:
475,192,145055,1,0,0:0:0:0:
36,192,145055,1,0,0:0:0:0:
402,192,145212,1,0,0:0:0:0:
475,192,145212,1,0,0:0:0:0:
36,192,145212,1,0,0:0:0:0:
256,192,145370,1,0,0:0:0:0:
36,192,145370,1,0,0:0:0:0:
402,192,145370,1,0,0:0:0:0:
475,192,145370,1,0,0:0:0:0:
256,192,145528,128,0,146002:0:0:0:0:
109,192,145528,1,0,0:0:0:0:
402,192,145528,1,0,0:0:0:0:
36,192,145607,1,0,0:0:0:0:
329,192,145607,1,0,0:0:0:0:
182,192,145686,1,0,0:0:0:0:
475,192,145686,1,0,0:0:0:0:
109,192,145765,1,0,0:0:0:0:
402,192,145765,1,0,0:0:0:0:
475,192,145844,1,0,0:0:0:0:
182,192,145844,1,0,0:0:0:0:
36,192,145923,1,0,0:0:0:0:
329,192,145923,1,0,0:0:0:0:
182,192,146002,1,0,0:0:0:0:
109,192,146002,1,0,0:0:0:0:
402,192,146002,1,0,0:0:0:0:
475,192,146002,1,0,0:0:0:0:
182,192,146318,1,0,0:0:0:0:
109,192,146318,1,0,0:0:0:0:
36,192,146318,1,0,0:0:0:0:
402,192,146318,1,0,0:0:0:0:
475,192,146318,1,0,0:0:0:0:
329,192,146318,1,0,0:0:0:0:
475,192,146476,1,0,0:0:0:0:
402,192,146476,1,0,0:0:0:0:
329,192,146476,1,0,0:0:0:0:
109,192,146476,1,0,0:0:0:0:
182,192,146476,1,0,0:0:0:0:
36,192,146476,1,0,0:0:0:0:
402,192,146634,1,0,0:0:0:0:
329,192,146712,1,0,0:0:0:0:
402,192,146791,1,0,0:0:0:0:
475,192,146791,1,0,0:0:0:0:
256,192,146791,128,0,147107:0:0:0:0:
109,192,146791,1,0,0:0:0:0:
36,192,146791,1,0,0:0:0:0:
329,192,147107,128,0,147423:0:0:0:0:
36,192,147107,1,0,0:0:0:0:
475,192,147107,1,0,0:0:0:0:
109,192,147186,1,0,0:0:0:0:
182,192,147265,1,0,0:0:0:0:
109,192,147344,1,0,0:0:0:0:
475,192,147423,128,0,148686:0:0:0:0:
402,192,147423,1,0,0:0:0:0:
36,192,147423,1,0,0:0:0:0:
256,192,147423,1,0,0:0:0:0:
182,192,147423,128,0,147739:0:0:0:0:
109,192,147502,1,0,0:0:0:0:
402,192,147581,1,0,0:0:0:0:
329,192,147660,1,0,0:0:0:0:
36,192,147739,1,0,0:0:0:0:
402,192,147739,1,0,0:0:0:0:
109,192,147739,1,0,0:0:0:0:
256,192,147739,128,0,148055:0:0:0:0:
182,192,147818,1,0,0:0:0:0:
109,192,147897,1,0,0:0:0:0:
329,192,147976,1,0,0:0:0:0:
402,192,148055,1,0,0:0:0:0:
182,192,148055,1,0,0:0:0:0:
36,192,148055,1,0,0:0:0:0:
109,192,148055,128,0,148370:0:0:0:0:
256,192,148134,1,0,0:0:0:0:
329,192,148212,1,0,0:0:0:0:
256,192,148291,1,0,0:0:0:0:
402,192,148370,1,0,0:0:0:0:
36,192,148370,1,0,0:0:0:0:
182,192,148370,1,0,0:0:0:0:
329,192,148370,128,0,148686:0:0:0:0:
256,192,148449,1,0,0:0:0:0:
36,192,148528,1,0,0:0:0:0:
109,192,148607,1,0,0:0:0:0:
256,192,148686,128,0,149949:0:0:0:0:
182,192,148686,1,0,0:0:0:0:
36,192,148686,1,0,0:0:0:0:
402,192,148686,128,0,149002:0:0:0:0:
109,192,148765,1,0,0:0:0:0:
182,192,148844,1,0,0:0:0:0:
329,192,148923,1,0,0:0:0:0:
36,192,149002,1,0,0:0:0:0:
109,192,149002,128,0,149318:0:0:0:0:
475,192,149002,1,0,0:0:0:0:
182,192,149002,1,0,0:0:0:0:
402,192,149081,1,0,0:0:0:0:
329,192,149160,1,0,0:0:0:0:
402,192,149239,1,0,0:0:0:0:
182,192,149318,1,0,0:0:0:0:
36,192,149318,128,0,149634:0:0:0:0:
329,192,149318,1,0,0:0:0:0:
475,192,149318,1,0,0:0:0:0:
109,192,149397,1,0,0:0:0:0:
402,192,149476,1,0,0:0:0:0:
182,192,149555,1,0,0:0:0:0:
329,192,149634,1,0,0:0:0:0:
402,192,149634,128,0,149949:0:0:0:0:
109,192,149634,1,0,0:0:0:0:
475,192,149634,1,0,0:0:0:0:
182,192,149712,1,0,0:0:0:0:
329,192,149791,1,0,0:0:0:0:
182,192,149870,1,0,0:0:0:0:
329,192,149949,1,0,0:0:0:0:
36,192,149949,128,0,151212:0:0:0:0:
109,192,149949,1,0,0:0:0:0:
475,192,149949,128,0,150107:0:0:0:0:
182,192,150028,1,0,0:0:0:0:
256,192,150107,128,0,150265:0:0:0:0:
402,192,150107,1,0,0:0:0:0:
329,192,150186,1,0,0:0:0:0:
109,192,150265,1,0,0:0:0:0:
402,192,150265,1,0,0:0:0:0:
475,192,150265,128,0,150423:0:0:0:0:
329,192,150344,1,0,0:0:0:0:
182,192,150423,1,0,0:0:0:0:
109,192,150423,128,0,150581:0:0:0:0:
256,192,150423,1,0,0:0:0:0:
329,192,150502,1,0,0:0:0:0:
256,192,150581,128,0,150739:0:0:0:0:
402,192,150581,1,0,0:0:0:0:
475,192,150581,1,0,0:0:0:0:
182,192,150660,1,0,0:0:0:0:
402,192,150739,128,0,150897:0:0:0:0:
109,192,150739,1,0,0:0:0:0:
256,192,150818,1,0,0:0:0:0:
182,192,150897,128,0,151055:0:0:0:0:
475,192,150897,1,0,0:0:0:0:
329,192,150897,1,0,0:0:0:0:
256,192,150976,1,0,0:0:0:0:
402,192,151055,1,0,0:0:0:0:
109,192,151055,128,0,151212:0:0:0:0:
329,192,151134,1,0,0:0:0:0:
475,192,151212,1,0,0:0:0:0:
256,192,151212,128,0,151370:0:0:0:0:
402,192,151212,128,0,152476:0:0:0:0:
182,192,151212,1,0,0:0:0:0:
329,192,151291,1,0,0:0:0:0:
182,192,151370,1,0,0:0:0:0:
36,192,151370,128,0,151528:0:0:0:0:
256,192,151449,1,0,0:0:0:0:
329,192,151528,128,0,151686:0:0:0:0:
109,192,151528,1,0,0:0:0:0:
475,192,151528,1,0,0:0:0:0:
182,192,151607,1,0,0:0:0:0:
256,192,151686,1,0,0:0:0:0:
475,192,151686,128,0,151844:0:0:0:0:
182,192,151765,1,0,0:0:0:0:
329,192,151844,1,0,0:0:0:0:
36,192,151844,1,0,0:0:0:0:
109,192,151844,128,0,152002:0:0:0:0:
256,192,151923,1,0,0:0:0:0:
36,192,152002,1,0,0:0:0:0:
182,192,152002,1,0,0:0:0:0:
329,192,152002,128,0,152160:0:0:0:0:
109,192,152081,1,0,0:0:0:0:
182,192,152160,1,0,0:0:0:0:
475,192,152160,1,0,0:0:0:0:
256,192,152160,128,0,152318:0:0:0:0:
36,192,152239,1,0,0:0:0:0:
182,192,152318,128,0,152476:0:0:0:0:
109,192,152318,1,0,0:0:0:0:
329,192,152397,1,0,0:0:0:0:
109,192,152476,128,0,153739:0:0:0:0:
475,192,152476,128,0,152791:0:0:0:0:
36,192,152476,1,0,0:0:0:0:
256,192,152476,128,0,152634:0:0:0:0:
402,192,152555,1,0,0:0:0:0:
329,192,152634,128,0,152791:0:0:0:0:
182,192,152634,1,0,0:0:0:0:
256,192,152712,1,0,0:0:0:0:
402,192,152791,128,0,153107:0:0:0:0:
182,192,152791,128,0,152949:0:0:0:0:
36,192,152791,1,0,0:0:0:0:
329,192,152870,1,0,0:0:0:0:
36,192,152949,1,0,0:0:0:0:
256,192,152949,128,0,153107:0:0:0:0:
475,192,153028,1,0,0:0:0:0:
182,192,153107,1,0,0:0:0:0:
329,192,153107,128,0,153423:0:0:0:0:
36,192,153107,128,0,153265:0:0:0:0:
256,192,153186,1,0,0:0:0:0:
182,192,153265,128,0,153423:0:0:0:0:
475,192,153265,1,0,0:0:0:0:
36,192,153344,1,0,0:0:0:0:
256,192,153423,128,0,153739:0:0:0:0:
475,192,153423,128,0,153581:0:0:0:0:
402,192,153423,1,0,0:0:0:0:
329,192,153502,1,0,0:0:0:0:
402,192,153581,128,0,153739:0:0:0:0:
182,192,153581,1,0,0:0:0:0:
36,192,153660,1,0,0:0:0:0:
182,192,153739,128,0,153897:0:0:0:0:
475,192,153739,128,0,154055:0:0:0:0:
329,192,153739,128,0,155002:0:0:0:0:
109,192,153818,1,0,0:0:0:0:
36,192,153897,128,0,154055:0:0:0:0:
256,192,153897,1,0,0:0:0:0:
402,192,153976,1,0,0:0:0:0:
182,192,154055,128,0,154370:0:0:0:0:
109,192,154055,1,0,0:0:0:0:
256,192,154055,128,0,154212:0:0:0:0:
402,192,154134,1,0,0:0:0:0:
36,192,154212,1,0,0:0:0:0:
109,192,154212,128,0,154370:0:0:0:0:
475,192,154291,1,0,0:0:0:0:
256,192,154370,1,0,0:0:0:0:
36,192,154370,128,0,154686:0:0:0:0:
402,192,154370,128,0,154528:0:0:0:0:
182,192,154449,1,0,0:0:0:0:
256,192,154528,128,0,154686:0:0:0:0:
109,192,154528,1,0,0:0:0:0:
402,192,154607,1,0,0:0:0:0:
475,192,154686,128,0,154844:0:0:0:0:
109,192,154686,128,0,155002:0:0:0:0:
182,192,154686,1,0,0:0:0:0:
256,192,154765,1,0,0:0:0:0:
36,192,154844,1,0,0:0:0:0:
402,192,154844,128,0,155002:0:0:0:0:
182,192,154923,1,0,0:0:0:0:
475,192,155002,128,0,155318:0:0:0:0:
256,192,155002,1,0,0:0:0:0:
36,192,155081,1,0,0:0:0:0:
256,192,155160,128,0,155476:0:0:0:0:
182,192,155160,1,0,0:0:0:0:
329,192,155239,1,0,0:0:0:0:
402,192,155318,128,0,155634:0:0:0:0:
182,192,155318,1,0,0:0:0:0:
36,192,155318,1,0,0:0:0:0:
109,192,155397,1,0,0:0:0:0:
329,192,155476,128,0,155791:0:0:0:0:
182,192,155476,1,0,0:0:0:0:
109,192,155555,1,0,0:0:0:0:
182,192,155634,128,0,155949:0:0:0:0:
36,192,155634,1,0,0:0:0:0:
475,192,155634,1,0,0:0:0:0:
402,192,155712,1,0,0:0:0:0:
256,192,155791,128,0,156107:0:0:0:0:
109,192,155791,1,0,0:0:0:0:
402,192,155870,1,0,0:0:0:0:
109,192,155949,128,0,156265:0:0:0:0:
329,192,155949,1,0,0:0:0:0:
475,192,155949,1,0,0:0:0:0:
36,192,156028,1,0,0:0:0:0:
182,192,156107,128,0,156265:0:0:0:0:
475,192,156107,1,0,0:0:0:0:
402,192,156186,1,0,0:0:0:0:
36,192,156265,1,0,0:0:0:0:
329,192,156265,1,0,0:0:0:0:
256,192,156265,1,0,0:0:0:0:
402,192,156344,1,0,0:0:0:0:
475,192,156423,1,0,0:0:0:0:
402,192,156502,1,0,0:0:0:0:
329,192,156581,1,0,0:0:0:0:
475,192,156581,1,0,0:0:0:0:
36,192,156581,1,0,0:0:0:0:
109,192,156660,1,0,0:0:0:0:
182,192,156739,1,0,0:0:0:0:
256,192,156739,1,0,0:0:0:0:
402,192,156739,1,0,0:0:0:0:
329,192,156818,1,0,0:0:0:0:
182,192,156897,1,0,0:0:0:0:
36,192,156897,1,0,0:0:0:0:
475,192,156897,1,0,0:0:0:0:
109,192,156976,1,0,0:0:0:0:
182,192,157055,1,0,0:0:0:0:
475,192,157134,1,0,0:0:0:0:
256,192,157134,1,0,0:0:0:0:
402,192,157212,1,0,0:0:0:0:
182,192,157212,1,0,0:0:0:0:
329,192,157291,1,0,0:0:0:0:
109,192,157291,1,0,0:0:0:0:
256,192,157370,1,0,0:0:0:0:
36,192,157370,1,0,0:0:0:0:
329,192,157449,1,0,0:0:0:0:
109,192,157449,1,0,0:0:0:0:
402,192,157528,1,0,0:0:0:0:
475,192,157607,1,0,0:0:0:0:
402,192,157686,1,0,0:0:0:0:
329,192,157765,1,0,0:0:0:0:
256,192,157844,128,0,158791:0:0:0:0:
36,192,157844,128,0,158002:0:0:0:0:
402,192,157844,128,0,158002:0:0:0:0:
109,192,157844,1,0,0:0:0:0:
329,192,157923,1,0,0:0:0:0:
182,192,158002,128,0,158160:0:0:0:0:
475,192,158002,128,0,158160:0:0:0:0:
109,192,158002,1,0,0:0:0:0:
402,192,158081,1,0,0:0:0:0:
329,192,158160,128,0,158318:0:0:0:0:
109,192,158160,128,0,158318:0:0:0:0:
36,192,158160,1,0,0:0:0:0:
402,192,158239,1,0,0:0:0:0:
475,192,158318,128,0,158476:0:0:0:0:
182,192,158318,128,0,158476:0:0:0:0:
36,192,158318,1,0,0:0:0:0:
402,192,158397,1,0,0:0:0:0:
36,192,158476,1,0,0:0:0:0:
329,192,158476,1,0,0:0:0:0:
109,192,158555,1,0,0:0:0:0:
402,192,158555,1,0,0:0:0:0:
182,192,158634,1,0,0:0:0:0:
475,192,158634,1,0,0:0:0:0:
109,192,158712,1,0,0:0:0:0:
402,192,158712,1,0,0:0:0:0:
36,192,158791,1,0,0:0:0:0:
329,192,158791,1,0,0:0:0:0:
182,192,158791,128,0,159107:0:0:0:0:
475,192,158791,128,0,158949:0:0:0:0:
109,192,158870,1,0,0:0:0:0:
329,192,158949,128,0,159107:0:0:0:0:
256,192,158949,1,0,0:0:0:0:
109,192,159028,1,0,0:0:0:0:
402,192,159107,128,0,159423:0:0:0:0:
36,192,159107,128,0,159265:0:0:0:0:
475,192,159107,1,0,0:0:0:0:
329,192,159186,1,0,0:0:0:0:
256,192,159265,128,0,159423:0:0:0:0:
182,192,159265,1,0,0:0:0:0:
36,192,159344,1,0,0:0:0:0:
475,192,159423,1,0,0:0:0:0:
109,192,159423,128,0,159739:0:0:0:0:
329,192,159423,128,0,159581:0:0:0:0:
182,192,159502,1,0,0:0:0:0:
475,192,159581,128,0,159739:0:0:0:0:
256,192,159581,1,0,0:0:0:0:
402,192,159660,1,0,0:0:0:0:
256,192,159739,128,0,160055:0:0:0:0:
36,192,159739,128,0,159897:0:0:0:0:
329,192,159739,1,0,0:0:0:0:
182,192,159818,1,0,0:0:0:0:
402,192,159897,128,0,160055:0:0:0:0:
475,192,159897,1,0,0:0:0:0:
329,192,159976,1,0,0:0:0:0:
475,192,160055,128,0,160370:0:0:0:0:
109,192,160055,128,0,160212:0:0:0:0:
182,192,160055,1,0,0:0:0:0:
36,192,160134,1,0,0:0:0:0:
329,192,160212,128,0,160370:0:0:0:0:
256,192,160212,1,0,0:0:0:0:
182,192,160291,1,0,0:0:0:0:
36,192,160370,128,0,160686:0:0:0:0:
109,192,160370,128,0,160528:0:0:0:0:
402,192,160370,1,0,0:0:0:0:
256,192,160449,1,0,0:0:0:0:
402,192,160528,128,0,160686:0:0:0:0:
475,192,160528,1,0,0:0:0:0:
329,192,160607,1,0,0:0:0:0:
256,192,160686,128,0,161002:0:0:0:0:
182,192,160686,128,0,160844:0:0:0:0:
109,192,160686,1,0,0:0:0:0:
402,192,160765,1,0,0:0:0:0:
475,192,160844,128,0,161002:0:0:0:0:
36,192,160844,1,0,0:0:0:0:
402,192,160923,1,0,0:0:0:0:
36,192,161002,1,0,0:0:0:0:
329,192,161002,1,0,0:0:0:0:
109,192,161081,1,0,0:0:0:0:
402,192,161081,1,0,0:0:0:0:
256,192,161160,1,0,0:0:0:0:
182,192,161160,1,0,0:0:0:0:
475,192,161160,1,0,0:0:0:0:
329,192,161160,128,0,161476:0:0:0:0:
475,192,161476,1,0,0:0:0:0:
182,192,161476,1,0,0:0:0:0:
256,192,161555,1,0,0:0:0:0:
402,192,161555,1,0,0:0:0:0:
182,192,161634,1,0,0:0:0:0:
329,192,161634,1,0,0:0:0:0:
402,192,161712,1,0,0:0:0:0:
109,192,161712,1,0,0:0:0:0:
256,192,161791,1,0,0:0:0:0:
475,192,161791,1,0,0:0:0:0:
36,192,161791,1,0,0:0:0:0:
329,192,161791,1,0,0:0:0:0:
256,192,162107,1,0,0:0:0:0:
36,192,162107,1,0,0:0:0:0:
182,192,162107,1,0,0:0:0:0:
402,192,162107,1,0,0:0:0:0:
36,192,162423,1,0,0:0:0:0:
475,192,162423,1,0,0:0:0:0:
329,192,162423,128,0,163212:0:0:0:0:
182,192,162423,128,0,163212:0:0:0:0:
256,192,162423,128,0,163212:0:0:0:0:
475,192,162739,1,0,0:0:0:0:
475,192,162897,1,0,0:0:0:0:
475,192,163055,1,0,0:0:0:0:
475,192,163212,128,0,163844:0:0:0:0:
36,192,163844,128,0,164160:0:0:0:0:
329,192,163844,1,0,0:0:0:0:
402,192,163844,1,0,0:0:0:0:
329,192,164002,1,0,0:0:0:0:
402,192,164002,1,0,0:0:0:0:
109,192,164160,128,0,164476:0:0:0:0:
402,192,164160,1,0,0:0:0:0:
329,192,164160,1,0,0:0:0:0:
402,192,164318,1,0,0:0:0:0:
329,192,164318,1,0,0:0:0:0:
182,192,164476,128,0,164791:0:0:0:0:
402,192,164476,128,0,164791:0:0:0:0:
329,192,164476,128,0,164791:0:0:0:0:
475,192,164791,1,0,0:0:0:0:
36,192,165107,1,0,0:0:0:0:
109,192,165107,1,0,0:0:0:0:
402,192,165107,128,0,165581:0:0:0:0:
109,192,165265,1,0,0:0:0:0:
36,192,165265,1,0,0:0:0:0:
109,192,165423,1,0,0:0:0:0:
36,192,165423,1,0,0:0:0:0:
475,192,165581,1,0,0:0:0:0:
109,192,165581,1,0,0:0:0:0:
36,192,165581,1,0,0:0:0:0:
329,192,165739,128,0,166370:0:0:0:0:
256,192,165739,1,0,0:0:0:0:
109,192,165739,1,0,0:0:0:0:
36,192,165739,1,0,0:0:0:0:
256,192,166370,1,0,0:0:0:0:
36,192,166370,1,0,0:0:0:0:
475,192,166370,1,0,0:0:0:0:
36,192,166528,1,0,0:0:0:0:
256,192,166528,1,0,0:0:0:0:
182,192,166528,1,0,0:0:0:0:
475,192,166528,1,0,0:0:0:0:
36,192,166686,1,0,0:0:0:0:
109,192,166686,1,0,0:0:0:0:
182,192,166686,1,0,0:0:0:0:
475,192,166686,1,0,0:0:0:0:
36,192,166844,1,0,0:0:0:0:
182,192,166844,1,0,0:0:0:0:
256,192,166844,1,0,0:0:0:0:
256,192,167002,1,0,0:0:0:0:
36,192,167002,1,0,0:0:0:0:
329,192,167002,1,0,0:0:0:0:
475,192,167002,1,0,0:0:0:0:
36,192,167160,1,0,0:0:0:0:
329,192,167160,1,0,0:0:0:0:
402,192,167160,1,0,0:0:0:0:
475,192,167160,1,0,0:0:0:0:
475,192,167318,1,0,0:0:0:0:
36,192,167318,1,0,0:0:0:0:
109,192,167318,1,0,0:0:0:0:
329,192,167318,1,0,0:0:0:0:
402,192,167318,1,0,0:0:0:0:
182,192,167318,1,0,0:0:0:0:
256,192,167397,1,0,0:0:0:0:
182,192,167476,1,0,0:0:0:0:
329,192,167476,1,0,0:0:0:0:
109,192,167555,1,0,0:0:0:0:
402,192,167555,1,0,0:0:0:0:
475,192,167634,1,0,0:0:0:0:
256,192,167634,1,0,0:0:0:0:
36,192,167634,1,0,0:0:0:0:
329,192,167634,1,0,0:0:0:0:
329,192,167791,1,0,0:0:0:0:
182,192,167791,1,0,0:0:0:0:
36,192,167791,1,0,0:0:0:0:
109,192,167791,1,0,0:0:0:0:
475,192,167791,1,0,0:0:0:0:
256,192,168107,1,0,0:0:0:0:
329,192,168107,1,0,0:0:0:0:
475,192,168107,1,0,0:0:0:0:
109,192,168107,1,0,0:0:0:0:
36,192,168107,1,0,0:0:0:0:
182,192,168423,1,0,0:0:0:0:
36,192,168423,1,0,0:0:0:0:
256,192,168423,1,0,0:0:0:0:
402,192,168423,1,0,0:0:0:0:
475,192,168423,1,0,0:0:0:0:
329,192,168581,1,0,0:0:0:0:
402,192,168660,1,0,0:0:0:0:
256,192,168739,1,0,0:0:0:0:
36,192,168739,1,0,0:0:0:0:
182,192,168739,1,0,0:0:0:0:
109,192,168739,1,0,0:0:0:0:
475,192,168739,1,0,0:0:0:0:
256,192,169686,1,0,0:0:0:0:
329,192,169765,1,0,0:0:0:0:
402,192,169844,1,0,0:0:0:0:
475,192,169923,1,0,0:0:0:0:
36,192,170002,1,0,0:0:0:0:
109,192,170081,1,0,0:0:0:0:
182,192,170160,5,0,0:0:0:0:
256,192,170160,1,0,0:0:0:0:
329,192,170160,1,0,0:0:0:0:
475,192,170160,1,0,0:0:0:0:
182,192,170318,1,0,0:0:0:0:
182,192,170476,1,0,0:0:0:0:
256,192,170634,1,0,0:0:0:0:
109,192,170634,1,0,0:0:0:0:
36,192,170634,1,0,0:0:0:0:
475,192,170634,1,0,0:0:0:0:
329,192,170634,1,0,0:0:0:0:
402,192,170791,1,0,0:0:0:0:
402,192,170949,1,0,0:0:0:0:
256,192,171107,1,0,0:0:0:0:
36,192,171107,1,0,0:0:0:0:
329,192,171107,1,0,0:0:0:0:
475,192,171107,1,0,0:0:0:0:
182,192,171107,1,0,0:0:0:0:
36,192,171265,1,0,0:0:0:0:
109,192,171344,1,0,0:0:0:0:
182,192,171423,1,0,0:0:0:0:
256,192,171502,1,0,0:0:0:0:
329,192,171581,1,0,0:0:0:0:
402,192,171660,1,0,0:0:0:0:
329,192,171739,1,0,0:0:0:0:
475,192,171739,1,0,0:0:0:0:
256,192,171818,1,0,0:0:0:0:
402,192,171818,1,0,0:0:0:0:
182,192,171897,1,0,0:0:0:0:
329,192,171897,1,0,0:0:0:0:
109,192,171976,1,0,0:0:0:0:
256,192,171976,1,0,0:0:0:0:
475,192,172055,5,0,0:0:0:0:
36,192,172055,1,0,0:0:0:0:
182,192,172055,1,0,0:0:0:0:
402,192,172094,1,0,0:0:0:0:
329,192,172134,1,0,0:0:0:0:
256,192,172173,1,0,0:0:0:0:
182,192,172212,1,0,0:0:0:0:
109,192,172252,1,0,0:0:0:0:
36,192,172291,1,0,0:0:0:0:
109,192,172331,1,0,0:0:0:0:
182,192,172370,1,0,0:0:0:0:
256,192,172410,1,0,0:0:0:0:
329,192,172449,1,0,0:0:0:0:
402,192,172489,1,0,0:0:0:0:
475,192,172528,1,0,0:0:0:0:
402,192,172568,1,0,0:0:0:0:
329,192,172607,1,0,0:0:0:0:
256,192,172647,1,0,0:0:0:0:
182,192,172686,1,0,0:0:0:0:
109,192,172686,1,0,0:0:0:0:
402,192,172686,1,0,0:0:0:0:
475,192,172686,1,0,0:0:0:0:
36,192,172686,128,0,173949:0:0:0:0:
109,192,173002,1,0,0:0:0:0:
182,192,173002,1,0,0:0:0:0:
475,192,173160,1,0,0:0:0:0:
402,192,173160,1,0,0:0:0:0:
475,192,173318,1,0,0:0:0:0:
402,192,173318,1,0,0:0:0:0:
182,192,173318,1,0,0:0:0:0:
182,192,173476,1,0,0:0:0:0:
402,192,173555,1,0,0:0:0:0:
329,192,173555,1,0,0:0:0:0:
109,192,173634,1,0,0:0:0:0:
182,192,173634,1,0,0:0:0:0:
329,192,173791,1,0,0:0:0:0:
256,192,173791,1,0,0:0:0:0:
182,192,173949,1,0,0:0:0:0:
109,192,173949,1,0,0:0:0:0:
402,192,173949,128,0,175212:0:0:0:0:
329,192,173949,1,0,0:0:0:0:
329,192,174107,1,0,0:0:0:0:
329,192,174265,1,0,0:0:0:0:
256,192,174265,1,0,0:0:0:0:
36,192,174581,1,0,0:0:0:0:
109,192,174581,1,0,0:0:0:0:
256,192,174581,1,0,0:0:0:0:
329,192,174818,1,0,0:0:0:0:
109,192,174897,1,0,0:0:0:0:
182,192,174897,1,0,0:0:0:0:
256,192,174976,1,0,0:0:0:0:
329,192,175055,1,0,0:0:0:0:
256,192,175134,1,0,0:0:0:0:
36,192,175212,1,0,0:0:0:0:
109,192,175212,1,0,0:0:0:0:
475,192,175212,128,0,175686:0:0:0:0:
182,192,175212,1,0,0:0:0:0:
182,192,175528,1,0,0:0:0:0:
109,192,175686,1,0,0:0:0:0:
329,192,175686,1,0,0:0:0:0:
256,192,175686,1,0,0:0:0:0:
402,192,175686,1,0,0:0:0:0:
36,192,175686,1,0,0:0:0:0:
36,192,176002,1,0,0:0:0:0:
182,192,176002,1,0,0:0:0:0:
402,192,176002,1,0,0:0:0:0:
256,192,176002,1,0,0:0:0:0:
475,192,176002,1,0,0:0:0:0:
36,192,176318,1,0,0:0:0:0:
109,192,176318,1,0,0:0:0:0:
402,192,176318,1,0,0:0:0:0:
475,192,176318,1,0,0:0:0:0:
182,192,176318,128,0,176791:0:0:0:0:
329,192,176318,128,0,176791:0:0:0:0:
402,192,176791,1,0,0:0:0:0:
36,192,176791,1,0,0:0:0:0:
475,192,176791,1,0,0:0:0:0:
256,192,176870,1,0,0:0:0:0:
109,192,176949,1,0,0:0:0:0:
36,192,177028,128,0,177344:0:0:0:0:
256,192,177028,1,0,0:0:0:0:
182,192,177107,128,0,177423:0:0:0:0:
402,192,177107,1,0,0:0:0:0:
475,192,177107,1,0,0:0:0:0:
329,192,177186,128,0,177502:0:0:0:0:
475,192,177265,128,0,177581:0:0:0:0:
109,192,177344,128,0,177502:0:0:0:0:
256,192,177423,128,0,177581:0:0:0:0:
402,192,177502,128,0,177660:0:0:0:0:
109,192,177581,1,0,0:0:0:0:
256,192,177660,1,0,0:0:0:0:
402,192,177739,1,0,0:0:0:0:
475,192,177739,1,0,0:0:0:0:
109,192,177739,1,0,0:0:0:0:
182,192,177739,128,0,177897:0:0:0:0:
329,192,177739,128,0,178370:0:0:0:0:
256,192,177818,1,0,0:0:0:0:
36,192,177897,128,0,178055:0:0:0:0:
402,192,177897,1,0,0:0:0:0:
475,192,177976,1,0,0:0:0:0:
182,192,178055,128,0,178212:0:0:0:0:
402,192,178055,1,0,0:0:0:0:
256,192,178055,1,0,0:0:0:0:
36,192,178134,1,0,0:0:0:0:
475,192,178212,128,0,178370:0:0:0:0:
109,192,178212,1,0,0:0:0:0:
182,192,178291,1,0,0:0:0:0:
256,192,178370,128,0,178528:0:0:0:0:
36,192,178370,128,0,179002:0:0:0:0:
402,192,178370,1,0,0:0:0:0:
109,192,178449,1,0,0:0:0:0:
402,192,178528,128,0,178686:0:0:0:0:
329,192,178528,1,0,0:0:0:0:
182,192,178607,1,0,0:0:0:0:
109,192,178686,128,0,178844:0:0:0:0:
329,192,178686,1,0,0:0:0:0:
475,192,178686,1,0,0:0:0:0:
256,192,178765,1,0,0:0:0:0:
402,192,178844,128,0,179002:0:0:0:0:
475,192,178844,1,0,0:0:0:0:
109,192,178923,1,0,0:0:0:0:
256,192,179002,128,0,179160:0:0:0:0:
329,192,179002,128,0,179634:0:0:0:0:
182,192,179002,1,0,0:0:0:0:
475,192,179081,1,0,0:0:0:0:
109,192,179160,128,0,179318:0:0:0:0:
402,192,179160,1,0,0:0:0:0:
256,192,179239,1,0,0:0:0:0:
402,192,179318,128,0,179476:0:0:0:0:
36,192,179318,1,0,0:0:0:0:
182,192,179397,1,0,0:0:0:0:
475,192,179476,128,0,179634:0:0:0:0:
109,192,179476,1,0,0:0:0:0:
36,192,179555,1,0,0:0:0:0:
109,192,179634,128,0,179949:0:0:0:0:
402,192,179634,1,0,0:0:0:0:
182,192,179634,1,0,0:0:0:0:
329,192,179712,1,0,0:0:0:0:
256,192,179712,1,0,0:0:0:0:
475,192,179791,1,0,0:0:0:0:
182,192,179791,1,0,0:0:0:0:
402,192,179870,1,0,0:0:0:0:
256,192,179870,1,0,0:0:0:0:
182,192,179949,128,0,180265:0:0:0:0:
329,192,179949,1,0,0:0:0:0:
36,192,179949,1,0,0:0:0:0:
402,192,180028,1,0,0:0:0:0:
109,192,180028,1,0,0:0:0:0:
475,192,180107,1,0,0:0:0:0:
256,192,180107,1,0,0:0:0:0:
402,192,180186,1,0,0:0:0:0:
109,192,180186,1,0,0:0:0:0:
256,192,180265,1,0,0:0:0:0:
475,192,180265,128,0,180581:0:0:0:0:
329,192,180265,1,0,0:0:0:0:
36,192,180265,1,0,0:0:0:0:
109,192,180423,1,0,0:0:0:0:
109,192,180581,1,0,0:0:0:0:
402,192,180581,1,0,0:0:0:0:
256,192,180739,1,0,0:0:0:0:
109,192,180739,1,0,0:0:0:0:
36,192,180739,1,0,0:0:0:0:
329,192,180739,128,0,181055:0:0:0:0:
256,192,181055,128,0,181370:0:0:0:0:
36,192,181212,1,0,0:0:0:0:
475,192,181212,1,0,0:0:0:0:
109,192,181291,1,0,0:0:0:0:
402,192,181291,1,0,0:0:0:0:
329,192,181370,1,0,0:0:0:0:
182,192,181370,128,0,182160:0:0:0:0:
475,192,181528,1,0,0:0:0:0:
109,192,181607,1,0,0:0:0:0:
402,192,181686,1,0,0:0:0:0:
256,192,181765,1,0,0:0:0:0:
475,192,181844,1,0,0:0:0:0:
36,192,181844,1,0,0:0:0:0:
329,192,181923,1,0,0:0:0:0:
109,192,182002,1,0,0:0:0:0:
329,192,182081,1,0,0:0:0:0:
256,192,182160,128,0,182476:0:0:0:0:
475,192,182160,1,0,0:0:0:0:
36,192,182160,1,0,0:0:0:0:
402,192,182239,1,0,0:0:0:0:
329,192,182318,1,0,0:0:0:0:
182,192,182397,1,0,0:0:0:0:
329,192,182476,128,0,182791:0:0:0:0:
109,192,182476,1,0,0:0:0:0:
36,192,182555,1,0,0:0:0:0:
109,192,182634,1,0,0:0:0:0:
182,192,182712,1,0,0:0:0:0:
256,192,182791,5,0,0:0:0:0:
402,192,182791,128,0,183423:0:0:0:0:
36,192,183107,1,0,0:0:0:0:
109,192,183107,1,0,0:0:0:0:
256,192,183265,1,0,0:0:0:0:
329,192,183265,1,0,0:0:0:0:
36,192,183423,5,0,0:0:0:0:
329,192,183423,1,0,0:0:0:0:
256,192,183423,1,0,0:0:0:0:
475,192,183423,128,0,184055:0:0:0:0:
109,192,183739,1,0,0:0:0:0:
36,192,183739,1,0,0:0:0:0:
256,192,184055,1,0,0:0:0:0:
109,192,184055,128,0,185318:0:0:0:0:
402,192,184055,1,0,0:0:0:0:
36,192,184055,1,0,0:0:0:0:
402,192,184370,1,0,0:0:0:0:
475,192,184370,1,0,0:0:0:0:
402,192,184686,1,0,0:0:0:0:
475,192,184686,1,0,0:0:0:0:
256,192,184686,128,0,185002:0:0:0:0:
475,192,185002,1,0,0:0:0:0:
402,192,185002,1,0,0:0:0:0:
182,192,185002,128,0,185318:0:0:0:0:
402,192,185318,128,0,186581:0:0:0:0:
256,192,185318,1,0,0:0:0:0:
36,192,185318,128,0,185949:0:0:0:0:
256,192,185634,1,0,0:0:0:0:
109,192,185791,1,0,0:0:0:0:
182,192,185791,1,0,0:0:0:0:
256,192,185949,1,0,0:0:0:0:
329,192,185949,1,0,0:0:0:0:
109,192,185949,128,0,186581:0:0:0:0:
182,192,186107,1,0,0:0:0:0:
256,192,186186,1,0,0:0:0:0:
329,192,186265,1,0,0:0:0:0:
329,192,186423,1,0,0:0:0:0:
256,192,186502,1,0,0:0:0:0:
182,192,186581,1,0,0:0:0:0:
475,192,186581,128,0,187844:0:0:0:0:
36,192,186581,128,0,187844:0:0:0:0:
182,192,186818,1,0,0:0:0:0:
256,192,186897,1,0,0:0:0:0:
329,192,186976,1,0,0:0:0:0:
402,192,187055,1,0,0:0:0:0:
329,192,187134,1,0,0:0:0:0:
256,192,187212,1,0,0:0:0:0:
182,192,187291,1,0,0:0:0:0:
109,192,187370,1,0,0:0:0:0:
182,192,187449,1,0,0:0:0:0:
256,192,187528,1,0,0:0:0:0:
329,192,187607,1,0,0:0:0:0:
402,192,187686,1,0,0:0:0:0:
329,192,187765,1,0,0:0:0:0:
256,192,187844,1,0,0:0:0:0:
109,192,187844,128,0,188081:0:0:0:0:
182,192,187844,1,0,0:0:0:0:
402,192,187923,1,0,0:0:0:0:
36,192,188002,128,0,188239:0:0:0:0:
182,192,188002,1,0,0:0:0:0:
475,192,188081,1,0,0:0:0:0:
109,192,188160,128,0,188397:0:0:0:0:
256,192,188160,1,0,0:0:0:0:
329,192,188160,1,0,0:0:0:0:
402,192,188239,1,0,0:0:0:0:
182,192,188318,128,0,188555:0:0:0:0:
256,192,188318,1,0,0:0:0:0:
475,192,188397,1,0,0:0:0:0:
109,192,188476,128,0,188712:0:0:0:0:
329,192,188476,1,0,0:0:0:0:
402,192,188476,1,0,0:0:0:0:
36,192,188555,1,0,0:0:0:0:
256,192,188634,128,0,188870:0:0:0:0:
402,192,188634,1,0,0:0:0:0:
475,192,188712,1,0,0:0:0:0:
182,192,188791,128,0,189028:0:0:0:0:
329,192,188791,1,0,0:0:0:0:
109,192,188791,1,0,0:0:0:0:
36,192,188870,1,0,0:0:0:0:
402,192,188949,128,0,189186:0:0:0:0:
256,192,188949,1,0,0:0:0:0:
475,192,189028,1,0,0:0:0:0:
329,192,189107,128,0,189344:0:0:0:0:
109,192,189107,1,0,0:0:0:0:
182,192,189107,1,0,0:0:0:0:
256,192,189186,1,0,0:0:0:0:
475,192,189265,128,0,189502:0:0:0:0:
36,192,189265,1,0,0:0:0:0:
182,192,189344,1,0,0:0:0:0:
402,192,189423,128,0,189660:0:0:0:0:
329,192,189423,1,0,0:0:0:0:
256,192,189423,1,0,0:0:0:0:
109,192,189502,1,0,0:0:0:0:
256,192,189581,128,0,189818:0:0:0:0:
329,192,189581,1,0,0:0:0:0:
36,192,189660,1,0,0:0:0:0:
329,192,189739,128,0,189976:0:0:0:0:
475,192,189739,1,0,0:0:0:0:
402,192,189739,1,0,0:0:0:0:
109,192,189818,1,0,0:0:0:0:
182,192,189897,128,0,190055:0:0:0:0:
475,192,189897,1,0,0:0:0:0:
36,192,189976,1,0,0:0:0:0:
402,192,189976,1,0,0:0:0:0:
109,192,190055,128,0,190686:0:0:0:0:
256,192,190055,1,0,0:0:0:0:
475,192,190055,1,0,0:0:0:0:
329,192,190134,1,0,0:0:0:0:
402,192,190212,1,0,0:0:0:0:
475,192,190291,1,0,0:0:0:0:
182,192,190370,1,0,0:0:0:0:
329,192,190370,1,0,0:0:0:0:
256,192,190370,1,0,0:0:0:0:
182,192,190528,1,0,0:0:0:0:
256,192,190686,128,0,191081:0:0:0:0:
36,192,190686,1,0,0:0:0:0:
329,192,190765,128,0,191002:0:0:0:0:
402,192,190844,128,0,190923:0:0:0:0:
109,192,190844,1,0,0:0:0:0:
182,192,190844,1,0,0:0:0:0:
475,192,190923,128,0,191634:0:0:0:0:
402,192,191002,128,0,191634:0:0:0:0:
36,192,191002,1,0,0:0:0:0:
329,192,191081,128,0,191634:0:0:0:0:
256,192,191160,128,0,191555:0:0:0:0:
36,192,191160,1,0,0:0:0:0:
182,192,191239,128,0,191476:0:0:0:0:
109,192,191318,128,0,191397:0:0:0:0:
36,192,191397,1,0,0:0:0:0:
109,192,191476,1,0,0:0:0:0:
182,192,191555,1,0,0:0:0:0:
256,192,191634,5,0,0:0:0:0:
36,192,191634,128,0,191949:0:0:0:0:
109,192,191634,128,0,191949:0:0:0:0:
329,192,191712,1,0,0:0:0:0:
402,192,191791,1,0,0:0:0:0:
475,192,191870,1,0,0:0:0:0:
256,192,191949,5,0,0:0:0:0:
402,192,191949,128,0,192265:0:0:0:0:
329,192,191949,128,0,192265:0:0:0:0:
182,192,192028,1,0,0:0:0:0:
109,192,192107,1,0,0:0:0:0:
36,192,192186,1,0,0:0:0:0:
109,192,192265,128,0,192581:0:0:0:0:
475,192,192265,1,0,0:0:0:0:
256,192,192265,1,0,0:0:0:0:
329,192,192423,1,0,0:0:0:0:
475,192,192423,1,0,0:0:0:0:
182,192,192581,128,0,192897:0:0:0:0:
402,192,192581,1,0,0:0:0:0:
475,192,192581,1,0,0:0:0:0:
329,192,192739,1,0,0:0:0:0:
402,192,192739,1,0,0:0:0:0:
475,192,192739,1,0,0:0:0:0:
256,192,192897,5,0,0:0:0:0:
329,192,192897,1,0,0:0:0:0:
475,192,192897,1,0,0:0:0:0:
402,192,192897,1,0,0:0:0:0:
36,192,192897,1,0,0:0:0:0:
329,192,193212,1,0,0:0:0:0:
475,192,193528,1,0,0:0:0:0:
256,192,193844,1,0,0:0:0:0:
182,192,194002,1,0,0:0:0:0:
182,192,194476,1,0,0:0:0:0:
402,192,194791,1,0,0:0:0:0:
329,192,195107,1,0,0:0:0:0:
256,192,195265,1,0,0:0:0:0:
182,192,195423,1,0,0:0:0:0:
256,192,195739,1,0,0:0:0:0:
329,192,195897,1,0,0:0:0:0:
256,192,196212,1,0,0:0:0:0:
182,192,196528,1,0,0:0:0:0:
256,192,197002,1,0,0:0:0:0:
109,192,197318,1,0,0:0:0:0:
402,192,197318,1,0,0:0:0:0:
182,192,197634,1,0,0:0:0:0:
475,192,197634,1,0,0:0:0:0:
256,192,197949,1,0,0:0:0:0:
402,192,197949,1,0,0:0:0:0:
182,192,198265,1,0,0:0:0:0:
36,192,198581,1,0,0:0:0:0:
329,192,198897,1,0,0:0:0:0:
329,192,199055,1,0,0:0:0:0:
109,192,199212,1,0,0:0:0:0:
256,192,199528,1,0,0:0:0:0:
36,192,199844,128,0,200160:0:0:0:0:
402,192,199844,1,0,0:0:0:0:
256,192,200160,128,0,200476:0:0:0:0:
182,192,200476,128,0,200791:0:0:0:0:
109,192,200791,1,0,0:0:0:0:
109,192,200949,128,0,201423:0:0:0:0:
36,192,201423,1,0,0:0:0:0:
256,192,201581,1,0,0:0:0:0:
182,192,202370,128,0,202686:0:0:0:0:
329,192,202686,128,0,203002:0:0:0:0:
475,192,203002,1,0,0:0:0:0:
402,192,203002,1,0,0:0:0:0:
256,192,203002,1,0,0:0:0:0:
256,192,203160,1,0,0:0:0:0:
329,192,203160,1,0,0:0:0:0:
402,192,203160,1,0,0:0:0:0:
475,192,203160,1,0,0:0:0:0:
182,192,203318,1,0,0:0:0:0:
109,192,203318,1,0,0:0:0:0:
36,192,203318,1,0,0:0:0:0:
256,192,203476,1,0,0:0:0:0:
329,192,203476,1,0,0:0:0:0:
475,192,203476,1,0,0:0:0:0:
402,192,203476,1,0,0:0:0:0:
182,192,203634,128,0,204265:0:0:0:0:
109,192,203634,128,0,204265:0:0:0:0:
36,192,203634,128,0,204265:0:0:0:0:
402,192,203949,128,0,204107:0:0:0:0:
329,192,204107,128,0,204265:0:0:0:0:
256,192,204265,1,0,0:0:0:0:
475,192,204265,1,0,0:0:0:0:
402,192,204265,1,0,0:0:0:0:
256,192,204423,1,0,0:0:0:0:
329,192,204423,1,0,0:0:0:0:
475,192,204423,1,0,0:0:0:0:
402,192,204423,1,0,0:0:0:0:
182,192,204581,1,0,0:0:0:0:
109,192,204581,1,0,0:0:0:0:
36,192,204581,1,0,0:0:0:0:
256,192,204739,1,0,0:0:0:0:
329,192,204739,1,0,0:0:0:0:
475,192,204739,1,0,0:0:0:0:
402,192,204739,1,0,0:0:0:0:
182,192,204897,128,0,205528:0:0:0:0:
109,192,204897,128,0,205528:0:0:0:0:
36,192,204897,128,0,205528:0:0:0:0:
329,192,205212,1,0,0:0:0:0:
402,192,205370,1,0,0:0:0:0:
475,192,205528,1,0,0:0:0:0:
256,192,205528,1,0,0:0:0:0:
402,192,205528,1,0,0:0:0:0:
329,192,205528,1,0,0:0:0:0:
256,192,205686,1,0,0:0:0:0:
329,192,205686,1,0,0:0:0:0:
402,192,205686,1,0,0:0:0:0:
475,192,205686,1,0,0:0:0:0:
182,192,205844,1,0,0:0:0:0:
109,192,205844,1,0,0:0:0:0:
36,192,205844,1,0,0:0:0:0:
329,192,206002,1,0,0:0:0:0:
256,192,206002,1,0,0:0:0:0:
402,192,206002,1,0,0:0:0:0:
475,192,206002,1,0,0:0:0:0:
182,192,206160,128,0,206791:0:0:0:0:
36,192,206160,128,0,206791:0:0:0:0:
109,192,206160,128,0,206791:0:0:0:0:
329,192,206476,128,0,206634:0:0:0:0:
402,192,206634,128,0,206791:0:0:0:0:
256,192,206791,1,0,0:0:0:0:
329,192,206791,1,0,0:0:0:0:
475,192,206791,1,0,0:0:0:0:
256,192,206949,1,0,0:0:0:0:
329,192,206949,1,0,0:0:0:0:
402,192,206949,1,0,0:0:0:0:
475,192,206949,1,0,0:0:0:0:
182,192,207107,1,0,0:0:0:0:
109,192,207107,1,0,0:0:0:0:
36,192,207107,1,0,0:0:0:0:
256,192,207265,1,0,0:0:0:0:
329,192,207265,1,0,0:0:0:0:
402,192,207265,1,0,0:0:0:0:
475,192,207265,1,0,0:0:0:0:
182,192,207344,1,0,0:0:0:0:
256,192,207423,1,0,0:0:0:0:
36,192,207423,128,0,207739:0:0:0:0:
109,192,207423,1,0,0:0:0:0:
475,192,207423,1,0,0:0:0:0:
402,192,207423,1,0,0:0:0:0:
256,192,207581,1,0,0:0:0:0:
329,192,207581,1,0,0:0:0:0:
402,192,207581,1,0,0:0:0:0:
256,192,207739,1,0,0:0:0:0:
109,192,207739,128,0,208055:0:0:0:0:
182,192,207739,1,0,0:0:0:0:
402,192,207739,1,0,0:0:0:0:
475,192,207739,1,0,0:0:0:0:
256,192,207897,1,0,0:0:0:0:
329,192,207897,1,0,0:0:0:0:
475,192,207897,1,0,0:0:0:0:
256,192,208055,1,0,0:0:0:0:
182,192,208055,128,0,209002:0:0:0:0:
36,192,208055,1,0,0:0:0:0:
329,192,208055,1,0,0:0:0:0:
402,192,208055,1,0,0:0:0:0:
475,192,208055,1,0,0:0:0:0:
256,192,209002,1,0,0:0:0:0:
256,192,209160,128,0,209634:0:0:0:0:
36,192,209949,128,0,210265:0:0:0:0:
329,192,209949,128,0,210265:0:0:0:0:
109,192,210265,128,0,210581:0:0:0:0:
402,192,210265,128,0,210581:0:0:0:0:
182,192,210265,1,0,0:0:0:0:
256,192,210344,1,0,0:0:0:0:
329,192,210423,1,0,0:0:0:0:
256,192,210502,1,0,0:0:0:0:
36,192,210581,5,0,0:0:0:0:
182,192,210581,128,0,211055:0:0:0:0:
475,192,210581,128,0,211055:0:0:0:0:
36,192,210739,1,0,0:0:0:0:
329,192,210739,1,0,0:0:0:0:
36,192,210897,1,0,0:0:0:0:
329,192,210897,1,0,0:0:0:0:
402,192,211055,1,0,0:0:0:0:
256,192,211055,1,0,0:0:0:0:
36,192,211055,1,0,0:0:0:0:
402,192,211212,128,0,212634:0:0:0:0:
256,192,211212,128,0,212634:0:0:0:0:
36,192,211212,1,0,0:0:0:0:
109,192,211291,1,0,0:0:0:0:
182,192,211370,1,0,0:0:0:0:
109,192,211449,1,0,0:0:0:0:
36,192,211528,1,0,0:0:0:0:
109,192,211607,1,0,0:0:0:0:
182,192,211686,1,0,0:0:0:0:
329,192,211686,1,0,0:0:0:0:
475,192,211686,1,0,0:0:0:0:
36,192,211844,1,0,0:0:0:0:
109,192,211923,1,0,0:0:0:0:
329,192,212002,1,0,0:0:0:0:
475,192,212002,1,0,0:0:0:0:
182,192,212002,1,0,0:0:0:0:
329,192,212160,128,0,212634:0:0:0:0:
475,192,212160,128,0,212634:0:0:0:0:
36,192,212160,1,0,0:0:0:0:
109,192,212239,1,0,0:0:0:0:
182,192,212318,1,0,0:0:0:0:
109,192,212397,1,0,0:0:0:0:
36,192,212476,1,0,0:0:0:0:
109,192,212555,1,0,0:0:0:0:
182,192,212634,1,0,0:0:0:0:
256,192,212712,1,0,0:0:0:0:
329,192,212791,1,0,0:0:0:0:
256,192,212870,1,0,0:0:0:0:
36,192,212949,1,0,0:0:0:0:
109,192,212949,1,0,0:0:0:0:
182,192,212949,1,0,0:0:0:0:
329,192,212949,1,0,0:0:0:0:
475,192,212949,1,0,0:0:0:0:
402,192,212949,1,0,0:0:0:0:
36,192,213265,1,0,0:0:0:0:
109,192,213265,1,0,0:0:0:0:
182,192,213265,1,0,0:0:0:0:
329,192,213265,1,0,0:0:0:0:
402,192,213265,1,0,0:0:0:0:
475,192,213265,1,0,0:0:0:0:
475,192,213423,128,0,213739:0:0:0:0:
402,192,213423,128,0,213739:0:0:0:0:
329,192,213423,128,0,213739:0:0:0:0:
182,192,213423,128,0,213739:0:0:0:0:
109,192,213423,128,0,213739:0:0:0:0:
36,192,213423,128,0,213739:0:0:0:0:
182,192,214055,128,0,214370:0:0:0:0:
402,192,214055,128,0,214370:0:0:0:0:
256,192,214370,128,0,214449:0:0:0:0:
329,192,214370,128,0,214686:0:0:0:0:
36,192,214370,128,0,215634:0:0:0:0:
475,192,214370,128,0,214449:0:0:0:0:
109,192,214370,128,0,214449:0:0:0:0:
402,192,214449,128,0,214528:0:0:0:0:
109,192,214528,128,0,214607:0:0:0:0:
475,192,214528,128,0,214607:0:0:0:0:
182,192,214607,128,0,214686:0:0:0:0:
402,192,214686,128,0,214765:0:0:0:0:
256,192,214686,128,0,215002:0:0:0:0:
109,192,214686,128,0,214765:0:0:0:0:
475,192,214686,128,0,214765:0:0:0:0:
329,192,214765,128,0,214844:0:0:0:0:
402,192,214844,128,0,214923:0:0:0:0:
109,192,214844,128,0,214923:0:0:0:0:
182,192,214923,128,0,215002:0:0:0:0:
329,192,215002,128,0,215081:0:0:0:0:
109,192,215002,128,0,215081:0:0:0:0:
402,192,215002,128,0,215318:0:0:0:0:
475,192,215002,128,0,215081:0:0:0:0:
256,192,215081,128,0,215160:0:0:0:0:
182,192,215160,128,0,215239:0:0:0:0:
475,192,215160,128,0,215239:0:0:0:0:
256,192,215239,128,0,215318:0:0:0:0:
329,192,215318,128,0,215397:0:0:0:0:
475,192,215318,128,0,215397:0:0:0:0:
182,192,215318,128,0,215634:0:0:0:0:
109,192,215318,128,0,215397:0:0:0:0:
256,192,215397,128,0,215476:0:0:0:0:
475,192,215476,128,0,215555:0:0:0:0:
329,192,215476,128,0,215555:0:0:0:0:
402,192,215555,128,0,215634:0:0:0:0:
329,192,215634,128,0,215712:0:0:0:0:
109,192,215634,128,0,215949:0:0:0:0:
256,192,215634,128,0,216897:0:0:0:0:
475,192,215634,128,0,215712:0:0:0:0:
402,192,215712,128,0,215791:0:0:0:0:
329,192,215791,128,0,215870:0:0:0:0:
36,192,215791,128,0,215870:0:0:0:0:
182,192,215870,128,0,215949:0:0:0:0:
402,192,215949,128,0,216265:0:0:0:0:
36,192,215949,128,0,216028:0:0:0:0:
475,192,215949,128,0,216028:0:0:0:0:
329,192,215949,128,0,216028:0:0:0:0:
109,192,216028,128,0,216107:0:0:0:0:
182,192,216107,128,0,216186:0:0:0:0:
329,192,216107,128,0,216186:0:0:0:0:
109,192,216186,128,0,216265:0:0:0:0:
329,192,216265,128,0,216344:0:0:0:0:
475,192,216265,128,0,216581:0:0:0:0:
182,192,216265,128,0,216344:0:0:0:0:
36,192,216265,128,0,216344:0:0:0:0:
402,192,216344,128,0,216423:0:0:0:0:
109,192,216423,128,0,216502:0:0:0:0:
182,192,216423,128,0,216502:0:0:0:0:
329,192,216502,128,0,216581:0:0:0:0:
182,192,216581,128,0,216660:0:0:0:0:
109,192,216581,128,0,216897:0:0:0:0:
36,192,216581,128,0,216660:0:0:0:0:
402,192,216581,128,0,216660:0:0:0:0:
329,192,216660,128,0,216739:0:0:0:0:
182,192,216739,128,0,216818:0:0:0:0:
475,192,216739,128,0,216818:0:0:0:0:
329,192,216818,128,0,216897:0:0:0:0:
182,192,216897,128,0,216976:0:0:0:0:
36,192,216897,128,0,217055:0:0:0:0:
475,192,216897,128,0,218160:0:0:0:0:
402,192,216897,128,0,216976:0:0:0:0:
329,192,216976,128,0,217055:0:0:0:0:
256,192,217055,128,0,217212:0:0:0:0:
109,192,217055,128,0,217134:0:0:0:0:
402,192,217055,128,0,217134:0:0:0:0:
182,192,217134,128,0,217212:0:0:0:0:
36,192,217212,128,0,217370:0:0:0:0:
402,192,217212,128,0,217291:0:0:0:0:
109,192,217212,128,0,217291:0:0:0:0:
182,192,217291,128,0,217370:0:0:0:0:
402,192,217370,128,0,217528:0:0:0:0:
256,192,217370,128,0,217449:0:0:0:0:
329,192,217370,128,0,217449:0:0:0:0:
182,192,217449,128,0,217528:0:0:0:0:
256,192,217528,128,0,217686:0:0:0:0:
36,192,217528,128,0,217607:0:0:0:0:
109,192,217528,128,0,217607:0:0:0:0:
402,192,217607,128,0,217686:0:0:0:0:
109,192,217686,128,0,217844:0:0:0:0:
329,192,217686,128,0,217765:0:0:0:0:
182,192,217686,128,0,217765:0:0:0:0:
256,192,217765,128,0,217844:0:0:0:0:
329,192,217844,128,0,218002:0:0:0:0:
182,192,217844,128,0,217923:0:0:0:0:
36,192,217844,128,0,217923:0:0:0:0:
256,192,217923,128,0,218002:0:0:0:0:
109,192,218002,128,0,218081:0:0:0:0:
402,192,218002,128,0,218160:0:0:0:0:
36,192,218002,128,0,218081:0:0:0:0:
182,192,218081,128,0,218160:0:0:0:0:
256,192,218160,128,0,218318:0:0:0:0:
109,192,218160,128,0,219423:0:0:0:0:
36,192,218160,128,0,218239:0:0:0:0:
329,192,218160,128,0,218239:0:0:0:0:
182,192,218239,128,0,218318:0:0:0:0:
475,192,218318,128,0,218476:0:0:0:0:
329,192,218318,128,0,218397:0:0:0:0:
36,192,218318,128,0,218397:0:0:0:0:
256,192,218397,128,0,218476:0:0:0:0:
402,192,218476,128,0,218555:0:0:0:0:
182,192,218476,128,0,218634:0:0:0:0:
36,192,218476,128,0,218555:0:0:0:0:
329,192,218555,128,0,218634:0:0:0:0:
36,192,218634,128,0,218791:0:0:0:0:
256,192,218634,128,0,218712:0:0:0:0:
475,192,218634,128,0,218712:0:0:0:0:
329,192,218712,128,0,218791:0:0:0:0:
182,192,218791,128,0,218870:0:0:0:0:
402,192,218791,128,0,218949:0:0:0:0:
475,192,218791,128,0,218870:0:0:0:0:
256,192,218870,128,0,218949:0:0:0:0:
182,192,218949,128,0,219107:0:0:0:0:
329,192,218949,128,0,219028:0:0:0:0:
475,192,218949,128,0,219028:0:0:0:0:
36,192,218949,128,0,219028:0:0:0:0:
402,192,219028,128,0,219107:0:0:0:0:
36,192,219107,128,0,219186:0:0:0:0:
256,192,219107,128,0,219265:0:0:0:0:
329,192,219107,128,0,219186:0:0:0:0:
475,192,219186,128,0,219265:0:0:0:0:
402,192,219265,128,0,219344:0:0:0:0:
329,192,219265,128,0,219423:0:0:0:0:
36,192,219265,128,0,219344:0:0:0:0:
182,192,219344,128,0,219423:0:0:0:0:
402,192,219423,128,0,220686:0:0:0:0:
36,192,219423,128,0,219739:0:0:0:0:
475,192,219423,128,0,219502:0:0:0:0:
256,192,219423,128,0,219581:0:0:0:0:
109,192,219502,128,0,219581:0:0:0:0:
329,192,219581,128,0,219660:0:0:0:0:
182,192,219581,128,0,219739:0:0:0:0:
475,192,219581,128,0,219660:0:0:0:0:
256,192,219660,128,0,219739:0:0:0:0:
109,192,219739,128,0,220055:0:0:0:0:
329,192,219739,128,0,219897:0:0:0:0:
475,192,219739,128,0,219818:0:0:0:0:
182,192,219818,128,0,219897:0:0:0:0:
256,192,219897,128,0,220055:0:0:0:0:
475,192,219897,128,0,219976:0:0:0:0:
36,192,219976,128,0,220055:0:0:0:0:
182,192,220055,128,0,220370:0:0:0:0:
475,192,220055,128,0,220212:0:0:0:0:
329,192,220055,128,0,220134:0:0:0:0:
256,192,220134,128,0,220212:0:0:0:0:
329,192,220212,128,0,220370:0:0:0:0:
36,192,220212,128,0,220291:0:0:0:0:
109,192,220212,128,0,220291:0:0:0:0:
475,192,220291,128,0,220370:0:0:0:0:
36,192,220370,128,0,220528:0:0:0:0:
109,192,220370,128,0,220449:0:0:0:0:
256,192,220370,128,0,220607:0:0:0:0:
182,192,220449,128,0,220528:0:0:0:0:
329,192,220528,128,0,220607:0:0:0:0:
109,192,220528,128,0,220686:0:0:0:0:
475,192,220607,128,0,220686:0:0:0:0:
182,192,220686,128,0,221949:0:0:0:0:
329,192,220686,128,0,220844:0:0:0:0:
36,192,220686,128,0,221002:0:0:0:0:
256,192,220686,128,0,220765:0:0:0:0:
402,192,220765,128,0,220844:0:0:0:0:
475,192,220844,128,0,221002:0:0:0:0:
256,192,220844,128,0,220923:0:0:0:0:
109,192,220923,128,0,221002:0:0:0:0:
329,192,221002,128,0,221318:0:0:0:0:
256,192,221002,128,0,221160:0:0:0:0:
402,192,221002,128,0,221081:0:0:0:0:
109,192,221081,128,0,221160:0:0:0:0:
402,192,221160,128,0,221318:0:0:0:0:
475,192,221160,128,0,221239:0:0:0:0:
36,192,221239,128,0,221318:0:0:0:0:
475,192,221318,128,0,221634:0:0:0:0:
109,192,221318,128,0,221476:0:0:0:0:
256,192,221318,128,0,221397:0:0:0:0:
329,192,221397,128,0,221476:0:0:0:0:
402,192,221476,128,0,221555:0:0:0:0:
256,192,221476,128,0,221634:0:0:0:0:
36,192,221476,128,0,221555:0:0:0:0:
109,192,221555,128,0,221634:0:0:0:0:
402,192,221634,128,0,221949:0:0:0:0:
36,192,221634,128,0,221791:0:0:0:0:
329,192,221634,128,0,221712:0:0:0:0:
256,192,221712,128,0,221791:0:0:0:0:
109,192,221791,128,0,221949:0:0:0:0:
475,192,221791,128,0,221870:0:0:0:0:
329,192,221870,128,0,221949:0:0:0:0:
36,192,221949,128,0,222265:0:0:0:0:
256,192,221949,128,0,222265:0:0:0:0:
475,192,222107,128,0,222423:0:0:0:0:
182,192,222107,128,0,222423:0:0:0:0:
402,192,222265,128,0,222581:0:0:0:0:
109,192,222265,128,0,222581:0:0:0:0:
329,192,222265,1,0,0:0:0:0:
256,192,222423,128,0,222739:0:0:0:0:
36,192,222423,128,0,222739:0:0:0:0:
475,192,222581,128,0,222897:0:0:0:0:
182,192,222581,128,0,222897:0:0:0:0:
329,192,222581,128,0,222897:0:0:0:0:
109,192,222739,128,0,223055:0:0:0:0:
402,192,222897,128,0,223212:0:0:0:0:
256,192,222897,128,0,223212:0:0:0:0:
36,192,223055,128,0,223212:0:0:0:0:
109,192,223212,1,0,0:0:0:0:
182,192,223212,1,0,0:0:0:0:
329,192,223212,1,0,0:0:0:0:
475,192,223212,1,0,0:0:0:0:
36,192,223528,1,0,0:0:0:0:
109,192,223528,1,0,0:0:0:0:
182,192,223528,1,0,0:0:0:0:
329,192,223528,1,0,0:0:0:0:
402,192,223528,1,0,0:0:0:0:
475,192,223528,1,0,0:0:0:0:
36,192,223844,128,0,223884:0:0:0:0:
109,192,223844,128,0,223962:0:0:0:0:
182,192,223844,128,0,224041:0:0:0:0:
329,192,223844,128,0,224199:0:0:0:0:
402,192,223844,128,0,224278:0:0:0:0:
475,192,223844,128,0,224357:0:0:0:0:
36,192,223923,1,0,0:0:0:0:
109,192,224002,1,0,0:0:0:0:
182,192,224081,1,0,0:0:0:0:
256,192,224160,1,0,0:0:0:0:
329,192,224239,1,0,0:0:0:0:
402,192,224318,1,0,0:0:0:0:
475,192,224397,128,0,224752:0:0:0:0:
402,192,224476,128,0,224752:0:0:0:0:
256,192,224476,1,0,0:0:0:0:
329,192,224555,128,0,224752:0:0:0:0:
182,192,224555,1,0,0:0:0:0:
256,192,224634,128,0,224791:0:0:0:0:
109,192,224634,1,0,0:0:0:0:
182,192,224712,128,0,224791:0:0:0:0:
36,192,224712,1,0,0:0:0:0:
109,192,224791,1,0,0:0:0:0:
329,192,224791,128,0,225739:0:0:0:0:
475,192,224791,128,0,225107:0:0:0:0:
402,192,224791,128,0,224949:0:0:0:0:
256,192,224949,128,0,225107:0:0:0:0:
109,192,225107,128,0,225423:0:0:0:0:
182,192,225107,128,0,225265:0:0:0:0:
475,192,225265,128,0,225423:0:0:0:0:
402,192,225423,128,0,225739:0:0:0:0:
36,192,225423,128,0,225581:0:0:0:0:
109,192,225581,128,0,225739:0:0:0:0:
182,192,225739,128,0,227002:0:0:0:0:
256,192,225739,128,0,226055:0:0:0:0:
475,192,225739,128,0,225897:0:0:0:0:
36,192,225739,128,0,225818:0:0:0:0:
109,192,225818,128,0,225897:0:0:0:0:
36,192,225897,128,0,226055:0:0:0:0:
329,192,225897,128,0,225976:0:0:0:0:
475,192,225976,128,0,226055:0:0:0:0:
402,192,226055,128,0,226212:0:0:0:0:
109,192,226055,128,0,226370:0:0:0:0:
329,192,226055,128,0,226134:0:0:0:0:
256,192,226134,128,0,226212:0:0:0:0:
329,192,226212,128,0,226370:0:0:0:0:
475,192,226212,128,0,226291:0:0:0:0:
402,192,226291,128,0,226370:0:0:0:0:
475,192,226370,128,0,226686:0:0:0:0:
36,192,226370,128,0,226528:0:0:0:0:
256,192,226370,128,0,226449:0:0:0:0:
402,192,226449,128,0,226528:0:0:0:0:
256,192,226528,128,0,226686:0:0:0:0:
109,192,226528,128,0,226607:0:0:0:0:
329,192,226686,128,0,227002:0:0:0:0:
109,192,226686,128,0,226844:0:0:0:0:
36,192,226686,128,0,226765:0:0:0:0:
402,192,226765,128,0,226844:0:0:0:0:
475,192,226844,128,0,227002:0:0:0:0:
256,192,226844,128,0,226923:0:0:0:0:
402,192,227002,128,0,228107:0:0:0:0:
109,192,227002,128,0,227318:0:0:0:0:
256,192,227002,128,0,227160:0:0:0:0:
36,192,227002,128,0,227081:0:0:0:0:
182,192,227081,128,0,227160:0:0:0:0:
36,192,227160,128,0,227318:0:0:0:0:
329,192,227160,128,0,227239:0:0:0:0:
475,192,227239,128,0,227318:0:0:0:0:
256,192,227318,128,0,227634:0:0:0:0:
329,192,227318,128,0,227476:0:0:0:0:
182,192,227318,128,0,227397:0:0:0:0:
36,192,227397,128,0,227476:0:0:0:0:
109,192,227476,128,0,227634:0:0:0:0:
475,192,227476,128,0,227555:0:0:0:0:
329,192,227555,128,0,227634:0:0:0:0:
475,192,227634,128,0,227949:0:0:0:0:
182,192,227634,128,0,227791:0:0:0:0:
36,192,227634,128,0,227712:0:0:0:0:
109,192,227712,128,0,227791:0:0:0:0:
329,192,227791,128,0,227949:0:0:0:0:
256,192,227791,1,0,0:0:0:0:
109,192,227870,1,0,0:0:0:0:
182,192,227949,128,0,228107:0:0:0:0:
256,192,227949,128,0,228028:0:0:0:0:
475,192,228028,128,0,228107:0:0:0:0:
329,192,228107,128,0,228739:0:0:0:0:
109,192,228107,128,0,228423:0:0:0:0:
36,192,228107,128,0,228423:0:0:0:0:
256,192,228107,128,0,228423:0:0:0:0:
402,192,228423,1,0,0:0:0:0:
182,192,228423,1,0,0:0:0:0:
109,192,228502,1,0,0:0:0:0:
475,192,228502,1,0,0:0:0:0:
182,192,228581,1,0,0:0:0:0:
402,192,228581,1,0,0:0:0:0:
256,192,228660,1,0,0:0:0:0:
36,192,228660,1,0,0:0:0:0:
109,192,228739,1,0,0:0:0:0:
402,192,228739,1,0,0:0:0:0:
475,192,228739,1,0,0:0:0:0:
182,192,228739,1,0,0:0:0:0:
36,192,229055,1,0,0:0:0:0:
109,192,229055,1,0,0:0:0:0:
329,192,229055,1,0,0:0:0:0:
402,192,229055,1,0,0:0:0:0:
182,192,229370,128,0,230002:0:0:0:0:
109,192,229370,128,0,230002:0:0:0:0:
36,192,229370,128,0,230002:0:0:0:0:
475,192,229370,128,0,230002:0:0:0:0:
402,192,229370,128,0,229844:0:0:0:0:
329,192,229370,128,0,229686:0:0:0:0:
256,192,229686,1,0,0:0:0:0:
329,192,229844,1,0,0:0:0:0:
402,192,230002,1,0,0:0:0:0:
256,192,230002,1,0,0:0:0:0:
182,192,230160,128,0,230791:0:0:0:0:
475,192,230160,128,0,230791:0:0:0:0:
36,192,230160,128,0,230318:0:0:0:0:
109,192,230318,128,0,230476:0:0:0:0:
256,192,230476,128,0,230634:0:0:0:0:
329,192,230634,128,0,230791:0:0:0:0:
402,192,230791,128,0,231107:0:0:0:0:
36,192,230791,128,0,230949:0:0:0:0:
109,192,230949,128,0,231107:0:0:0:0:
329,192,231107,128,0,231423:0:0:0:0:
182,192,231107,1,0,0:0:0:0:
256,192,231107,128,0,231265:0:0:0:0:
475,192,231265,128,0,231423:0:0:0:0:
256,192,231423,128,0,231739:0:0:0:0:
36,192,231423,1,0,0:0:0:0:
402,192,231423,128,0,231581:0:0:0:0:
109,192,231502,1,0,0:0:0:0:
182,192,231581,1,0,0:0:0:0:
475,192,231581,128,0,231739:0:0:0:0:
329,192,231660,1,0,0:0:0:0:
182,192,231739,128,0,232055:0:0:0:0:
402,192,231739,1,0,0:0:0:0:
36,192,231739,1,0,0:0:0:0:
475,192,231818,1,0,0:0:0:0:
402,192,231897,1,0,0:0:0:0:
36,192,231897,1,0,0:0:0:0:
329,192,231976,1,0,0:0:0:0:
109,192,232055,128,0,232528:0:0:0:0:
256,192,232055,1,0,0:0:0:0:
36,192,232055,1,0,0:0:0:0:
475,192,232055,128,0,232212:0:0:0:0:
402,192,232212,128,0,232370:0:0:0:0:
329,192,232370,128,0,232528:0:0:0:0:
182,192,232528,1,0,0:0:0:0:
402,192,232528,128,0,232686:0:0:0:0:
182,192,232686,128,0,233318:0:0:0:0:
256,192,232686,128,0,232844:0:0:0:0:
36,192,232686,1,0,0:0:0:0:
402,192,232844,128,0,233002:0:0:0:0:
36,192,233002,128,0,233160:0:0:0:0:
256,192,233160,128,0,233318:0:0:0:0:
329,192,233318,128,0,233949:0:0:0:0:
475,192,233318,128,0,233949:0:0:0:0:
402,192,233318,1,0,0:0:0:0:
109,192,233318,1,0,0:0:0:0:
36,192,233318,1,0,0:0:0:0:
402,192,233476,1,0,0:0:0:0:
109,192,233476,1,0,0:0:0:0:
36,192,233476,1,0,0:0:0:0:
402,192,233634,1,0,0:0:0:0:
109,192,233634,1,0,0:0:0:0:
36,192,233634,1,0,0:0:0:0:
402,192,233791,1,0,0:0:0:0:
109,192,233791,1,0,0:0:0:0:
36,192,233791,1,0,0:0:0:0:
402,192,233949,128,0,234265:0:0:0:0:
109,192,233949,128,0,234265:0:0:0:0:
36,192,233949,1,0,0:0:0:0:
256,192,233949,1,0,0:0:0:0:
182,192,233949,1,0,0:0:0:0:
256,192,234107,1,0,0:0:0:0:
182,192,234107,1,0,0:0:0:0:
36,192,234265,128,0,234581:0:0:0:0:
329,192,234265,128,0,234581:0:0:0:0:
256,192,234265,1,0,0:0:0:0:
182,192,234265,1,0,0:0:0:0:
475,192,234344,1,0,0:0:0:0:
402,192,234423,1,0,0:0:0:0:
256,192,234502,1,0,0:0:0:0:
109,192,234581,128,0,234739:0:0:0:0:
402,192,234581,128,0,234739:0:0:0:0:
182,192,234581,1,0,0:0:0:0:
256,192,234739,128,0,235055:0:0:0:0:
475,192,234739,128,0,235055:0:0:0:0:
36,192,234739,1,0,0:0:0:0:
329,192,234739,1,0,0:0:0:0:
109,192,234818,1,0,0:0:0:0:
182,192,234897,1,0,0:0:0:0:
329,192,234976,1,0,0:0:0:0:
402,192,235055,128,0,235370:0:0:0:0:
182,192,235055,128,0,235370:0:0:0:0:
109,192,235055,1,0,0:0:0:0:
36,192,235055,1,0,0:0:0:0:
256,192,235134,1,0,0:0:0:0:
329,192,235212,1,0,0:0:0:0:
475,192,235291,1,0,0:0:0:0:
36,192,235370,128,0,235686:0:0:0:0:
256,192,235370,128,0,235686:0:0:0:0:
329,192,235370,1,0,0:0:0:0:
109,192,235370,1,0,0:0:0:0:
109,192,235686,128,0,236160:0:0:0:0:
402,192,235686,128,0,236160:0:0:0:0:
182,192,235686,1,0,0:0:0:0:
329,192,235686,1,0,0:0:0:0:
475,192,235686,1,0,0:0:0:0:
256,192,236002,1,0,0:0:0:0:
256,192,236318,1,0,0:0:0:0:
475,192,236476,1,0,0:0:0:0:
36,192,236476,128,0,236791:0:0:0:0:
402,192,236476,128,0,236791:0:0:0:0:
256,192,236634,1,0,0:0:0:0:
182,192,236791,1,0,0:0:0:0:
329,192,236791,1,0,0:0:0:0:
109,192,236791,128,0,237107:0:0:0:0:
475,192,236791,128,0,237107:0:0:0:0:
256,192,236870,1,0,0:0:0:0:
402,192,236949,1,0,0:0:0:0:
182,192,236949,1,0,0:0:0:0:
36,192,237028,1,0,0:0:0:0:
182,192,237107,1,0,0:0:0:0:
329,192,237107,1,0,0:0:0:0:
402,192,237107,1,0,0:0:0:0:
36,192,237265,1,0,0:0:0:0:
329,192,237265,1,0,0:0:0:0:
109,192,237265,1,0,0:0:0:0:
256,192,237265,1,0,0:0:0:0:
36,192,237581,1,0,0:0:0:0:
182,192,237581,1,0,0:0:0:0:
109,192,237581,1,0,0:0:0:0:
329,192,237581,1,0,0:0:0:0:
475,192,237581,1,0,0:0:0:0:
36,192,237897,1,0,0:0:0:0:
256,192,237897,1,0,0:0:0:0:
329,192,237897,1,0,0:0:0:0:
475,192,237897,1,0,0:0:0:0:
109,192,237897,1,0,0:0:0:0:
475,192,238212,1,0,0:0:0:0:
402,192,238212,1,0,0:0:0:0:
182,192,238212,128,0,238449:0:0:0:0:
256,192,238212,128,0,238528:0:0:0:0:
109,192,238212,128,0,238370:0:0:0:0:
36,192,238212,128,0,238291:0:0:0:0:
329,192,238686,128,0,239002:0:0:0:0:
402,192,239002,128,0,239634:0:0:0:0:
329,192,240581,128,0,240739:0:0:0:0:
256,192,240739,128,0,240897:0:0:0:0:
182,192,240897,128,0,242160:0:0:0:0:
36,192,240897,128,0,241528:0:0:0:0:
475,192,240897,1,0,0:0:0:0:
402,192,240897,128,0,240976:0:0:0:0:
329,192,240976,128,0,241055:0:0:0:0:
256,192,241055,128,0,241134:0:0:0:0:
109,192,241134,128,0,241212:0:0:0:0:
402,192,241212,1,0,0:0:0:0:
475,192,241212,1,0,0:0:0:0:
329,192,241212,128,0,241291:0:0:0:0:
256,192,241291,128,0,241370:0:0:0:0:
402,192,241370,128,0,241449:0:0:0:0:
109,192,241449,128,0,241528:0:0:0:0:
329,192,241528,128,0,242160:0:0:0:0:
475,192,241528,1,0,0:0:0:0:
256,192,241528,128,0,241607:0:0:0:0:
402,192,241607,128,0,241686:0:0:0:0:
475,192,241686,1,0,0:0:0:0:
36,192,241686,128,0,241765:0:0:0:0:
256,192,241765,128,0,241844:0:0:0:0:
475,192,241844,1,0,0:0:0:0:
402,192,241844,1,0,0:0:0:0:
109,192,241844,128,0,241923:0:0:0:0:
36,192,241923,128,0,242002:0:0:0:0:
475,192,242002,128,0,242081:0:0:0:0:
109,192,242081,128,0,242160:0:0:0:0:
402,192,242160,128,0,243423:0:0:0:0:
256,192,242160,128,0,242791:0:0:0:0:
475,192,242160,1,0,0:0:0:0:
36,192,242160,128,0,242239:0:0:0:0:
182,192,242239,128,0,242318:0:0:0:0:
36,192,242318,1,0,0:0:0:0:
329,192,242318,128,0,242397:0:0:0:0:
475,192,242397,128,0,242476:0:0:0:0:
109,192,242476,1,0,0:0:0:0:
182,192,242476,1,0,0:0:0:0:
329,192,242476,128,0,242555:0:0:0:0:
36,192,242555,128,0,242634:0:0:0:0:
182,192,242634,128,0,242712:0:0:0:0:
109,192,242712,128,0,242791:0:0:0:0:
36,192,242791,128,0,243423:0:0:0:0:
329,192,242791,1,0,0:0:0:0:
182,192,242791,128,0,242870:0:0:0:0:
109,192,242870,128,0,242949:0:0:0:0:
329,192,242949,1,0,0:0:0:0:
182,192,242949,128,0,243028:0:0:0:0:
109,192,243028,128,0,243107:0:0:0:0:
329,192,243107,1,0,0:0:0:0:
256,192,243107,1,0,0:0:0:0:
182,192,243107,128,0,243186:0:0:0:0:
109,192,243186,128,0,243265:0:0:0:0:
182,192,243265,128,0,243344:0:0:0:0:
109,192,243344,128,0,243423:0:0:0:0:
256,192,243423,128,0,244686:0:0:0:0:
475,192,243423,128,0,244055:0:0:0:0:
182,192,243423,1,0,0:0:0:0:
329,192,243423,128,0,243502:0:0:0:0:
402,192,243502,128,0,243581:0:0:0:0:
182,192,243581,1,0,0:0:0:0:
329,192,243581,128,0,243660:0:0:0:0:
402,192,243660,128,0,243739:0:0:0:0:
109,192,243739,1,0,0:0:0:0:
36,192,243739,1,0,0:0:0:0:
329,192,243739,128,0,243818:0:0:0:0:
402,192,243818,128,0,243897:0:0:0:0:
329,192,243897,128,0,243976:0:0:0:0:
402,192,243976,128,0,244055:0:0:0:0:
36,192,244055,128,0,244686:0:0:0:0:
182,192,244055,1,0,0:0:0:0:
109,192,244055,1,0,0:0:0:0:
329,192,244055,128,0,244134:0:0:0:0:
475,192,244134,128,0,244212:0:0:0:0:
402,192,244212,128,0,244291:0:0:0:0:
329,192,244291,128,0,244370:0:0:0:0:
475,192,244370,128,0,244449:0:0:0:0:
402,192,244449,128,0,244528:0:0:0:0:
329,192,244528,128,0,244607:0:0:0:0:
475,192,244528,1,0,0:0:0:0:
402,192,244607,1,0,0:0:0:0:
182,192,244607,128,0,244686:0:0:0:0:
109,192,244686,128,0,245002:0:0:0:0:
475,192,244686,128,0,245318:0:0:0:0:
329,192,244686,128,0,244765:0:0:0:0:
256,192,244765,128,0,244844:0:0:0:0:
402,192,244844,128,0,244923:0:0:0:0:
329,192,244923,128,0,245002:0:0:0:0:
182,192,245002,128,0,245318:0:0:0:0:
256,192,245002,128,0,245081:0:0:0:0:
402,192,245081,128,0,245160:0:0:0:0:
329,192,245160,128,0,245239:0:0:0:0:
109,192,245239,128,0,245318:0:0:0:0:
256,192,245318,128,0,245634:0:0:0:0:
36,192,245318,128,0,245949:0:0:0:0:
329,192,245318,128,0,245397:0:0:0:0:
475,192,245397,128,0,245476:0:0:0:0:
402,192,245476,1,0,0:0:0:0:
109,192,245476,128,0,245555:0:0:0:0:
182,192,245555,128,0,245634:0:0:0:0:
475,192,245555,1,0,0:0:0:0:
329,192,245634,128,0,245949:0:0:0:0:
109,192,245634,1,0,0:0:0:0:
402,192,245634,128,0,245712:0:0:0:0:
182,192,245712,1,0,0:0:0:0:
475,192,245712,128,0,245791:0:0:0:0:
256,192,245791,1,0,0:0:0:0:
402,192,245791,128,0,245870:0:0:0:0:
182,192,245870,1,0,0:0:0:0:
475,192,245870,128,0,245949:0:0:0:0:
402,192,245949,128,0,247212:0:0:0:0:
109,192,245949,128,0,246581:0:0:0:0:
256,192,245949,128,0,246107:0:0:0:0:
329,192,246107,128,0,246265:0:0:0:0:
36,192,246107,128,0,246265:0:0:0:0:
182,192,246107,128,0,246265:0:0:0:0:
256,192,246265,128,0,246423:0:0:0:0:
475,192,246265,128,0,246423:0:0:0:0:
329,192,246423,128,0,246581:0:0:0:0:
36,192,246423,128,0,246581:0:0:0:0:
182,192,246581,128,0,247212:0:0:0:0:
256,192,246581,128,0,246739:0:0:0:0:
475,192,246581,128,0,246739:0:0:0:0:
109,192,246739,128,0,246897:0:0:0:0:
36,192,246739,128,0,246897:0:0:0:0:
256,192,246897,128,0,247055:0:0:0:0:
475,192,246897,128,0,247055:0:0:0:0:
109,192,247055,128,0,247212:0:0:0:0:
329,192,247055,128,0,247212:0:0:0:0:
256,192,247212,128,0,248476:0:0:0:0:
475,192,247212,128,0,247844:0:0:0:0:
36,192,247212,128,0,247370:0:0:0:0:
109,192,247370,128,0,247528:0:0:0:0:
329,192,247370,128,0,247528:0:0:0:0:
402,192,247528,128,0,247686:0:0:0:0:
182,192,247528,128,0,247686:0:0:0:0:
109,192,247686,128,0,247844:0:0:0:0:
36,192,247844,128,0,248160:0:0:0:0:
329,192,247844,128,0,248160:0:0:0:0:
182,192,247844,128,0,248002:0:0:0:0:
402,192,247844,128,0,248002:0:0:0:0:
475,192,248002,128,0,248160:0:0:0:0:
109,192,248160,128,0,248476:0:0:0:0:
402,192,248160,128,0,248476:0:0:0:0:
182,192,248160,1,0,0:0:0:0:
475,192,248239,1,0,0:0:0:0:
329,192,248318,1,0,0:0:0:0:
182,192,248397,1,0,0:0:0:0:
475,192,248476,128,0,249107:0:0:0:0:
36,192,248476,1,0,0:0:0:0:
182,192,248555,1,0,0:0:0:0:
109,192,248634,1,0,0:0:0:0:
36,192,248712,5,0,0:0:0:0:
182,192,248791,1,0,0:0:0:0:
329,192,248791,1,0,0:0:0:0:
109,192,248870,1,0,0:0:0:0:
402,192,248870,1,0,0:0:0:0:
256,192,248949,1,0,0:0:0:0:
182,192,249028,1,0,0:0:0:0:
36,192,249028,1,0,0:0:0:0:
329,192,249107,1,0,0:0:0:0:
109,192,249107,128,0,249739:0:0:0:0:
402,192,249107,1,0,0:0:0:0:
256,192,249186,1,0,0:0:0:0:
182,192,249186,1,0,0:0:0:0:
402,192,249265,1,0,0:0:0:0:
475,192,249265,1,0,0:0:0:0:
329,192,249344,1,0,0:0:0:0:
256,192,249344,1,0,0:0:0:0:
475,192,249423,1,0,0:0:0:0:
182,192,249423,1,0,0:0:0:0:
402,192,249502,1,0,0:0:0:0:
256,192,249502,1,0,0:0:0:0:
475,192,249581,1,0,0:0:0:0:
329,192,249581,1,0,0:0:0:0:
402,192,249660,1,0,0:0:0:0:
256,192,249660,1,0,0:0:0:0:
329,192,249739,1,0,0:0:0:0:
182,192,249739,1,0,0:0:0:0:
36,192,249739,1,0,0:0:0:0:
36,192,249897,128,0,250370:0:0:0:0:
182,192,249897,128,0,250370:0:0:0:0:
329,192,249897,128,0,250370:0:0:0:0:
109,192,249897,128,0,250370:0:0:0:0:
256,192,250055,1,0,0:0:0:0:
475,192,250055,1,0,0:0:0:0:
402,192,250134,1,0,0:0:0:0:
256,192,250212,1,0,0:0:0:0:
475,192,250212,1,0,0:0:0:0:
402,192,250291,1,0,0:0:0:0:
475,192,250370,1,0,0:0:0:0:
256,192,250370,1,0,0:0:0:0:
402,192,250449,1,0,0:0:0:0:
182,192,250449,1,0,0:0:0:0:
329,192,250528,1,0,0:0:0:0:
109,192,250528,1,0,0:0:0:0:
402,192,250607,1,0,0:0:0:0:
182,192,250607,1,0,0:0:0:0:
475,192,250686,1,0,0:0:0:0:
36,192,250686,1,0,0:0:0:0:
109,192,250765,1,0,0:0:0:0:
329,192,250765,1,0,0:0:0:0:
182,192,250844,1,0,0:0:0:0:
402,192,250844,1,0,0:0:0:0:
475,192,250923,1,0,0:0:0:0:
256,192,250923,1,0,0:0:0:0:
182,192,251002,128,0,251791:0:0:0:0:
109,192,251002,128,0,251634:0:0:0:0:
36,192,251002,128,0,252107:0:0:0:0:
402,192,251002,128,0,251791:0:0:0:0:
329,192,251002,128,0,251318:0:0:0:0:
256,192,251318,128,0,251949:0:0:0:0:
475,192,251318,128,0,252739:0:0:0:0:
329,192,251634,128,0,251791:0:0:0:0:
109,192,251791,128,0,252265:0:0:0:0:
329,192,251949,128,0,252897:0:0:0:0:
182,192,251949,128,0,252265:0:0:0:0:
402,192,251949,128,0,253370:0:0:0:0:
256,192,252265,128,0,253055:0:0:0:0:
36,192,252265,128,0,252423:0:0:0:0:
109,192,252423,128,0,252581:0:0:0:0:
182,192,252581,128,0,253686:0:0:0:0:
36,192,252581,128,0,253055:0:0:0:0:
475,192,252897,128,0,253528:0:0:0:0:
109,192,252897,128,0,254634:0:0:0:0:
329,192,253055,128,0,253212:0:0:0:0:
256,192,253212,128,0,254160:0:0:0:0:
36,192,253212,128,0,254002:0:0:0:0:
329,192,253528,128,0,255423:0:0:0:0:
402,192,253528,128,0,253686:0:0:0:0:
475,192,253686,128,0,253844:0:0:0:0:
182,192,253844,128,0,254318:0:0:0:0:
402,192,253844,128,0,254476:0:0:0:0:
36,192,254160,128,0,254318:0:0:0:0:
475,192,254160,128,0,254318:0:0:0:0:
256,192,254318,128,0,254476:0:0:0:0:
182,192,254476,128,0,254634:0:0:0:0:
475,192,254476,128,0,254634:0:0:0:0:
36,192,254476,128,0,254791:0:0:0:0:
402,192,254634,128,0,254712:0:0:0:0:
256,192,254712,128,0,254791:0:0:0:0:
109,192,254791,128,0,255107:0:0:0:0:
182,192,254791,128,0,254949:0:0:0:0:
475,192,254791,128,0,255107:0:0:0:0:
182,192,255107,128,0,255423:0:0:0:0:
402,192,255107,128,0,255423:0:0:0:0:
36,192,255107,128,0,255423:0:0:0:0:
256,192,255423,128,0,255739:0:0:0:0:
109,192,255423,128,0,255739:0:0:0:0:
329,192,255581,1,0,0:0:0:0:
402,192,255660,1,0,0:0:0:0:
329,192,255739,128,0,256055:0:0:0:0:
36,192,255739,128,0,256055:0:0:0:0:
475,192,255739,128,0,256055:0:0:0:0:
182,192,255739,1,0,0:0:0:0:
109,192,255818,1,0,0:0:0:0:
182,192,255897,1,0,0:0:0:0:
256,192,255976,1,0,0:0:0:0:
109,192,256055,1,0,0:0:0:0:
402,192,256055,1,0,0:0:0:0:
182,192,256055,1,0,0:0:0:0:
256,192,256370,1,0,0:0:0:0:
36,192,256370,1,0,0:0:0:0:
475,192,256370,128,0,256449:0:0:0:0:
256,192,256528,1,0,0:0:0:0:
109,192,256528,1,0,0:0:0:0:
402,192,256528,128,0,256607:0:0:0:0:
256,192,256686,1,0,0:0:0:0:
182,192,256686,1,0,0:0:0:0:
329,192,256686,128,0,256765:0:0:0:0:
109,192,256844,1,0,0:0:0:0:
402,192,256844,1,0,0:0:0:0:
256,192,256844,128,0,256923:0:0:0:0:
256,192,257002,1,0,0:0:0:0:
36,192,257002,1,0,0:0:0:0:
475,192,257002,1,0,0:0:0:0:
182,192,257002,128,0,257081:0:0:0:0:
256,192,257160,1,0,0:0:0:0:
109,192,257160,128,0,257239:0:0:0:0:
256,192,257318,1,0,0:0:0:0:
36,192,257318,128,0,257397:0:0:0:0:
402,192,257318,128,0,257397:0:0:0:0:
182,192,257318,1,0,0:0:0:0:
256,192,257476,1,0,0:0:0:0:
475,192,257476,128,0,257555:0:0:0:0:
329,192,257476,128,0,257555:0:0:0:0:
109,192,257476,1,0,0:0:0:0:
182,192,257634,128,0,257712:0:0:0:0:
256,192,257634,128,0,257712:0:0:0:0:
402,192,257634,1,0,0:0:0:0:
109,192,257634,1,0,0:0:0:0:
256,192,257791,1,0,0:0:0:0:
402,192,257791,128,0,257870:0:0:0:0:
329,192,257791,128,0,257870:0:0:0:0:
36,192,257791,1,0,0:0:0:0:
256,192,257949,1,0,0:0:0:0:
36,192,257949,128,0,258028:0:0:0:0:
475,192,257949,128,0,258028:0:0:0:0:
109,192,257949,1,0,0:0:0:0:
402,192,257949,1,0,0:0:0:0:
256,192,258107,1,0,0:0:0:0:
109,192,258107,128,0,258186:0:0:0:0:
402,192,258107,128,0,258186:0:0:0:0:
182,192,258107,1,0,0:0:0:0:
329,192,258107,1,0,0:0:0:0:
256,192,258265,1,0,0:0:0:0:
182,192,258265,128,0,258344:0:0:0:0:
329,192,258265,128,0,258344:0:0:0:0:
36,192,258265,1,0,0:0:0:0:
475,192,258265,1,0,0:0:0:0:
109,192,258423,128,0,258502:0:0:0:0:
402,192,258423,128,0,258502:0:0:0:0:
36,192,258423,1,0,0:0:0:0:
256,192,258423,1,0,0:0:0:0:
475,192,258423,1,0,0:0:0:0:
36,192,258581,128,0,258660:0:0:0:0:
256,192,258581,128,0,258660:0:0:0:0:
475,192,258581,128,0,258660:0:0:0:0:
182,192,258581,128,0,258660:0:0:0:0:
329,192,258581,128,0,258660:0:0:0:0:
329,192,258739,128,0,258818:0:0:0:0:
402,192,258739,128,0,258818:0:0:0:0:
182,192,258739,128,0,258818:0:0:0:0:
256,192,258739,128,0,258818:0:0:0:0:
36,192,258739,128,0,258818:0:0:0:0:
109,192,258897,128,0,258976:0:0:0:0:
36,192,258897,128,0,258976:0:0:0:0:
402,192,258897,128,0,258976:0:0:0:0:
256,192,258897,128,0,258976:0:0:0:0:
475,192,258897,128,0,258976:0:0:0:0:
402,192,259055,128,0,259134:0:0:0:0:
36,192,259055,128,0,259134:0:0:0:0:
182,192,259055,128,0,259134:0:0:0:0:
475,192,259055,128,0,259134:0:0:0:0:
256,192,259055,128,0,259134:0:0:0:0:
329,192,259212,128,0,259291:0:0:0:0:
109,192,259212,128,0,259291:0:0:0:0:
402,192,259212,128,0,259291:0:0:0:0:
182,192,259212,128,0,259291:0:0:0:0:
36,192,259212,128,0,259291:0:0:0:0:
36,192,259370,128,0,259449:0:0:0:0:
402,192,259370,128,0,259449:0:0:0:0:
475,192,259370,128,0,259449:0:0:0:0:
182,192,259370,128,0,259449:0:0:0:0:
329,192,259370,128,0,259449:0:0:0:0:
329,192,259528,128,0,259607:0:0:0:0:
475,192,259528,128,0,259607:0:0:0:0:
256,192,259528,128,0,259607:0:0:0:0:
182,192,259528,128,0,259607:0:0:0:0:
109,192,259528,128,0,259607:0:0:0:0:
475,192,259686,128,0,259765:0:0:0:0:
256,192,259686,128,0,259765:0:0:0:0:
36,192,259686,128,0,259765:0:0:0:0:
329,192,259686,128,0,259765:0:0:0:0:
109,192,259686,128,0,259765:0:0:0:0:
182,192,259844,1,0,0:0:0:0:
109,192,259844,1,0,0:0:0:0:
36,192,259844,1,0,0:0:0:0:
329,192,259844,1,0,0:0:0:0:
402,192,259844,1,0,0:0:0:0:
475,192,259844,1,0,0:0:0:0:
182,192,260002,1,0,0:0:0:0:
109,192,260002,1,0,0:0:0:0:
36,192,260002,1,0,0:0:0:0:
475,192,260002,1,0,0:0:0:0:
402,192,260002,1,0,0:0:0:0:
329,192,260002,1,0,0:0:0:0:
36,192,260160,1,0,0:0:0:0:
109,192,260160,1,0,0:0:0:0:
182,192,260160,1,0,0:0:0:0:
329,192,260160,1,0,0:0:0:0:
402,192,260160,1,0,0:0:0:0:
475,192,260160,1,0,0:0:0:0:
182,192,260318,1,0,0:0:0:0:
36,192,260318,1,0,0:0:0:0:
109,192,260318,1,0,0:0:0:0:
475,192,260318,1,0,0:0:0:0:
402,192,260318,1,0,0:0:0:0:
329,192,260318,1,0,0:0:0:0:
256,192,260476,1,0,0:0:0:0:
182,192,260476,1,0,0:0:0:0:
329,192,260476,1,0,0:0:0:0:
475,192,260476,1,0,0:0:0:0:
36,192,260476,1,0,0:0:0:0:
256,192,260634,1,0,0:0:0:0:
329,192,260634,1,0,0:0:0:0:
182,192,260634,1,0,0:0:0:0:
475,192,260634,1,0,0:0:0:0:
36,192,260634,1,0,0:0:0:0:
256,192,260791,1,0,0:0:0:0:
329,192,260791,1,0,0:0:0:0:
475,192,260791,1,0,0:0:0:0:
36,192,260791,1,0,0:0:0:0:
182,192,260791,1,0,0:0:0:0:
256,192,260949,1,0,0:0:0:0:
182,192,260949,1,0,0:0:0:0:
329,192,260949,1,0,0:0:0:0:
475,192,260949,1,0,0:0:0:0:
36,192,260949,1,0,0:0:0:0:
256,192,261107,128,0,266160:0:0:0:0:
36,192,261107,128,0,261423:0:0:0:0:
475,192,261265,128,0,261581:0:0:0:0:
329,192,261423,128,0,261739:0:0:0:0:
182,192,261581,128,0,261897:0:0:0:0:
475,192,261739,128,0,262055:0:0:0:0:
36,192,261897,128,0,262212:0:0:0:0:
182,192,262055,128,0,262370:0:0:0:0:
402,192,262212,128,0,262528:0:0:0:0:
36,192,262370,128,0,262528:0:0:0:0:
329,192,262370,128,0,262686:0:0:0:0:
182,192,262528,128,0,262844:0:0:0:0:
475,192,262686,128,0,262844:0:0:0:0:
36,192,262686,128,0,263002:0:0:0:0:
402,192,262844,128,0,263160:0:0:0:0:
109,192,263002,128,0,263318:0:0:0:0:
329,192,263002,128,0,263160:0:0:0:0:
475,192,263160,128,0,263476:0:0:0:0:
182,192,263318,128,0,263634:0:0:0:0:
36,192,263318,128,0,263476:0:0:0:0:
329,192,263476,128,0,263791:0:0:0:0:
36,192,263634,128,0,263949:0:0:0:0:
475,192,263634,128,0,263791:0:0:0:0:
402,192,263791,128,0,264107:0:0:0:0:
182,192,263791,128,0,263949:0:0:0:0:
109,192,263949,128,0,264265:0:0:0:0:
329,192,263949,128,0,264107:0:0:0:0:
475,192,264107,128,0,264423:0:0:0:0:
36,192,264107,128,0,264265:0:0:0:0:
182,192,264265,128,0,264581:0:0:0:0:
329,192,264265,128,0,264423:0:0:0:0:
402,192,264423,128,0,264739:0:0:0:0:
36,192,264423,128,0,264581:0:0:0:0:
109,192,264581,128,0,264897:0:0:0:0:
475,192,264581,128,0,264739:0:0:0:0:
329,192,264739,128,0,265055:0:0:0:0:
182,192,264739,128,0,264897:0:0:0:0:
36,192,264897,128,0,265212:0:0:0:0:
475,192,264897,128,0,265055:0:0:0:0:
109,192,265055,128,0,265370:0:0:0:0:
402,192,265055,128,0,265212:0:0:0:0:
182,192,265212,128,0,265528:0:0:0:0:
329,192,265212,128,0,265370:0:0:0:0:
36,192,265370,128,0,265686:0:0:0:0:
402,192,265370,128,0,265528:0:0:0:0:
109,192,265528,128,0,265844:0:0:0:0:
475,192,265528,128,0,265686:0:0:0:0:
182,192,265686,128,0,266002:0:0:0:0:
329,192,265686,128,0,265844:0:0:0:0:
36,192,265844,128,0,266160:0:0:0:0:
402,192,265844,128,0,266002:0:0:0:0:
109,192,266002,128,0,266160:0:0:0:0:
475,192,266002,128,0,266160:0:0:0:0:
182,192,266160,1,0,0:0:0:0:
329,192,266160,1,0,0:0:0:0:
