osu file format v13

[General]
AudioFilename: chikyuu saigo no kokuhaku wo.mp3
AudioLeadIn: 0
PreviewTime: 83956
Countdown: 0
SampleSet: Soft
StackLeniency: 0.7
Mode: 0
LetterboxInBreaks: 0
WidescreenStoryboard: 0

[Editor]
DistanceSpacing: 1
BeatDivisor: 4
GridSize: 4
TimelineZoom: 2.7

[Metadata]
Title:Chikyuu Saigo no Kokuhaku o
TitleUnicode:地球最後の告白を
Artist:yuikonnu
ArtistUnicode:ゆいこんぬ
Creator:Fycho
Version:Easy
Source:
Tags:skystar amamiya yuko laurier kemu vocaloid megpoid gumi nico douga hatsuko suzumu VOCALOID2 歌ってみた
BeatmapID:495456
BeatmapSetID:208765

[Difficulty]
HPDrainRate:2
CircleSize:3
OverallDifficulty:2
ApproachRate:3
SliderMultiplier:0.9
SliderTickRate:1

[Events]
//Background and Video events
0,0,"bg1.jpg",0,0
Video,0,"video.avi"
//Break Periods
2,107209,115674
2,172893,190201
2,238419,239464
//Storyboard Layer 0 (Background)
//Storyboard Layer 1 (Fail)
//Storyboard Layer 2 (Pass)
//Storyboard Layer 3 (Foreground)
//Storyboard Sound Samples
//Background Colour Transformations
3,100,163,162,255

[TimingPoints]
23641,315.789473684211,4,2,1,70,1,0
30904,-100,4,2,1,60,0,0
31219,-100,4,2,1,70,0,0
31851,-100,4,2,1,50,0,0
32483,-100,4,2,1,70,0,0
33746,-100,4,2,1,50,0,0
51430,-100,4,2,1,60,0,0
51904,-100,4,2,1,40,0,0
52693,-100,4,2,1,50,0,0
53956,-100,4,2,1,60,0,0
72904,-100,4,2,1,45,0,0
74167,-100,4,2,1,60,0,0
79219,-100,4,2,1,60,0,0
84272,-100,4,2,1,80,0,1
105588,-100,4,2,1,70,0,0
117114,-100,4,2,1,45,0,0
127219,-100,4,2,1,50,0,0
133535,-100,4,2,1,60,0,0
134798,-100,4,2,1,50,0,0
134956,-100,4,2,1,40,0,0
136062,-100,4,2,1,50,0,0
137325,-100,4,2,1,60,0,0
142377,-100,4,2,1,60,0,0
147430,-100,4,2,1,80,0,1
166535,-100,4,2,1,60,0,1
167009,-100,4,2,1,70,0,1
168746,-100,4,2,1,70,0,0
192904,-100,4,2,1,60,0,0
194167,-100,4,2,1,40,0,0
202693,-100,4,2,1,30,0,0
203009,-100,4,2,1,60,0,0
208062,-100,4,2,1,60,0,0
211693,-100,4,2,1,70,0,0
214377,-100,4,2,1,80,0,1
238219,-100,4,2,1,70,0,0
254798,-100,4,2,1,50,0,0
255746,-100,4,2,1,70,0,0
266167,-100,4,2,1,5,0,0

[Colours]
Combo1 : 255,162,255
Combo2 : 0,255,255
Combo3 : 255,55,255
Combo4 : 128,128,255

[HitObjects]
174,83,23641,6,0,P|132:154|156:253,1,180,4|8,0:0|0:1,0:0:0:0:
219,303,24588,1,8,0:1:0:0:
304,274,24904,2,0,P|356:266|403:260,2,90,8|8|8,0:1|0:1|0:1,0:0:0:0:
239,211,25851,1,8,0:0:0:0:
278,130,26167,6,0,L|466:107,1,180,4|8,0:0|0:0,0:0:0:0:
394,227,27272,2,0,L|301:238,2,90,4|4|4,0:0|0:0|0:0,0:0:0:0:
448,298,28219,1,8,0:3:0:0:
492,222,28535,6,0,P|491:155|495:88,1,135,4|8,0:0|0:0,0:0:0:0:
324,96,29641,1,8,0:0:0:0:
243,134,29956,2,0,L|146:118,1,90,8|8,0:1|0:0,0:0:0:0:
31,201,30904,1,8,0:0:0:0:
58,286,31219,6,0,P|103:308|143:338,1,90,4|8,0:0|0:1,0:0:0:0:
215,290,31851,2,0,L|318:276,1,90,8|8,0:1|0:0,0:0:0:0:
390,252,32483,2,0,P|403:189|392:161,2,90,8|8|8,0:0|0:0|0:0,0:0:0:0:
321,85,33746,6,0,L|222:74,1,90,4|2,0:0|0:0,0:0:0:0:
145,100,34377,2,0,P|123:139|122:198,1,90,0|2,0:0|0:0,0:0:0:0:
146,269,35009,1,0,0:0:0:0:
325,287,35641,2,0,L|419:305,1,90,0|2,0:0|0:0,0:0:0:0:
465,232,36272,6,0,P|483:181|483:141,2,90,8|2|0,0:1|0:0|0:0,0:0:0:0:
384,271,37219,1,2,0:0:0:0:
296,249,37535,2,0,L|109:248,1,180,0|0,0:0|0:0,0:0:0:0:
144,162,38483,1,2,0:0:0:0:
54,152,38798,6,0,P|41:95|77:29,2,135,4|2|0,0:0|0:0|0:0,0:0:0:0:
143,162,40062,2,0,P|211:160|292:158,2,135,0|2|0,0:0|0:0|0:0,0:0:0:0:
86,234,41325,5,8,0:1:0:0:
180,329,41798,2,0,P|241:349|319:322,1,135,0|2,0:0|0:0,0:0:0:0:
397,321,42588,2,0,L|413:233,1,90,0|2,0:0|0:0,0:0:0:0:
424,143,43219,2,0,P|372:152|334:153,1,90,0|2,0:0|0:0,0:0:0:0:
277,83,43851,6,0,P|220:68|114:128,1,180,12|0,0:1|0:0,0:0:0:0:
132,210,44798,1,2,0:0:0:0:
81,284,45114,1,0,0:0:0:0:
142,349,45430,2,0,L|234:335,2,90,2|0|2,0:0|0:0|0:0,0:0:0:0:
81,282,46377,6,0,L|92:180,1,90,0|2,0:0|0:0,0:0:0:0:
128,116,47009,1,0,0:0:0:0:
214,139,47325,1,2,0:0:0:0:
297,106,47641,2,0,P|347:101|434:133,2,135,8|2|0,0:1|0:0|0:0,0:0:0:0:
207,114,48904,6,0,L|205:214,1,90,4|8,0:0|0:1,0:0:0:0:
223,292,49535,2,0,P|265:300|320:285,1,90,8|8,0:1|0:1,0:0:0:0:
354,210,50167,2,0,L|449:245,1,90,8|8,0:1|0:1,0:0:0:0:
490,314,50798,1,8,0:1:0:0:
409,354,51114,1,8,0:1:0:0:
320,339,51430,6,0,L|223:348,1,90,8|8,0:1|0:1,0:0:0:0:
149,306,52062,1,8,0:0:0:0:
192,227,52377,1,8,0:0:0:0:
133,158,52693,2,0,P|119:99|132:63,2,90,8|8|8,0:0|0:0|0:0,0:0:0:0:
220,134,53641,1,8,0:0:0:0:
282,198,53956,6,0,L|373:186,1,90,4|8,0:0|0:0,0:0:0:0:
460,198,54588,2,0,P|483:153|479:105,1,90,0|8,0:0|0:0,0:0:0:0:
416,52,55219,2,0,L|233:69,1,180,8|0,0:1|0:0,0:0:0:0:
148,51,56167,1,8,0:0:0:0:
96,125,56483,6,0,L|-2:123,1,90,8|8,0:1|0:0,0:0:0:0:
5,213,57114,2,0,L|94:214,1,90,8|8,0:1|0:0,0:0:0:0:
130,297,57746,2,0,B|234:298|234:298|280:279|285:235,1,180,8|8,0:1|0:1,0:0:0:0:
318,161,58693,1,8,0:0:0:0:
293,74,59009,6,0,P|364:79|408:188,1,180,8|8,0:1|0:1,0:0:0:0:
435,254,59956,1,8,0:0:0:0:
346,270,60272,2,0,L|340:370,1,90,8|8,0:1|0:0,0:0:0:0:
251,374,60904,2,0,L|256:284,1,90,8|8,0:1|0:0,0:0:0:0:
210,206,61535,6,0,P|86:213|41:246,1,180,8|8,0:1|0:1,0:0:0:0:
13,158,62483,1,8,0:0:0:0:
34,69,62798,2,0,L|123:83,1,90,8|8,0:1|0:0,0:0:0:0:
212,94,63430,2,0,P|259:95|308:77,1,90,8|8,0:0|0:0,0:0:0:0:
388,64,64062,6,0,P|397:107|398:152,1,90,4|8,0:0|0:0,0:0:0:0:
352,230,64693,2,0,P|347:282|348:330,1,90,8|8,0:1|0:0,0:0:0:0:
433,346,65325,1,8,0:1:0:0:
492,278,65641,1,8,0:0:0:0:
510,190,65956,2,0,L|488:99,1,90,8|8,0:1|0:0,0:0:0:0:
413,53,66588,6,0,P|360:65|313:72,1,90,8|8,0:1|0:0,0:0:0:0:
238,44,67219,2,0,P|186:48|138:63,1,90,8|8,0:1|0:0,0:0:0:0:
77,112,67851,1,8,0:1:0:0:
111,195,68167,2,0,L|89:300,2,90,8|8|8,0:0|0:1|0:0,0:0:0:0:
192,156,69114,6,0,P|272:131|348:198,1,180,8|8,0:1|0:1,0:0:0:0:
368,271,70062,1,8,0:0:0:0:
281,283,70377,2,0,L|262:371,2,90,8|8|8,0:1|0:0|0:1,0:0:0:0:
313,198,71325,1,8,0:0:0:0:
249,134,71641,6,0,P|142:155|50:158,1,180,8|8,0:1|0:1,0:0:0:0:
58,69,72588,1,8,0:0:0:0:
135,22,72904,2,0,L|192:31,2,45,8|8|8,0:0|0:0|0:0,0:0:0:0:
58,69,73535,6,0,P|37:178|41:259,1,180,8|4,0:0|0:0,0:0:0:0:
194,154,74798,1,8,0:0:0:0:
336,264,75430,2,0,P|357:155|353:74,1,180,8|8,0:1|0:0,0:0:0:0:
272,49,76377,1,0,0:0:0:0:
196,98,76693,6,0,B|112:129|112:129|51:115|44:58,1,180,8|8,0:1|0:0,0:0:0:0:
15,250,77956,2,0,L|116:239,2,90,8|8|8,0:1|0:1|0:0,0:0:0:0:
11,340,78904,1,12,0:1:0:0:
100,331,79219,6,0,L|284:310,1,180,4|2,0:0|0:0,0:0:0:0:
396,173,80483,2,0,L|217:193,1,180,0|2,0:0|0:0,0:0:0:0:
144,139,81430,1,0,0:0:0:0:
256,192,81746,12,8,82851,0:0:0:0:
77,134,84272,6,0,L|256:124,1,180,4|8,0:0|0:1,0:0:0:0:
323,184,85219,1,8,0:0:0:0:
408,156,85535,2,0,P|421:85|419:54,2,90,8|8|8,0:1|0:0|0:1,0:0:0:0:
383,243,86483,1,8,0:0:0:0:
301,280,86798,6,0,L|195:280,1,90,8|8,0:1|0:0,0:0:0:0:
122,263,87430,1,8,0:1:0:0:
102,175,87746,1,8,0:0:0:0:
144,95,88062,2,0,L|243:131,1,90,8|8,0:1|0:0,0:0:0:0:
312,93,88693,2,0,L|405:127,2,90,8|8|12,0:1|0:0|0:1,0:0:0:0:
228,126,89641,6,0,L|39:138,1,180,8|8,0:0|0:0,0:0:0:0:
18,222,90588,2,0,P|11:273|15:321,1,90,8|8,0:1|0:0,0:0:0:0:
86,363,91219,2,0,L|179:358,1,90,8|8,0:1|0:0,0:0:0:0:
266,356,91851,6,0,P|356:338|394:256,1,180,4|8,0:0|0:1,0:0:0:0:
411,176,92798,1,8,0:0:0:0:
333,134,93114,2,0,L|229:158,2,90,8|8|8,0:0|0:0|0:0,0:0:0:0:
405,80,94062,1,8,0:0:0:0:
322,44,94377,6,0,L|232:64,1,90,0|12,0:0|0:0,0:0:0:0:
145,82,95009,1,0,0:0:0:0:
131,171,95325,1,4,0:3:0:0:
193,236,95641,2,0,L|194:327,1,90,4|8,0:0|0:0,0:0:0:0:
108,354,96272,2,0,L|107:264,1,90,8|8,0:1|0:0,0:0:0:0:
46,197,96904,6,0,P|49:108|90:82,1,135,8|8,0:1|0:0,0:0:0:0:
163,49,97693,2,0,L|258:70,1,90,8|4,0:0|0:0,0:0:0:0:
325,120,98325,2,0,L|321:223,2,90,8|12|12,0:0|0:0|0:0,0:0:0:0:
242,156,99272,6,0,L|235:307,1,135,4|8,0:0|0:1,0:0:0:0:
325,302,100062,1,12,0:0:0:0:
497,351,100693,2,0,L|495:249,1,90,8|0,0:1|0:0,0:0:0:0:
498,170,101325,2,0,P|447:176|393:183,1,90,8|8,0:0|0:1,0:0:0:0:
320,160,101956,6,0,L|225:142,1,90,4|0,0:0|0:0,0:0:0:0:
149,105,102588,2,0,L|138:241,2,135,12|8|8,0:0|0:1|0:0,0:0:0:0:
229,65,103851,2,0,L|317:51,1,90,8|8,0:0|0:0,0:0:0:0:
364,128,104483,5,4,0:0:0:0:
299,246,104956,2,0,L|191:232,2,90,4|8|12,0:0|0:0|0:0,0:0:0:0:
252,118,106062,2,0,L|69:95,1,180,0|0,0:0|0:0,0:0:0:0:
43,180,107009,5,4,0:0:0:0:
99,102,117114,6,0,P|210:71|234:71,1,135,4|2,0:0|0:0,0:0:0:0:
315,94,117904,1,0,0:0:0:0:
311,228,118377,2,0,P|295:294|298:361,2,135,2|2|2,0:0|0:0|0:0,0:0:0:0:
227,192,119641,6,0,P|120:176|84:181,2,135,2|2|2,0:0|0:0|0:0,0:0:0:0:
283,121,120904,1,2,0:0:0:0:
401,257,121535,1,2,0:0:0:0:
454,184,121851,1,0,0:0:0:0:
416,101,122167,6,0,L|226:99,2,180,2|2|2,0:0|0:0|0:0,0:0:0:0:
481,268,124062,1,0,0:0:0:0:
302,248,124693,6,0,L|296:351,1,90,2|0,0:0|0:0,0:0:0:0:
385,319,125325,2,0,L|390:229,1,90,2|0,0:0|0:0,0:0:0:0:
401,139,125956,2,0,L|212:152,1,180,2|2,0:0|0:0,0:0:0:0:
131,145,126904,1,0,0:0:0:0:
67,208,127219,6,0,L|71:303,1,90
139,356,127851,2,0,L|234:357,2,90,0|2|0,0:0|0:0|0:0,0:0:0:0:
158,267,128798,2,0,L|253:268,2,90,2|0|2,0:0|0:0|0:0,0:0:0:0:
157,176,129746,6,0,L|252:177,2,90,0|2|0,0:0|0:0|0:0,0:0:0:0:
81,224,130693,1,2,0:0:0:0:
7,172,131009,2,0,L|22:73,1,90,0|2,0:0|0:0,0:0:0:0:
87,22,131641,2,0,L|168:64,1,90,0|2,0:0|0:0,0:0:0:0:
209,142,132272,6,0,P|334:126|391:128,1,180,4|8,0:0|0:0,0:0:0:0:
422,210,133219,1,8,0:0:0:0:
499,254,133535,2,0,P|500:298|484:340,1,90,8|8,0:0|0:0,0:0:0:0:
396,360,134167,2,0,L|300:360,1,90,8|8,0:0|0:0,0:0:0:0:
256,192,134798,12,8,136062,0:0:0:0:
184,95,137325,6,0,P|227:79|347:122,1,180,4|8,0:0|0:0,0:0:0:0:
183,196,138588,1,8,0:1:0:0:
242,365,139219,2,0,P|285:332|297:289,1,90,8|0,0:0|0:0,0:0:0:0:
309,210,139851,6,0,B|345:172|345:172|408:195|473:172,1,180,8|8,0:1|0:0,0:0:0:0:
310,90,141114,2,0,L|209:101,2,90,8|8|8,0:1|0:1|0:0,0:0:0:0:
400,82,142062,1,12,0:1:0:0:
464,144,142377,6,0,L|444:334,1,180,4|2,0:0|0:0,0:0:0:0:
281,246,143641,2,0,L|299:66,1,180,0|2,0:0|0:0,0:0:0:0:
209,61,144588,1,4,0:3:0:0:
256,192,144904,12,8,146009,0:0:0:0:
388,153,147430,6,0,L|209:163,1,180,4|8,0:0|0:1,0:0:0:0:
127,203,148377,1,8,0:0:0:0:
42,235,148693,2,0,P|37:188|54:146,2,90,8|8|8,0:1|0:0|0:1,0:0:0:0:
106,297,149641,1,8,0:0:0:0:
191,269,149956,6,0,L|297:269,1,90,8|8,0:1|0:0,0:0:0:0:
361,309,150588,1,8,0:1:0:0:
442,269,150904,1,8,0:0:0:0:
476,185,151219,2,0,L|476:89,1,90,8|8,0:1|0:0,0:0:0:0:
408,35,151851,2,0,L|300:38,2,90,8|8|12,0:1|0:0|0:1,0:0:0:0:
374,118,152798,6,0,L|373:215,1,90,8|0,0:0|0:0,0:0:0:0:
284,225,153430,1,8,0:0:0:0:
194,234,153746,2,0,P|183:276|192:323,1,90,8|8,0:1|0:0,0:0:0:0:
260,378,154377,2,0,L|349:373,1,90,8|8,0:1|0:0,0:0:0:0:
352,282,155009,6,0,P|394:205|479:190,1,180,4|8,0:0|0:1,0:0:0:0:
480,99,155956,1,8,0:0:0:0:
402,52,156272,2,0,L|314:31,2,90,8|8|8,0:0|0:0|0:0,0:0:0:0:
361,132,157219,1,8,0:0:0:0:
318,211,157535,6,0,L|224:190,1,90,0|12,0:0|0:0,0:0:0:0:
164,253,158167,1,0,0:0:0:0:
77,227,158483,1,8,0:3:0:0:
75,137,158798,2,0,L|74:46,1,90,4|8,0:0|0:0,0:0:0:0:
163,37,159430,2,0,L|164:127,1,90,8|8,0:1|0:0,0:0:0:0:
246,163,160062,6,0,L|242:302,1,135,8|8,0:1|0:0,0:0:0:0:
329,329,160851,2,0,L|331:239,1,90,8|4,0:0|0:0,0:0:0:0:
389,169,161483,2,0,L|393:66,2,90,8|12|12,0:0|0:0|0:0,0:0:0:0:
300,153,162430,6,0,L|155:157,1,135,4|8,0:0|0:1,0:0:0:0:
75,165,163219,1,8,0:0:0:0:
194,30,163851,2,0,L|300:28,1,90,8|0,0:1|0:0,0:0:0:0:
360,77,164483,2,0,L|466:75,1,90,8|8,0:0|0:1,0:0:0:0:
477,161,165114,6,0,P|491:206|479:263,1,90,4|0,0:0|0:0,0:0:0:0:
411,298,165746,2,0,L|226:265,1,180,8|4,0:0|0:1,0:0:0:0:
166,326,166693,1,8,0:0:0:0:
110,255,167009,2,0,L|22:269,1,90,8|8,0:0|0:0,0:0:0:0:
0,172,167641,5,4,0:0:0:0:
117,106,168114,2,0,L|225:120,2,90,12|12|12,0:0|0:0|0:0,0:0:0:0:
223,22,169219,2,0,L|406:45,1,180,0|8,0:0|0:0,0:0:0:0:
490,59,170167,5,4,0:0:0:0:
256,192,170325,12,4,172693,0:0:0:0:
256,192,191641,12,4,192904,0:0:0:0:
133,103,194167,5,2,0:0:0:0:
349,96,195430,1,0,0:0:0:0:
371,310,196693,1,2,0:0:0:0:
155,327,197956,6,0,L|186:141,1,180,0|2,0:0|0:0,0:0:0:0:
359,104,199219,2,0,L|329:281,1,180,0|2,0:0|0:0,0:0:0:0:
256,116,200483,5,0,0:0:0:0:
256,192,200956,12,4,203009,0:0:0:0:
256,59,204272,5,8,0:0:0:0:
255,301,205535,6,0,P|185:324|72:302,1,180,8|8,0:1|0:0,0:0:0:0:
151,140,206798,1,0,0:0:0:0:
239,125,207114,2,0,P|254:166|259:220,2,90,8|8|12,0:1|0:0|0:1,0:0:0:0:
320,85,208062,6,0,P|336:138|358:261,1,180,4|2,0:0|0:0,0:0:0:0:
194,336,209325,2,0,P|178:283|156:160,1,180,0|2,0:0|0:0,0:0:0:0:
230,109,210272,1,8,0:1:0:0:
256,192,210588,12,4,212956,0:0:0:0:
139,82,214377,6,0,P|123:143|123:280,1,180,4|8,0:0|0:1,0:0:0:0:
200,300,215325,1,8,0:0:0:0:
281,261,215641,2,0,P|327:256|369:273,2,90,8|8|8,0:1|0:0|0:1,0:0:0:0:
247,176,216588,1,8,0:0:0:0:
245,86,216904,6,0,L|335:86,1,90,8|8,0:1|0:0,0:0:0:0:
405,142,217535,1,8,0:1:0:0:
494,147,217851,1,8,0:0:0:0:
510,235,218167,2,0,L|510:331,1,90,8|8,0:1|0:0,0:0:0:0:
420,325,218798,2,0,L|420:235,2,90,8|8|12,0:1|0:0|0:1,0:0:0:0:
329,321,219746,5,8,0:0:0:0:
239,310,220062,2,0,L|145:314,1,90,8|8,0:1|0:0,0:0:0:0:
132,225,220693,2,0,P|143:183|133:135,1,90,8|8,0:1|0:0,0:0:0:0:
180,60,221325,2,0,L|269:55,1,90,8|8,0:1|0:0,0:0:0:0:
357,36,221956,6,0,P|402:89|399:210,1,180,4|8,0:0|0:0,0:0:0:0:
322,230,222904,1,8,0:0:0:0:
282,310,223219,2,0,L|175:325,2,90,8|8|8,0:0|0:0|0:0,0:0:0:0:
323,230,224167,1,8,0:0:0:0:
249,178,224483,6,0,L|155:193,1,90,0|12,0:0|0:0,0:0:0:0:
74,164,225114,1,0,0:0:0:0:
84,74,225430,1,4,0:3:0:0:
170,100,225746,2,0,L|276:83,1,90,4|8,0:0|0:0,0:0:0:0:
348,97,226377,2,0,L|347:7,2,90,8|8|8,0:1|0:0|0:1,0:0:0:0:
364,185,227325,6,0,L|216:190,1,135,8|8,0:0|0:0,0:0:0:0:
159,247,228114,1,4,0:0:0:0:
244,276,228430,2,0,L|240:379,2,90,8|12|12,0:0|0:0|0:0,0:0:0:0:
158,248,229377,6,0,L|23:251,1,135,4|8,0:0|0:1,0:0:0:0:
55,166,230167,1,12,0:0:0:0:
196,55,230798,2,0,L|294:54,1,90,8|0,0:1|0:0,0:0:0:0:
276,143,231430,2,0,L|276:244,1,90,8|12,0:0|0:0,0:0:0:0:
304,316,232062,6,0,P|345:299|396:291,1,90,4|0,0:0|0:0,0:0:0:0:
458,232,232693,2,0,P|476:151|436:61,1,180,8|4,0:0|0:0,0:0:0:0:
348,67,233641,1,0,0:0:0:0:
276,121,233956,2,0,L|179:137,1,90,8|8,0:0|0:0,0:0:0:0:
100,161,234588,5,4,0:0:0:0:
187,263,235062,2,0,L|283:271,2,90,4|8|12,0:0|0:1|0:0,0:0:0:0:
103,296,236009,2,0,P|107:217|233:184,1,225,8|8,0:0|0:0,0:0:0:0:
238,93,237114,6,0,L|393:73,1,135,4|4,0:0|0:0,0:0:0:0:
462,81,237904,2,0,L|433:173,1,90,12|4,0:0|0:0,0:0:0:0:
292,108,240904,6,0,L|186:103,1,90,4|8,0:0|0:0,0:0:0:0:
179,190,241535,2,0,L|268:194,1,90,8|8,0:1|0:0,0:0:0:0:
365,174,242167,1,8,0:1:0:0:
423,242,242483,1,8,0:0:0:0:
363,309,242798,2,0,L|268:302,1,90,8|8,0:1|0:0,0:0:0:0:
184,288,243430,6,0,P|111:270|82:172,1,180,8|8,0:1|0:1,0:0:0:0:
129,102,244377,1,8,0:0:0:0:
209,61,244693,2,0,L|301:86,2,90,8|8|8,0:1|0:0|0:0,0:0:0:0:
128,102,245641,1,8,0:0:0:0:
73,173,245956,6,0,P|59:213|60:268,1,90,4|8,0:0|0:0,0:0:0:0:
129,316,246588,2,0,L|224:309,1,90,8|8,0:1|0:0,0:0:0:0:
294,259,247219,2,0,L|389:252,1,90,8|8,0:1|0:0,0:0:0:0:
443,184,247851,6,0,P|463:87|420:7,2,180,12|8|8,0:1|0:0|0:0,0:0:0:0:
358,152,249430,1,8,0:1:0:0:
269,168,249746,2,0,L|177:163,1,90,4|8,0:0|0:0,0:0:0:0:
100,207,250377,2,0,L|47:198,2,45,8|8|8,0:0|0:0|0:0,0:0:0:0:
158,275,251009,6,0,L|250:275,1,90,4|8,0:0|0:0,0:0:0:0:
324,322,251641,1,8,0:1:0:0:
413,313,251956,1,8,0:0:0:0:
464,238,252272,2,0,P|481:193|477:149,1,90,8|8,0:1|0:0,0:0:0:0:
421,81,252904,2,0,L|331:122,1,90,8|8,0:1|0:0,0:0:0:0:
248,123,253535,6,0,P|157:111|70:105,1,180,8|8,0:1|0:1,0:0:0:0:
45,192,254483,1,8,0:0:0:0:
113,250,254798,2,0,L|88:337,2,90,4|12|4,0:0|0:0|0:0,0:0:0:0:
201,230,255746,1,8,0:0:0:0:
280,188,256062,6,0,P|362:201|402:287,1,180,4|8,0:0|0:1,0:0:0:0:
316,308,257009,1,8,0:1:0:0:
228,329,257325,2,0,L|43:322,1,180,8|8,0:0|0:1,0:0:0:0:
26,234,258272,1,8,0:1:0:0:
97,179,258588,6,0,L|190:202,2,90,12|8|8,0:0|0:1|0:1,0:0:0:0:
99,88,259535,1,8,0:1:0:0:
188,98,259851,2,0,L|203:7,2,90,12|8|8,0:0|0:1|0:1,0:0:0:0:
169,186,260798,1,8,0:1:0:0:
256,192,261114,12,0,266167,0:0:0:0:
