osu file format v14

[General]
AudioFilename: Uchouten Vivace.mp3
AudioLeadIn: 0
PreviewTime: 159335
Countdown: 0
SampleSet: Soft
StackLeniency: 0.7
Mode: 0
LetterboxInBreaks: 0
WidescreenStoryboard: 0

[Editor]
Bookmarks: 557,7775,22211,29654,36872,44090,51083,58301,65519,72737,76346,79955,82662,83564,89880,91008,98000,105218,112436,119654,123263,126872,129579,130481,144917,152135,159353,162511,162963,166572,170181,173790,181008,184617,188226,190932,191835,206271,208978
DistanceSpacing: 1.1
BeatDivisor: 2
GridSize: 4
TimelineZoom: 1.8

[Metadata]
Title:An Ecstatic Vivace
TitleUnicode:有頂天ビバーチェ
Artist:yuikonnu
ArtistUnicode:ゆいこんぬ
Creator:Natsu
Version:Extreme
Source:
Tags:Yasaka Himi vocaloid broccoly tari Last Note. Gumi mikagura gakuen kumikyoku school nico nico douga
BeatmapID:871861
BeatmapSetID:318529

[Difficulty]
HPDrainRate:5
CircleSize:4
OverallDifficulty:8
ApproachRate:9.3
SliderMultiplier:1.6
SliderTickRate:1

[Events]
//Background and Video events
0,0,"UVBG.jpg",0,0
//Break Periods
2,83746,89308
2,159535,161939
//Storyboard Layer 0 (Background)
//Storyboard Layer 1 (Fail)
//Storyboard Layer 2 (Pass)
//Storyboard Layer 3 (Foreground)
//Storyboard Sound Samples

[TimingPoints]
539,225.563909774436,4,2,1,35,1,0
539,-142.857142857143,4,2,1,35,0,0
7080,-142.857142857143,4,2,1,45,0,0
7305,-142.857142857143,4,2,1,50,0,0
7757,-100,4,2,1,70,0,1
7869,-100,4,2,1,50,0,0
9561,-100,4,2,1,70,0,0
9674,-100,4,2,1,50,0,0
11366,-100,4,2,1,70,0,0
11478,-100,4,2,1,50,0,0
13170,-100,4,2,1,70,0,0
13283,-100,4,2,1,50,0,0
14975,-100,4,2,1,70,0,0
15087,-100,4,2,1,50,0,0
16779,-100,4,2,1,70,0,0
16892,-100,4,2,1,50,0,0
18584,-100,4,2,1,70,0,0
18696,-100,4,2,1,50,0,0
20388,-100,4,2,1,70,0,0
20500,-100,4,2,1,50,0,0
21290,-100,4,2,1,70,0,0
21403,-100,4,2,1,50,0,0
22193,-100,4,2,1,70,0,0
22418,-100,4,2,1,50,0,0
28960,-83.3333333333333,4,2,2,60,0,0
29636,-100,4,2,1,60,0,0
36178,-100,4,2,2,60,0,0
36854,-100,4,2,1,60,0,0
43396,-83.3333333333333,4,2,2,60,0,0
44072,-100,4,2,1,60,0,0
50614,-83.3333333333333,4,2,2,60,0,0
51065,-111.111111111111,4,2,1,55,0,0
57832,-99.9999999999999,4,2,2,60,0,0
58283,-100,4,2,1,60,0,0
63245,-100,4,2,2,60,0,0
63696,-90.9090909090909,4,2,1,60,0,0
64824,-90.9090909090909,4,2,2,60,0,0
65501,-90.9090909090909,4,2,1,60,0,1
72042,-90.9090909090909,4,2,2,60,0,1
72719,-90.9090909090909,4,2,1,60,0,1
75764,-90.9090909090909,4,2,2,60,0,1
76328,-90.9090909090909,4,2,1,60,0,1
79035,-90.9090909090909,4,2,2,60,0,1
79937,-90.9090909090909,4,2,1,60,0,1
82644,-100,4,2,1,60,0,0
82982,-100,4,2,2,60,0,0
83546,-100,4,2,2,70,0,0
89862,-100,4,2,1,60,0,0
90313,-83.3333333333333,4,2,2,60,0,0
90990,-100,4,2,1,60,0,0
97532,-100,4,2,2,60,0,0
97982,-111.111111111111,4,2,1,55,0,0
104411,-100,4,2,2,60,0,0
105200,-100,4,2,1,60,0,0
110163,-100,4,2,2,60,0,0
110614,-90.9090909090909,4,2,1,60,0,0
111742,-90.9090909090909,4,2,2,60,0,0
112418,-90.9090909090909,4,2,1,60,0,1
118960,-90.9090909090909,4,2,2,60,0,1
119636,-90.9090909090909,4,2,1,60,0,1
122681,-90.9090909090909,4,2,2,60,0,1
123246,-90.9090909090909,4,2,1,60,0,1
125952,-90.9090909090909,4,2,2,60,0,1
126855,-90.9090909090909,4,2,1,60,0,1
129561,-100,4,2,1,70,0,0
129787,-100,4,2,2,55,0,0
130463,-100,4,2,1,70,0,1
130520,-100,4,2,1,60,0,0
137230,-100,4,2,2,60,0,0
137681,-100,4,2,1,60,0,0
141290,-100,4,2,4,60,0,0
143208,-100,4,2,1,60,0,0
143997,-100,4,2,2,60,0,0
144899,-125,4,2,1,55,0,0
146027,-100,4,2,2,60,0,0
146704,-125,4,2,1,55,0,0
147832,-100,4,2,2,60,0,0
148508,-125,4,2,1,55,0,0
149636,-100,4,2,2,60,0,0
150313,-125,4,2,1,55,0,0
151666,-100,4,2,2,60,0,0
152117,-100,4,2,1,60,0,0
153245,-83.3333333333333,4,2,2,60,0,0
153922,-100,4,2,1,60,0,0
155050,-83.3333333333333,4,2,2,60,0,0
155726,-100,4,2,1,60,0,0
156854,-83.3333333333333,4,2,2,60,0,0
157531,-100,4,2,1,60,0,0
159335,-100,4,2,1,50,0,0
162493,-100,4,2,2,60,0,0
162945,-90.9090909090909,4,2,1,60,0,1
165877,-90.9090909090909,4,2,2,60,0,1
166554,-90.9090909090909,4,2,1,60,0,1
169599,-90.9090909090909,4,2,2,60,0,1
170163,-90.9090909090909,4,2,1,60,0,1
172870,-90.9090909090909,4,2,2,60,0,1
173659,-90.9090909090909,4,2,2,60,0,0
173772,-90.9090909090909,4,2,1,60,0,1
180313,-90.9090909090909,4,2,2,60,0,1
180990,-90.9090909090909,4,2,1,60,0,1
184035,-90.9090909090909,4,2,2,60,0,1
184599,-90.9090909090909,4,2,1,60,0,1
187306,-90.9090909090909,4,2,2,60,0,1
188208,-90.9090909090909,4,2,1,60,0,1
190914,-100,4,2,1,60,0,0
191253,-100,4,2,2,50,0,0
191817,-100,4,2,1,70,0,1
191929,-100,4,2,1,50,0,0
193621,-100,4,2,1,70,0,0
193734,-100,4,2,1,50,0,0
195426,-100,4,2,1,70,0,0
195538,-100,4,2,1,50,0,0
197230,-100,4,2,1,70,0,0
197343,-100,4,2,1,50,0,0
199035,-100,4,2,1,70,0,0
199147,-100,4,2,1,50,0,0
200839,-100,4,2,1,70,0,0
200952,-100,4,2,1,50,0,0
202644,-100,4,2,1,70,0,0
202756,-100,4,2,1,50,0,0
204448,-100,4,2,1,70,0,0
204560,-100,4,2,1,50,0,0
205350,-100,4,2,1,70,0,0
205463,-100,4,2,1,50,0,0
206253,-100,4,2,3,70,0,0
206591,-100,4,2,3,60,0,0
207155,-100,4,2,3,70,0,0
207493,-100,4,2,3,60,0,0
208057,-100,4,2,3,70,0,0
208396,-100,4,2,3,60,0,0
208960,-100,4,2,3,70,0,0

[Colours]
Combo1 : 255,45,213
Combo2 : 49,242,28
Combo3 : 255,155,4
Combo4 : 242,57,57
Combo5 : 238,250,14

[HitObjects]
144,144,539,6,0,L|128:220,2,55.9999982910157,2|2|2,0:0|0:0|0:0,0:0:0:0:
212,92,877,1,2,0:0:0:0:
212,92,990,1,2,0:0:0:0:
256,252,1215,5,2,0:0:0:0:
256,252,1328,1,2,0:0:0:0:
300,92,1554,1,2,0:0:0:0:
300,92,1666,1,2,0:0:0:0:
184,212,1892,1,2,0:0:0:0:
340,156,2117,1,2,0:0:0:0:
184,100,2343,6,0,L|128:48,2,55.9999982910157,2|2|2,0:0|0:0|0:0,0:0:0:0:
244,156,2681,1,2,0:0:0:0:
244,156,2794,1,2,0:0:0:0:
364,272,3020,5,2,0:0:0:0:
364,272,3133,1,2,0:0:0:0:
204,316,3358,1,2,0:0:0:0:
204,316,3471,1,2,0:0:0:0:
244,156,3696,1,2,0:0:0:0:
292,316,3921,1,2,0:0:0:0:
244,156,4148,6,0,L|224:84,2,55.9999982910157,2|2|2,0:0|0:0|0:0,0:0:0:0:
268,236,4486,1,2,0:0:0:0:
268,236,4599,1,2,0:0:0:0:
416,312,4825,5,2,0:0:0:0:
416,312,4938,1,2,0:0:0:0:
408,144,5164,1,2,0:0:0:0:
408,144,5276,1,2,0:0:0:0:
268,236,5501,1,2,0:0:0:0:
432,228,5726,1,2,0:0:0:0:
328,96,5952,6,0,L|328:24,2,55.9999982910157,2|2|2,0:0|0:0|0:0,0:0:0:0:
328,180,6290,1,2,0:0:0:0:
328,180,6403,1,2,0:0:0:0:
328,348,6629,5,2,0:0:0:0:
328,348,6742,1,0,0:0:0:0:
184,264,6968,1,2,0:0:0:0:
184,264,7080,1,10,3:0:0:0:
368,252,7305,5,12,3:0:0:0:
100,192,7530,1,2,0:0:0:0:
328,348,7757,6,0,L|416:352,1,80,6|0,0:0|0:0,0:0:0:0:
407,183,7982,2,0,L|319:179,1,80,10|0,0:0|0:0,0:0:0:0:
256,264,8208,1,2,0:0:0:0:
112,344,8433,5,8,0:0:0:0:
112,344,8546,1,2,0:0:0:0:
108,184,8772,1,2,0:0:0:0:
108,184,8884,1,8,0:0:0:0:
256,264,9110,2,0,L|344:256,1,80,2|0,0:0|0:0,0:0:0:0:
486,175,9335,2,0,L|398:183,1,80,10|0,0:0|0:0,0:0:0:0:
256,264,9561,6,0,P|244:304|256:348,1,80,6|0,0:0|0:0,0:0:0:0:
406,182,9787,2,0,P|418:142|406:98,1,80,10|0,0:0|0:0,0:0:0:0:
324,44,10012,1,2,0:0:0:0:
108,184,10237,5,8,0:0:0:0:
108,184,10350,1,2,0:0:0:0:
336,140,10576,1,2,0:0:0:0:
336,140,10688,1,8,0:0:0:0:
144,80,10914,2,0,L|128:-4,1,80,2|0,0:0|0:0,0:0:0:0:
256,120,11140,2,0,L|272:204,1,80,10|0,0:0|0:0,0:0:0:0:
308,368,11366,6,0,P|344:372|392:348,1,80,6|0,0:0|0:0,0:0:0:0:
472,192,11591,2,0,P|436:188|388:212,1,80,10|0,0:0|0:0,0:0:0:0:
336,300,11817,1,2,0:0:0:0:
336,140,12042,5,8,0:0:0:0:
336,140,12155,1,2,0:0:0:0:
172,272,12381,1,2,0:0:0:0:
172,272,12493,1,8,0:0:0:0:
416,216,12719,2,0,L|504:200,1,80,2|0,0:0|0:0,0:0:0:0:
336,140,12945,2,0,L|248:156,1,80,10|0,0:0|0:0,0:0:0:0:
416,216,13170,6,0,L|432:304,1,80,6|0,0:0|0:0,0:0:0:0:
336,140,13396,2,0,L|320:52,1,80,10|0,0:0|0:0,0:0:0:0:
404,8,13621,1,2,0:0:0:0:
256,192,13846,5,8,0:0:0:0:
256,192,13959,1,2,0:0:0:0:
460,92,14185,1,2,0:0:0:0:
460,92,14298,1,8,0:0:0:0:
256,24,14523,2,0,P|232:52|224:96,1,80,2|0,0:0|0:0,0:0:0:0:
223,261,14749,2,0,P|247:233|255:189,1,80,10|0,0:0|0:0,0:0:0:0:
119,123,14975,6,0,P|147:147|191:155,1,80,6|0,0:0|0:0,0:0:0:0:
357,157,15201,2,0,P|329:133|285:125,1,80,10|0,0:0|0:0,0:0:0:0:
180,80,15426,1,2,0:0:0:0:
84,324,15651,5,8,0:0:0:0:
84,324,15764,1,2,0:0:0:0:
292,312,15990,1,2,0:0:0:0:
292,312,16102,1,8,0:0:0:0:
120,124,16328,2,0,P|104:84|112:40,1,80,2|0,0:0|0:0,0:0:0:0:
256,148,16554,2,0,P|272:188|264:232,1,80,10|0,0:0|0:0,0:0:0:0:
192,352,16779,6,0,L|272:348,1,80,6|0,0:0|0:0,0:0:0:0:
347,219,17005,2,0,L|267:223,1,80,10|0,0:0|0:0,0:0:0:0:
180,264,17230,1,2,0:0:0:0:
32,120,17455,5,8,0:0:0:0:
32,120,17568,1,2,0:0:0:0:
232,56,17794,1,2,0:0:0:0:
232,56,17906,1,8,0:0:0:0:
180,264,18132,2,0,L|168:352,1,80,10|0,0:0|1:0,0:0:0:0:
347,219,18358,2,0,L|359:131,1,80,10|0,0:0|1:0,0:0:0:0:
180,264,18584,6,0,L|92:252,1,80,6|0,0:0|0:0,0:0:0:0:
267,208,18810,2,0,L|355:220,1,80,10|0,0:0|0:0,0:0:0:0:
484,196,19035,1,2,0:0:0:0:
232,56,19260,5,8,0:0:0:0:
232,56,19373,1,2,0:0:0:0:
256,312,19599,1,2,0:0:0:0:
256,312,19711,1,8,0:0:0:0:
416,104,19937,2,0,L|424:12,1,80,2|0,0:0|0:0,0:0:0:0:
332,120,20163,2,0,L|324:212,1,80,10|0,0:0|0:0,0:0:0:0:
308,300,20388,5,6,0:0:0:0:
236,360,20500,1,0,0:0:0:0:
140,368,20613,1,10,0:0:0:0:
56,320,20726,1,0,0:0:0:0:
28,228,20839,2,0,P|16:184|20:140,1,80,2|0,0:0|0:0,0:0:0:0:
120,52,21065,2,0,P|132:96|128:140,1,80,10|0,0:0|0:0,0:0:0:0:
28,228,21290,5,6,0:0:0:0:
56,320,21403,1,0,0:0:0:0:
140,368,21516,1,10,0:0:0:0:
256,192,21743,2,0,P|264:152|252:100,1,80,10|0,0:0|1:0,0:0:0:0:
120,52,21967,2,0,P|112:92|124:144,1,80,10|0,0:0|1:0,0:0:0:0:
148,252,22193,1,6,0:0:0:0:
472,336,22418,6,0,L|496:240,1,80,8|0,0:0|0:0,0:0:0:0:
392,256,22644,2,0,L|368:176,1,80,2|0,0:0|0:0,0:0:0:0:
472,172,22869,2,0,L|496:76,1,80,8|0,0:0|0:0,0:0:0:0:
364,32,23095,5,6,0:0:0:0:
308,104,23208,2,0,P|268:116|212:96,1,80,0|8,0:0|0:0,0:0:0:0:
364,32,23433,2,0,P|404:20|460:40,1,80,2|0,0:0|0:0,0:0:0:0:
472,116,23659,1,0,0:0:0:0:
308,104,23772,2,0,P|295:34|368:36,1,160,8|2,0:0|0:0,0:0:0:0:
388,352,24223,6,0,L|296:364,1,80,8|0,0:0|0:0,0:0:0:0:
300,256,24448,2,0,L|379:245,1,80,2|0,0:0|0:0,0:0:0:0:
468,328,24674,1,8,0:0:0:0:
472,116,24899,5,2,0:0:0:0:
472,116,25012,2,0,L|484:28,1,80,0|8,0:0|0:0,0:0:0:0:
376,108,25238,2,0,L|364:196,1,80,2|0,0:0|0:0,0:0:0:0:
284,88,25463,1,0,0:0:0:0:
284,88,25576,2,0,L|296:0,2,80,8|8|2,0:0|0:0|0:0,0:0:0:0:
256,324,26027,5,8,0:0:0:0:
168,364,26140,1,0,0:0:0:0:
184,268,26253,2,0,P|196:228|184:180,1,80,2|0,0:0|0:0,0:0:0:0:
328,116,26478,2,0,P|316:156|328:204,1,80,8|0,0:0|0:0,0:0:0:0:
488,160,26704,5,2,0:0:0:0:
488,160,26817,2,0,L|388:156,1,80,0|8,0:0|0:0,0:0:0:0:
224,140,27042,2,0,P|212:100|220:60,1,80,2|0,0:0|0:0,0:0:0:0:
328,116,27268,1,0,0:0:0:0:
328,116,27381,2,0,P|340:156|332:196,1,80,8|0,0:0|0:0,0:0:0:0:
216,244,27606,6,0,L|132:264,1,80,6|0,0:0|0:0,0:0:0:0:
100,368,27832,2,0,L|177:349,1,80,8|0,0:0|0:0,0:0:0:0:
216,244,28057,2,0,P|228:200|216:152,1,80,2|0,0:0|0:0,0:0:0:0:
152,80,28283,5,8,0:0:0:0:
222,166,28396,2,0,L|304:148,1,80,2|0,0:0|0:0,0:0:0:0:
408,120,28621,1,0,0:0:0:0:
300,148,28734,2,0,P|284:108|288:64,1,80,8|0,0:0|0:0,0:0:0:0:
470,53,28960,5,12,0:0:0:0:
511,145,29073,1,8,0:0:0:0:
457,231,29186,1,8,0:0:0:0:
356,232,29299,1,8,0:0:0:0:
300,148,29411,1,12,0:0:0:0:
68,64,29636,6,0,L|68:164,1,80,8|0,0:0|0:0,0:0:0:0:
224,143,29862,2,0,P|264:135|308:155,1,80,2|0,0:0|0:0,0:0:0:0:
380,262,30087,2,0,L|392:356,1,80,8|0,0:0|0:0,0:0:0:0:
309,227,30313,5,6,0:0:0:0:
309,227,30426,2,0,L|297:133,1,80,0|8,0:0|0:0,0:0:0:0:
213,63,30651,2,0,L|225:157,1,80,2|0,0:0|0:0,0:0:0:0:
256,288,30877,1,0,0:0:0:0:
256,288,30990,2,0,P|328:308|388:244,1,160,8|2,0:0|0:0,0:0:0:0:
213,63,31441,6,0,L|128:92,1,80,8|0,0:0|0:0,0:0:0:0:
32,192,31666,2,0,L|117:221,1,80,2|0,0:0|0:0,0:0:0:0:
216,316,31892,2,0,L|131:345,1,80,8|0,0:0|0:0,0:0:0:0:
256,192,32117,5,2,0:0:0:0:
256,192,32230,2,0,L|341:163,1,80,0|8,0:0|0:0,0:0:0:0:
172,172,32456,2,0,P|172:220|200:260,1,80,2|0,0:0|0:0,0:0:0:0:
336,328,32681,1,8,0:0:0:0:
336,328,32794,2,0,P|336:280|308:240,1,80,8|8,0:0|0:0,0:0:0:0:
172,172,33020,6,0,P|96:148|28:204,1,160,6|8,0:0|0:0,0:0:0:0:
198,346,33358,1,0,0:0:0:0:
198,346,33471,2,0,P|274:370|342:314,1,160,2|8,0:0|0:0,0:0:0:0:
400,72,33922,6,0,B|416:24|416:24|412:-16,2,80,2|0|8,0:0|0:0|0:0,0:0:0:0:
256,144,34260,2,0,B|240:192|240:192|244:232,2,80,0|2|0,0:0|0:0|0:0,0:0:0:0:
308,52,34599,1,8,0:0:0:0:
356,160,34711,1,0,0:0:0:0:
440,205,34824,6,0,P|452:129|400:72,1,160,6|8,0:0|0:0,0:0:0:0:
71,178,35275,2,0,P|59:254|112:312,1,160,6|8,0:0|0:0,0:0:0:0:
392,304,35726,6,0,L|492:288,1,80,6|0,0:0|0:0,0:0:0:0:
280,232,35952,2,0,L|380:216,1,80,8|0,0:0|0:0,0:0:0:0:
172,148,36178,6,0,L|272:132,1,80,12|8,0:0|0:0,0:0:0:0:
396,116,36403,1,8,0:0:0:0:
324,12,36516,1,8,0:0:0:0:
328,172,36629,1,6,0:0:0:0:
468,160,36854,6,0,P|480:116|464:72,1,80,8|0,0:0|0:0,0:0:0:0:
250,135,37080,2,0,P|238:179|254:223,1,80,2|0,0:0|0:0,0:0:0:0:
396,116,37305,2,0,P|389:70|357:36,1,80,8|0,0:0|0:0,0:0:0:0:
328,172,37531,5,2,0:0:0:0:
328,172,37644,2,0,P|334:217|366:251,1,80,0|8,0:0|0:0,0:0:0:0:
472,312,37869,2,0,P|465:266|433:232,1,80,2|0,0:0|0:0,0:0:0:0:
328,172,38095,1,0,0:0:0:0:
328,172,38208,2,0,L|232:176,2,80,8|0|2,0:0|0:0|0:0,0:0:0:0:
472,312,38659,5,8,0:0:0:0:
392,364,38772,1,0,0:0:0:0:
304,324,38884,2,0,P|292:280|304:240,1,80,2|0,0:0|0:0,0:0:0:0:
416,128,39110,2,0,P|428:172|416:212,1,80,8|0,0:0|0:0,0:0:0:0:
212,288,39335,5,2,0:0:0:0:
212,288,39448,2,0,L|132:288,1,80,0|8,0:0|0:0,0:0:0:0:
40,196,39674,2,0,L|120:196,1,80,2|0,0:0|0:0,0:0:0:0:
256,144,39899,1,0,0:0:0:0:
392,196,40012,2,0,L|472:196,2,80,8|8|2,0:0|0:0|0:0,0:0:0:0:
120,196,40463,6,0,P|112:156|128:104,1,80,8|0,0:0|0:0,0:0:0:0:
256,66,40689,2,0,P|264:106|248:158,1,80,2|0,0:0|0:0,0:0:0:0:
120,196,40914,2,0,L|40:240,1,80,8|0,0:0|0:0,0:0:0:0:
200,312,41140,5,6,0:0:0:0:
200,312,41253,2,0,L|270:273,1,80,0|8,0:0|0:0,0:0:0:0:
312,72,41478,2,0,L|241:110,1,80,2|0,0:0|0:0,0:0:0:0:
120,196,41704,1,0,0:0:0:0:
200,312,41817,2,0,P|226:343|270:359,1,80,8|0,0:0|0:0,0:0:0:0:
416,268,42042,6,0,B|436:200|436:200|428:180,1,80,2|0,0:0|0:0,0:0:0:0:
312,72,42268,2,0,B|292:140|292:140|295:148,1,80,8|0,0:0|0:0,0:0:0:0:
416,268,42493,1,10,0:0:0:0:
276,342,42606,1,8,0:0:0:0:
308,234,42719,1,10,0:0:0:0:
383,374,42832,1,8,0:0:0:0:
208,236,42945,6,0,L|112:252,1,80,2|0,0:0|0:0,0:0:0:0:
304,148,43170,2,0,L|400:132,1,80,8|0,0:0|0:0,0:0:0:0:
212,144,43396,5,12,0:0:0:0:
260,288,43508,1,8,0:0:0:0:
304,148,43621,1,8,0:0:0:0:
208,236,43734,1,8,0:0:0:0:
256,64,43847,1,12,0:0:0:0:
304,344,44072,6,0,P|343:354|395:338,1,80,8|0,0:0|0:0,0:0:0:0:
488,216,44298,2,0,P|449:206|397:222,1,80,2|0,0:0|0:0,0:0:0:0:
304,344,44523,2,0,P|267:358|223:350,1,80,8|0,0:0|0:0,0:0:0:0:
128,192,44749,6,0,L|112:104,2,80,6|0|8,0:0|0:0|0:0,0:0:0:0:
68,52,45087,2,0,P|100:36|160:52,1,80,2|0,0:0|0:0,0:0:0:0:
256,96,45313,1,0,0:0:0:0:
369,40,45426,2,0,P|408:35|444:52,2,80,8|0|2,0:0|0:0|0:0,0:0:0:0:
128,192,45877,5,8,0:0:0:0:
208,244,45990,1,0,0:0:0:0:
204,148,46102,2,0,L|208:60,1,80,2|0,0:0|0:0,0:0:0:0:
312,176,46328,2,0,L|308:264,1,80,8|0,0:0|0:0,0:0:0:0:
200,344,46554,6,0,P|160:352|116:340,2,80,2|0|8,0:0|0:0|0:0,0:0:0:0:
308,255,46892,2,0,P|348:247|392:259,1,80,2|0,0:0|0:0,0:0:0:0:
448,336,47117,1,8,0:0:0:0:
460,192,47230,2,0,L|468:100,1,80,8|8,0:0|0:0,0:0:0:0:
336,80,47456,6,0,P|260:80|312:16,1,160,6|8,0:0|0:0,0:0:0:0:
460,192,47907,2,0,L|452:276,2,80,2|0|8,0:0|0:0|0:0,0:0:0:0:
216,300,48358,6,0,L|208:379,2,80,2|0|8,0:0|0:0|0:0,0:0:0:0:
256,192,48696,1,0,0:0:0:0:
296,84,48809,2,0,L|303:4,2,80,2|0|8,0:0|0:0|0:0,0:0:0:0:
216,300,49260,6,0,P|176:304|132:280,1,80,6|0,0:0|0:0,0:0:0:0:
104,200,49486,1,8,0:0:0:0:
216,300,49599,2,0,L|240:384,1,80,2|0,0:0|0:0,0:0:0:0:
412,148,49937,5,8,0:0:0:0:
332,96,50050,1,0,0:0:0:0:
328,192,50163,2,0,L|308:292,1,80,6|0,0:0|0:0,0:0:0:0:
184,192,50388,2,0,L|204:92,1,80,10|0,0:0|0:0,0:0:0:0:
328,192,50614,6,0,L|432:200,1,95.9999970703126,8|8,0:0|0:0,0:0:0:0:
184,192,50839,2,0,L|84:184,1,95.9999970703126,8|8,0:0|0:0,0:0:0:0:
216,300,51065,6,0,B|328:308|328:308|312:272,1,143.999995605469,6|2,0:0|0:0,0:0:0:0:
256,192,51403,1,0,0:0:0:0:
256,192,51516,1,8,0:0:0:0:
116,40,51742,1,2,0:0:0:0:
116,40,51854,2,0,L|92:108,1,71.9999978027344,8|0,0:0|0:0,0:0:0:0:
148,224,52080,5,8,0:0:0:0:
148,224,52192,2,0,L|172:156,1,71.9999978027344,2|0,0:0|0:0,0:0:0:0:
72,268,52418,2,0,P|124:312|204:288,1,143.999995605469,8|2,0:0|0:0,0:0:0:0:
256,192,52757,1,8,0:0:0:0:
304,356,52869,5,2,0:0:0:0:
371,233,52982,1,0,0:0:0:0:
388,372,53095,1,2,0:0:0:0:
293,270,53208,1,0,0:0:0:0:
430,296,53320,2,0,L|512:292,1,71.9999978027344,8|0,0:0|0:0,0:0:0:0:
492,156,53546,1,2,0:0:0:0:
371,233,53659,2,0,L|289:237,1,71.9999978027344,8|0,0:0|0:0,0:0:0:0:
208,356,53884,5,8,0:0:0:0:
156,292,53997,2,0,L|156:196,1,71.9999978027344,2|0,0:0|0:0,0:0:0:0:
256,96,54223,2,0,L|256:192,1,71.9999978027344,8|0,0:0|0:0,0:0:0:0:
256,264,54448,1,8,0:0:0:0:
256,264,54561,1,8,0:0:0:0:
387,105,54674,6,0,P|323:75|256:96,1,143.999995605469,6|2,0:0|0:0,0:0:0:0:
168,156,55012,1,0,0:0:0:0:
168,156,55125,2,0,P|132:164|84:148,2,71.9999978027344,8|0|2,0:0|0:0|0:0,0:0:0:0:
256,95,55463,2,0,L|256:12,1,71.9999978027344,8|0,0:0|0:0,0:0:0:0:
168,156,55689,6,0,L|168:239,1,71.9999978027344,8|2,0:0|0:0,0:0:0:0:
168,324,55914,1,0,0:0:0:0:
168,156,56027,2,0,P|100:132|32:164,1,143.999995605469,8|2,0:0|0:0,0:0:0:0:
64,272,56366,1,8,0:0:0:0:
168,324,56479,6,0,P|204:332|256:316,1,71.9999978027344,6|0,0:0|0:0,0:0:0:0:
328,264,56704,2,0,L|332:336,1,71.9999978027344,2|0,0:0|0:0,0:0:0:0:
348,187,56929,2,0,P|313:186|280:200,1,71.9999978027344,8|0,0:0|0:0,0:0:0:0:
208,252,57155,1,2,0:0:0:0:
168,156,57268,2,0,L|160:64,1,71.9999978027344,8|0,0:0|0:0,0:0:0:0:
350,84,57493,1,8,0:0:0:0:
350,84,57606,2,0,L|344:156,1,71.9999978027344,8|0,0:0|0:0,0:0:0:0:
256,244,57832,6,0,L|256:164,1,80,8|8,0:0|0:0,0:0:0:0:
350,84,58057,2,0,P|384:76|432:84,1,80,8|8,0:0|0:0,0:0:0:0:
488,300,58283,6,0,P|412:324|352:272,1,160,6|8,0:0|0:0,0:0:0:0:
328,180,58621,1,0,0:0:0:0:
428,168,58734,2,0,P|438:206|430:245,2,80,2|0|8,0:0|0:0|0:0,0:0:0:0:
176,168,59185,6,0,P|165:206|173:245,2,80,2|0|8,0:0|0:0|0:0,0:0:0:0:
256,128,59523,1,0,0:0:0:0:
244,296,59636,2,0,P|172:328|104:288,1,160,2|8,0:0|0:0,0:0:0:0:
184,72,60087,5,6,0:0:0:0:
312,20,60200,1,0,0:0:0:0:
179,53,60313,1,8,0:0:0:0:
316,38,60426,1,0,0:0:0:0:
181,28,60538,2,0,L|88:20,1,80,2|0,0:0|0:0,0:0:0:0:
314,63,60764,2,0,L|407:71,2,80,8|2|0,0:0|0:0|0:0,0:0:0:0:
256,192,61102,5,2,0:0:0:0:
200,272,61215,2,0,P|156:280|112:264,1,80,8|0,0:0|0:0,0:0:0:0:
256,192,61441,2,0,P|300:184|344:200,1,80,2|0,0:0|0:0,0:0:0:0:
392,272,61666,1,8,0:0:0:0:
392,272,61779,1,8,0:0:0:0:
416,116,61892,6,0,L|424:24,1,80,6|0,0:0|0:0,0:0:0:0:
328,80,62117,2,0,L|321:159,2,80,8|0|10,0:0|0:0|0:0,0:0:0:0:
232,120,62456,1,0,0:0:0:0:
232,120,62569,2,0,L|225:199,1,80,10|0,0:0|0:0,0:0:0:0:
176,356,62794,2,0,P|132:364|84:340,2,80,2|0|8,0:0|0:0|0:0,0:0:0:0:
256,280,63132,1,0,0:0:0:0:
336,356,63245,5,8,0:0:0:0:
336,356,63358,1,8,0:0:0:0:
364,240,63471,1,8,0:0:0:0:
364,240,63584,1,8,0:0:0:0:
172,272,63696,6,0,P|132:280|80:256,1,88.000002685547,6|0,0:0|0:0,0:0:0:0:
340,112,63922,2,0,P|380:104|432:128,1,88.000002685547,8|0,0:0|0:0,0:0:0:0:
428,276,64148,1,2,0:0:0:0:
256,192,64260,2,0,P|232:160|232:100,1,88.000002685547,8|8,0:0|0:0,0:0:0:0:
335,236,64486,6,0,P|267:285|188:255,1,176.000005371094,6|8,0:0|0:0,0:0:0:0:
96,168,64824,2,0,P|48:160|-4:184,2,88.000002685547,8|8|8,0:0|0:0|0:0,0:0:0:0:
256,192,65163,1,8,0:0:0:0:
256,192,65275,2,0,L|260:96,1,88.000002685547,8|8,0:0|0:0,0:0:0:0:
399,221,65501,6,0,P|318:247|256:192,1,176.000005371094,6|8,0:0|0:0,0:0:0:0:
399,221,65839,2,0,P|420:260|412:312,2,88.000002685547,2|0|0,0:0|0:0|0:0,0:0:0:0:
368,368,66178,2,0,P|408:384|464:364,1,88.000002685547,8|0,0:0|0:0,0:0:0:0:
452,108,66403,6,0,P|372:84|296:128,1,176.000005371094,6|8,0:0|0:0,0:0:0:0:
334,264,66742,2,0,P|369:238|383:197,1,88.000002685547,2|0,0:0|0:0,0:0:0:0:
256,60,66967,1,0,0:0:0:0:
196,156,67080,1,8,0:0:0:0:
296,127,67193,1,0,0:0:0:0:
172,72,67305,6,0,L|76:64,1,88.000002685547,6|0,0:0|0:0,0:0:0:0:
196,156,67531,1,8,0:0:0:0:
196,156,67644,2,0,L|283:163,2,88.000002685547,2|0|0,0:0|0:0|0:0,0:0:0:0:
70,148,67982,2,0,P|67:104|84:64,1,88.000002685547,8|0,0:0|0:0,0:0:0:0:
196,156,68208,6,0,P|224:240|168:304,1,176.000005371094,6|8,0:0|0:0,0:0:0:0:
104,216,68546,2,0,L|8:216,2,88.000002685547,2|0|0,0:0|0:0|0:0,0:0:0:0:
256,352,68884,1,8,0:0:0:0:
256,352,68997,1,8,0:0:0:0:
300,192,69110,6,0,P|382:176|456:224,1,176.000005371094,6|8,0:0|0:0,0:0:0:0:
300,192,69448,2,0,L|296:104,2,88.000002685547,2|0|0,0:0|0:0|0:0,0:0:0:0:
173,301,69787,2,0,L|169:213,1,88.000002685547,8|0,0:0|0:0,0:0:0:0:
296,104,70012,6,0,P|336:88|392:96,1,88.000002685547,6|0,0:0|0:0,0:0:0:0:
444,192,70238,1,8,0:0:0:0:
380,292,70351,2,0,P|336:296|296:280,1,88.000002685547,2|0,0:0|0:0,0:0:0:0:
296,104,70576,2,0,P|296:54|268:12,1,88.000002685547,0|8,0:0|0:0,0:0:0:0:
172,24,70802,1,0,0:0:0:0:
296,104,70914,6,0,L|396:96,1,88.000002685547,6|0,0:0|0:0,0:0:0:0:
236,160,71140,2,0,P|216:112|232:56,1,88.000002685547,8|0,0:0|0:0,0:0:0:0:
320,196,71366,2,0,P|340:244|324:300,1,88.000002685547,2|0,0:0|0:0,0:0:0:0:
176,256,71591,2,0,L|276:248,1,88.000002685547,8|0,0:0|0:0,0:0:0:0:
444,192,71817,2,0,P|452:148|436:96,1,88.000002685547,2|0,0:0|0:0,0:0:0:0:
264,64,72042,5,8,0:0:0:0:
173,32,72155,1,8,0:0:0:0:
115,110,72268,1,10,0:0:0:0:
170,189,72381,1,8,0:0:0:0:
263,160,72493,1,8,0:0:0:0:
264,64,72606,1,8,0:0:0:0:
170,189,72719,6,0,B|162:265|162:265|190:261,1,88.000002685547,6|0,0:0|0:0,0:0:0:0:
288,332,72945,2,0,B|296:256|296:256|284:257,1,88.000002685547,2|0,0:0|0:0,0:0:0:0:
92,240,73170,2,0,B|16:248|16:248|20:220,1,88.000002685547,10|0,0:0|0:0,0:0:0:0:
72,104,73396,5,2,0:0:0:0:
128,24,73508,1,8,0:0:0:0:
168,112,73621,1,2,0:0:0:0:
72,104,73734,2,0,L|-20:108,1,88.000002685547,8|0,0:0|0:0,0:0:0:0:
128,24,73960,2,0,L|220:20,1,88.000002685547,0|8,0:0|0:0,0:0:0:0:
280,112,74185,1,0,0:0:0:0:
292,228,74298,2,0,P|248:240|204:224,1,88.000002685547,2|8,0:0|0:0,0:0:0:0:
280,112,74523,6,0,P|324:100|368:116,1,88.000002685547,6|0,0:0|0:0,0:0:0:0:
484,84,74749,2,0,P|496:128|480:172,1,88.000002685547,2|0,0:0|0:0,0:0:0:0:
512,288,74975,2,0,P|468:300|424:284,1,88.000002685547,8|0,0:0|0:0,0:0:0:0:
320,176,75200,5,8,0:0:0:0:
244,244,75313,1,8,0:0:0:0:
340,276,75426,1,2,0:0:0:0:
320,176,75538,2,0,L|320:80,1,88.000002685547,8|0,0:0|0:0,0:0:0:0:
475,194,75764,5,8,0:0:0:0:
438,284,75877,1,8,0:0:0:0:
341,272,75990,1,8,0:0:0:0:
320,176,76102,1,8,0:0:0:0:
405,129,76215,1,8,0:0:0:0:
244,244,76328,6,0,P|203:252|151:240,1,88.000002685547,6|0,0:0|0:0,0:0:0:0:
96,168,76554,1,8,0:0:0:0:
140,80,76666,1,0,0:0:0:0:
244,244,76779,2,0,L|248:340,1,88.000002685547,2|0,0:0|0:0,0:0:0:0:
268,140,77005,2,0,L|264:44,1,88.000002685547,8|0,0:0|0:0,0:0:0:0:
244,244,77230,6,0,P|288:248|332:220,1,88.000002685547,2|0,0:0|0:0,0:0:0:0:
345,35,77456,1,8,0:0:0:0:
345,35,77569,2,0,P|301:31|257:59,1,88.000002685547,2|0,0:0|0:0,0:0:0:0:
428,88,77794,1,0,0:0:0:0:
428,88,77907,2,0,P|443:46|429:-3,1,88.000002685547,8|0,0:0|0:0,0:0:0:0:
316,112,78132,6,0,L|308:224,1,88.000002685547,6|0,0:0|0:0,0:0:0:0:
308,328,78358,2,0,P|352:340|404:320,1,88.000002685547,8|0,0:0|0:0,0:0:0:0:
309,199,78584,2,0,P|265:187|213:207,1,88.000002685547,2|0,0:0|0:0,0:0:0:0:
132,328,78809,2,0,P|176:340|228:320,1,88.000002685547,8|0,0:0|0:0,0:0:0:0:
309,199,79035,5,8,0:0:0:0:
361,87,79148,1,8,0:0:0:0:
250,35,79260,1,8,0:0:0:0:
199,148,79373,2,0,L|140:232,1,88.000002685547,8|8,0:0|0:0,0:0:0:0:
196,304,79599,1,8,0:0:0:0:
199,148,79711,2,0,P|168:104|128:96,1,88.000002685547,8|8,0:0|0:0,0:0:0:0:
196,304,79937,6,0,B|232:328|232:328|348:260,1,176.000005371094,6|0,0:0|0:0,0:0:0:0:
432,128,80275,2,0,P|444:84|428:40,2,88.000002685547,10|0|0,0:0|0:0|0:0,0:0:0:0:
346,260,80614,1,8,0:0:0:0:
199,148,80726,1,2,0:0:0:0:
328,16,80839,6,0,P|360:92|316:180,1,176.000005371094,6|0,0:0|0:0,0:0:0:0:
196,304,81178,2,0,P|164:228|208:140,1,176.000005371094,10|0,0:0|0:0,0:0:0:0:
280,92,81516,1,8,0:0:0:0:
248,228,81629,1,2,0:0:0:0:
72,216,81742,6,0,P|80:124|144:64,1,176.000005371094,6|0,0:0|0:0,0:0:0:0:
280,92,82080,2,0,P|328:100|376:80,2,88.000002685547,10|0|0,0:0|0:0|0:0,0:0:0:0:
440,28,82418,2,0,P|460:68|452:124,1,88.000002685547,8|0,0:0|0:0,0:0:0:0:
356,192,82644,2,0,B|240:192|240:192|199:173,1,160,6|0,0:0|0:0,0:0:0:0:
96,132,82982,5,8,0:0:0:0:
96,132,83095,2,0,L|96:220,2,80,8|8|8,0:0|0:0|0:0,0:0:0:0:
364,36,83546,5,6,0:0:0:0:
216,144,89862,5,10,0:0:0:0:
252,232,89975,1,8,0:0:0:0:
312,156,90087,2,0,L|400:136,1,80,2|8,0:0|0:0,0:0:0:0:
252,232,90313,6,0,L|156:256,1,95.9999970703126,12|8,0:0|0:0,0:0:0:0:
216,144,90538,2,0,L|192:52,1,95.9999970703126,8|8,0:0|0:0,0:0:0:0:
312,156,90764,2,0,L|340:252,1,95.9999970703126,12|0,0:0|0:0,0:0:0:0:
428,368,90990,6,0,P|468:360|496:328,1,80,8|0,0:0|0:0,0:0:0:0:
404,212,91215,2,0,P|364:220|336:252,1,80,2|0,0:0|0:0,0:0:0:0:
288,368,91441,2,0,L|360:324,1,80,8|0,0:0|0:0,0:0:0:0:
472,248,91666,5,2,0:0:0:0:
497,91,91779,2,0,P|457:87|420:100,1,80,0|8,0:0|0:0,0:0:0:0:
326,220,92005,2,0,P|366:224|404:212,1,80,2|0,0:0|0:0,0:0:0:0:
256,96,92230,1,0,0:0:0:0:
185,220,92343,2,0,P|145:224|108:212,2,80,8|0|2,0:0|0:0|0:0,0:0:0:0:
384,32,92794,6,0,P|420:24|472:40,1,80,8|0,0:0|0:0,0:0:0:0:
418,177,93020,2,0,P|410:141|426:89,1,80,2|0,0:0|0:0,0:0:0:0:
456,248,93245,2,0,P|420:256|368:240,1,80,8|0,0:0|0:0,0:0:0:0:
256,96,93471,5,6,0:0:0:0:
208,176,93584,2,0,P|168:184|124:172,1,80,0|8,0:0|0:0,0:0:0:0:
306,31,93809,2,0,P|346:23|390:35,1,80,2|0,0:0|0:0,0:0:0:0:
418,177,94034,1,8,0:0:0:0:
418,177,94148,2,0,P|378:185|334:173,1,80,8|8,0:0|0:0,0:0:0:0:
256,96,94373,6,0,P|180:68|104:108,1,160,6|8,0:0|0:0,0:0:0:0:
256,324,94824,2,0,L|344:336,2,80,2|0|8,0:0|0:0|0:0,0:0:0:0:
111,99,95275,6,0,P|68:88|20:104,2,80,2|0|8,0:0|0:0|0:0,0:0:0:0:
200,176,95613,1,0,0:0:0:0:
296,244,95726,2,0,P|339:255|387:239,2,80,2|0|8,0:0|0:0|0:0,0:0:0:0:
111,99,96177,6,0,L|76:184,1,80,6|0,0:0|0:0,0:0:0:0:
100,280,96403,1,8,0:0:0:0:
208,296,96516,2,0,L|243:211,1,80,2|0,0:0|0:0,0:0:0:0:
404,32,96854,5,8,0:0:0:0:
480,92,96967,1,0,0:0:0:0:
392,128,97080,2,0,L|372:228,1,80,6|0,0:0|0:0,0:0:0:0:
480,92,97305,2,0,L|500:-8,1,80,8|0,0:0|0:0,0:0:0:0:
392,128,97531,5,8,0:0:0:0:
301,148,97643,1,0,0:0:0:0:
220,101,97756,1,0,0:0:0:0:
194,12,97869,1,8,0:0:0:0:
392,128,97982,6,0,B|370:238|370:238|340:224,1,143.999995605469,6|2,0:0|0:0,0:0:0:0:
256,184,98320,1,0,0:0:0:0:
256,184,98433,1,8,0:0:0:0:
104,48,98659,1,2,0:0:0:0:
104,48,98771,2,0,B|92:84|92:84|100:128,1,71.9999978027344,8|0,0:0|0:0,0:0:0:0:
176,188,98997,5,8,0:0:0:0:
176,188,99110,2,0,B|188:152|188:152|180:108,1,71.9999978027344,2|0,0:0|0:0,0:0:0:0:
104,48,99335,2,0,P|36:40|16:104,1,143.999995605469,2|8,0:0|0:0,0:0:0:0:
48,188,99674,1,8,0:0:0:0:
256,184,99787,5,2,0:0:0:0:
336,108,99899,1,0,0:0:0:0:
320,232,100012,1,2,0:0:0:0:
256,88,100125,1,0,0:0:0:0:
376,176,100238,2,0,P|412:180|456:160,1,71.9999978027344,8|0,0:0|0:0,0:0:0:0:
496,92,100463,1,2,0:0:0:0:
504,224,100576,2,0,L|510:295,1,71.9999978027344,8|0,0:0|0:0,0:0:0:0:
384,364,100801,5,8,0:0:0:0:
304,332,100914,2,0,P|267:324|220:340,1,71.9999978027344,2|0,0:0|0:0,0:0:0:0:
128,360,101140,2,0,L|112:288,1,71.9999978027344,8|0,0:0|0:0,0:0:0:0:
96,192,101365,1,8,0:0:0:0:
96,192,101478,1,8,0:0:0:0:
256,228,101591,6,0,P|320:232|368:172,1,143.999995605469,6|2,0:0|0:0,0:0:0:0:
364,64,101929,1,0,0:0:0:0:
367,174,102042,2,0,P|409:229|478:227,1,143.999995605469,8|2,0:0|0:0,0:0:0:0:
480,96,102381,2,0,L|441:162,1,71.9999978027344,8|0,0:0|0:0,0:0:0:0:
356,304,102606,5,8,0:0:0:0:
356,304,102719,2,0,L|276:304,1,71.9999978027344,2|0,0:0|0:0,0:0:0:0:
152,308,102945,2,0,P|128:240|152:172,1,143.999995605469,8|2,0:0|0:0,0:0:0:0:
367,174,103395,6,0,L|452:176,1,71.9999978027344,2|0,0:0|0:0,0:0:0:0:
364,92,103621,2,0,L|292:90,1,71.9999978027344,2|0,0:0|0:0,0:0:0:0:
208,172,103847,2,0,L|293:174,1,71.9999978027344,8|0,0:0|0:0,0:0:0:0:
205,90,104072,1,2,0:0:0:0:
205,90,104185,2,0,L|133:88,1,71.9999978027344,8|0,0:0|0:0,0:0:0:0:
64,192,104410,5,8,0:0:0:0:
212,252,104523,1,8,0:0:0:0:
136,160,104636,1,8,0:0:0:0:
116,276,104749,2,0,L|100:356,1,80,8|8,0:0|0:0,0:0:0:0:
212,252,104975,2,0,L|224:168,1,80,8|8,0:0|0:0,0:0:0:0:
116,276,105200,6,0,P|156:340|240:344,1,160,6|8,0:0|0:0,0:0:0:0:
336,316,105538,1,0,0:0:0:0:
336,316,105651,2,0,L|424:308,2,80,2|0|8,0:0|0:0|0:0,0:0:0:0:
136,160,106102,6,0,L|48:168,2,80,2|0|8,0:0|0:0|0:0,0:0:0:0:
252,188,106440,1,0,0:0:0:0:
360,144,106554,2,0,P|408:96|344:68,1,160,2|8,0:0|0:0,0:0:0:0:
256,332,107005,5,6,0:0:0:0:
346,241,107117,1,0,0:0:0:0:
256,150,107230,1,8,0:0:0:0:
165,241,107343,1,0,0:0:0:0:
256,332,107456,2,0,L|332:368,1,80,2|0,0:0|0:0,0:0:0:0:
346,241,107681,1,8,0:0:0:0:
346,241,107794,2,0,L|436:224,1,80,2|0,0:0|0:0,0:0:0:0:
480,120,108019,5,0,0:0:0:0:
424,226,108132,2,0,P|420:264|432:304,1,80,8|0,0:0|0:0,0:0:0:0:
480,120,108358,2,0,P|484:82|472:42,1,80,2|0,0:0|0:0,0:0:0:0:
364,16,108584,1,8,0:0:0:0:
364,16,108696,1,8,0:0:0:0:
296,132,108809,6,0,P|256:144|200:124,1,80,6|0,0:0|0:0,0:0:0:0:
128,72,109035,2,0,P|89:64|51:76,2,80,10|0|10,0:0|0:0|0:0,0:0:0:0:
208,220,109373,1,0,0:0:0:0:
208,220,109486,2,0,L|216:304,1,80,10|0,0:0|0:0,0:0:0:0:
416,344,109711,6,0,P|456:344|488:316,2,80,2|0|8,0:0|0:0|0:0,0:0:0:0:
336,272,110049,1,0,0:0:0:0:
336,272,110162,2,0,B|312:216|312:216|316:176,1,80,8|8,0:0|0:0,0:0:0:0:
372,68,110388,2,0,B|396:124|396:124|392:164,1,80,8|8,0:0|0:0,0:0:0:0:
336,272,110613,6,0,P|300:296|256:292,1,80,6|0,0:0|0:0,0:0:0:0:
108,188,110839,2,0,L|200:188,1,88.000002685547,8|0,0:0|0:0,0:0:0:0:
370,155,111065,1,2,0:0:0:0:
370,155,111178,2,0,L|372:60,1,88.000002685547,8|8,0:0|0:0,0:0:0:0:
240,24,111403,2,0,B|156:-4|156:64|69:20,1,176.000005371094,6|8,0:0|0:0,0:0:0:0:
32,148,111742,6,0,L|32:236,1,88.000002685547,8|8,0:0|0:0,0:0:0:0:
136,308,111967,1,8,0:0:0:0:
136,308,112080,1,8,0:0:0:0:
256,344,112193,2,0,L|256:256,1,88.000002685547,8|8,0:0|0:0,0:0:0:0:
180,144,112418,6,0,P|252:108|328:156,1,176.000005371094,6|8,0:0|0:0,0:0:0:0:
372,312,112756,2,0,P|412:324|460:304,2,88.000002685547,2|0|0,0:0|0:0|0:0,0:0:0:0:
326,154,113095,2,0,L|336:56,1,88.000002685547,8|0,0:0|0:0,0:0:0:0:
396,204,113320,6,0,P|324:240|248:192,1,176.000005371094,2|8,0:0|0:0,0:0:0:0:
184,72,113659,2,0,P|140:60|96:72,1,88.000002685547,2|0,0:0|0:0,0:0:0:0:
36,180,113884,1,0,0:0:0:0:
140,136,113997,1,8,0:0:0:0:
24,108,114110,1,0,0:0:0:0:
100,236,114222,6,0,B|105:307|105:307|124:324,1,88.000002685547,6|0,0:0|0:0,0:0:0:0:
228,344,114448,1,8,0:0:0:0:
344,320,114561,2,0,P|384:312|428:328,2,88.000002685547,2|0|0,0:0|0:0|0:0,0:0:0:0:
228,344,114899,2,0,P|212:300|224:256,1,88.000002685547,8|0,0:0|0:0,0:0:0:0:
366,174,115125,6,0,P|394:258|338:322,1,176.000005371094,2|8,0:0|0:0,0:0:0:0:
221,261,115463,2,0,L|128:276,2,88.000002685547,2|0|0,0:0|0:0|0:0,0:0:0:0:
366,174,115801,1,8,0:0:0:0:
366,174,115914,1,8,0:0:0:0:
221,261,116027,6,0,P|169:194|198:115,1,176.000005371094,6|8,0:0|0:0,0:0:0:0:
366,174,116365,2,0,P|408:180|456:160,2,88.000002685547,2|0|0,0:0|0:0|0:0,0:0:0:0:
198,115,116704,2,0,L|108:100,1,88.000002685547,8|0,0:0|0:0,0:0:0:0:
0,232,116929,6,0,L|90:247,1,88.000002685547,6|0,0:0|0:0,0:0:0:0:
204,260,117155,1,8,0:0:0:0:
328,272,117268,2,0,P|344:228|332:168,1,88.000002685547,2|0,0:0|0:0,0:0:0:0:
204,260,117493,2,0,P|188:304|200:364,1,88.000002685547,0|8,0:0|0:0,0:0:0:0:
304,360,117719,1,0,0:0:0:0:
204,260,117832,6,0,L|116:296,1,88.000002685547,6|0,0:0|0:0,0:0:0:0:
204,124,118057,2,0,L|116:88,1,88.000002685547,8|0,0:0|0:0,0:0:0:0:
308,124,118283,2,0,L|396:88,1,88.000002685547,2|0,0:0|0:0,0:0:0:0:
308,260,118508,2,0,L|396:296,1,88.000002685547,8|0,0:0|0:0,0:0:0:0:
204,260,118734,2,0,P|212:212|248:176,1,88.000002685547,2|0,0:0|0:0,0:0:0:0:
389,293,118960,5,8,0:0:0:0:
389,293,119072,1,8,0:0:0:0:
389,293,119185,2,0,B|389:389,1,88.000002685547,8|8,0:0|0:0,0:0:0:0:
472,244,119410,1,8,0:0:0:0:
472,244,119523,1,8,0:0:0:0:
308,124,119636,6,0,P|296:164|312:220,1,88.000002685547,6|0,0:0|0:0,0:0:0:0:
472,244,119862,2,0,P|484:204|468:148,1,88.000002685547,2|0,0:0|0:0,0:0:0:0:
308,124,120087,2,0,B|212:112,1,88.000002685547,8|0,0:0|0:0,0:0:0:0:
68,92,120313,5,2,0:0:0:0:
152,16,120425,1,8,0:0:0:0:
152,168,120538,1,2,0:0:0:0:
68,92,120651,2,0,P|52:48|60:0,1,88.000002685547,8|0,0:0|0:0,0:0:0:0:
220,113,120877,2,0,P|236:157|228:205,1,88.000002685547,0|8,0:0|0:0,0:0:0:0:
160,288,121102,1,0,0:0:0:0:
160,288,121215,2,0,L|252:296,1,88.000002685547,2|8,0:0|0:0,0:0:0:0:
352,96,121441,6,0,L|260:88,1,88.000002685547,6|0,0:0|0:0,0:0:0:0:
428,144,121666,2,0,P|440:102|428:60,1,88.000002685547,2|0,0:0|0:0,0:0:0:0:
264,88,121892,2,0,P|251:129|264:172,1,88.000002685547,8|0,0:0|0:0,0:0:0:0:
368,304,122117,5,2,0:0:0:0:
456,224,122230,1,8,0:0:0:0:
344,188,122343,1,2,0:0:0:0:
298,315,122456,2,0,P|349:327|369:287,1,88.000002685547,8|0,0:0|0:0,0:0:0:0:
256,168,122681,6,0,P|205:156|185:196,2,88.000002685547,8|8|8,0:0|0:0|0:0,0:0:0:0:
144,248,123020,2,0,P|112:212|112:160,1,88.000002685547,8|8,0:0|0:0,0:0:0:0:
256,32,123245,6,0,P|296:12|352:20,1,88.000002685547,6|0,0:0|0:0,0:0:0:0:
424,120,123471,1,8,0:0:0:0:
316,92,123583,1,0,0:0:0:0:
484,184,123696,2,0,P|444:204|388:196,1,88.000002685547,2|0,0:0|0:0,0:0:0:0:
316,92,123922,1,8,0:0:0:0:
264,220,124035,1,0,0:0:0:0:
401,201,124147,6,0,P|416:240|404:296,1,88.000002685547,6|0,0:0|0:0,0:0:0:0:
264,220,124373,1,8,0:0:0:0:
264,220,124486,2,0,P|249:181|261:125,2,88.000002685547,2|0|0,0:0|0:0|0:0,0:0:0:0:
308,72,124824,2,0,P|267:52|217:61,1,88.000002685547,8|0,0:0|0:0,0:0:0:0:
181,205,125050,6,0,P|221:224|271:215,1,88.000002685547,6|0,0:0|0:0,0:0:0:0:
356,160,125275,2,0,P|400:148|456:168,1,88.000002685547,8|0,0:0|0:0,0:0:0:0:
476,296,125501,2,0,P|432:308|376:288,1,88.000002685547,2|0,0:0|0:0,0:0:0:0:
356,160,125726,2,0,L|344:64,1,88.000002685547,8|0,0:0|0:0,0:0:0:0:
256,4,125952,5,8,0:0:0:0:
166,72,126065,2,0,L|156:160,1,88.000002685547,8|8,0:0|0:0,0:0:0:0:
244,288,126290,2,0,L|254:200,1,88.000002685547,8|8,0:0|0:0,0:0:0:0:
264,96,126516,1,8,0:0:0:0:
166,72,126629,2,0,P|124:60|80:72,1,88.000002685547,8|8,0:0|0:0,0:0:0:0:
100,270,126854,6,0,B|124:311|124:311|176:262|252:290,1,176.000005371094,6|0,0:0|0:0,0:0:0:0:
424,356,127192,2,0,P|468:368|512:352,2,88.000002685547,10|0|0,0:0|0:0|0:0,0:0:0:0:
243,287,127531,2,0,P|228:240|244:192,1,88.000002685547,8|2,0:0|0:0,0:0:0:0:
356,92,127756,6,0,P|284:36|192:60,1,176.000005371094,6|0,0:0|0:0,0:0:0:0:
92,244,128095,2,0,P|164:300|256:276,1,176.000005371094,10|0,0:0|0:0,0:0:0:0:
336,192,128433,1,8,0:0:0:0:
212,168,128546,1,2,0:0:0:0:
242,286,128659,6,0,P|312:328|384:280,1,176.000005371094,6|0,0:0|0:0,0:0:0:0:
400,116,128997,2,0,L|408:20,2,88.000002685547,10|0|0,0:0|0:0|0:0,0:0:0:0:
383,281,129335,2,0,P|424:292|456:260,1,88.000002685547,8|0,0:0|0:0,0:0:0:0:
336,192,129561,1,6,0:0:0:0:
176,328,129787,6,0,P|132:340|96:324,1,80,10|8,0:0|0:0,0:0:0:0:
104,120,130012,2,0,P|148:180|129:278,1,160,10|8,0:0|0:0,0:0:0:0:
44,52,130463,6,0,P|116:36|188:84,1,160,6|8,0:0|0:0,0:0:0:0:
383,281,130914,2,0,P|311:297|239:249,1,160,2|8,0:0|0:0,0:0:0:0:
336,40,131366,6,0,P|360:112|312:200,1,160,2|8,0:0|0:0,0:0:0:0:
56,276,131817,2,0,P|44:236|52:188,1,80,2|0,0:0|0:0,0:0:0:0:
144,108,132042,2,0,P|155:147|147:195,1,80,10|0,0:0|0:0,0:0:0:0:
72,48,132268,6,0,P|140:16|216:48,1,160,2|0,0:0|0:0,0:0:0:0:
256,192,132606,1,0,0:0:0:0:
256,192,132719,2,0,P|320:224|312:152,1,160,2|8,0:0|0:0,0:0:0:0:
56,276,133170,5,6,0:0:0:0:
140,324,133283,1,2,0:0:0:0:
136,228,133396,2,0,P|160:148|128:68,1,160,10|0,0:0|0:0,0:0:0:0:
76,152,133734,1,2,0:0:0:0:
240,128,133847,1,10,0:0:0:0:
76,152,133960,1,2,0:0:0:0:
240,128,134072,6,0,B|324:120|440:184|440:276|344:300|260:276|260:188|348:120|452:116,1,480,6|8,0:0|0:0,0:0:0:0:
372,344,134975,6,0,P|292:352|236:296,1,160,6|8,0:0|0:0,0:0:0:0:
132,124,135426,1,2,0:0:0:0:
124,12,135538,1,2,0:0:0:0:
235,3,135651,1,10,0:0:0:0:
243,115,135764,1,2,0:0:0:0:
269,269,135877,5,6,0:0:0:0:
277,381,135990,1,2,0:0:0:0:
388,372,136102,1,10,0:0:0:0:
380,260,136215,2,0,P|372:216|384:164,1,80,2|0,0:0|0:0,0:0:0:0:
456,80,136441,1,2,0:0:0:0:
332,116,136554,1,10,0:0:0:0:
456,160,136666,1,2,0:0:0:0:
376,44,136779,6,0,L|292:32,1,80,6|0,0:0|0:0,0:0:0:0:
176,164,137005,2,0,L|260:176,1,80,10|0,0:0|0:0,0:0:0:0:
376,44,137230,1,10,0:0:0:0:
388,184,137343,2,0,L|416:280,1,80,10|8,0:0|0:0,0:0:0:0:
344,344,137569,1,8,0:0:0:0:
388,184,137681,6,0,P|425:170|484:180,1,80,12|2,0:0|0:0,0:0:0:0:
344,344,137907,2,0,P|306:357|248:348,1,80,10|0,0:0|0:0,0:0:0:0:
388,184,138132,2,0,P|404:224|396:272,1,80,2|0,0:0|0:0,0:0:0:0:
266,355,138358,2,0,P|250:315|258:267,1,80,10|2,0:0|0:0,0:0:0:0:
388,184,138584,5,6,0:0:0:0:
472,53,138696,1,2,0:0:0:0:
327,108,138809,1,10,0:0:0:0:
477,149,138922,1,2,0:0:0:0:
380,28,139035,2,0,P|344:16|296:20,2,80,2|0|8,0:0|0:0|0:0,0:0:0:0:
477,149,139373,1,2,0:0:0:0:
396,276,139486,6,0,P|360:288|312:276,1,80,2|2,0:0|0:0,0:0:0:0:
250,112,139711,2,0,P|286:100|334:112,1,80,10|0,0:0|0:0,0:0:0:0:
396,276,139937,2,0,L|404:368,1,80,2|0,0:0|0:0,0:0:0:0:
483,228,140163,2,0,L|475:136,1,80,10|0,0:0|0:0,0:0:0:0:
380,28,140388,5,6,0:0:0:0:
332,124,140501,1,2,0:0:0:0:
456,76,140614,1,10,0:0:0:0:
296,40,140726,2,0,P|216:32|168:96,1,160,2|0,0:0|0:0,0:0:0:0:
160,212,141065,1,10,0:0:0:0:
250,112,141178,1,2,0:0:0:0:
88,204,141290,6,0,B|80:272|156:320|224:256|224:256|276:304|348:296|312:208|424:172|476:272|392:288,1,480,6|8,0:0|0:0,0:0:0:0:
160,212,142193,6,0,B|144:120|200:88|200:88|256:180|352:156|412:92|392:24|308:8|260:12|292:88,1,480,6|8,0:0|0:0,0:0:0:0:
336,208,142982,2,0,L|360:288,1,80,2|0,0:0|0:0,0:0:0:0:
304,368,143208,5,2,0:0:0:0:
432,292,143320,1,10,0:0:0:0:
276,296,143433,1,2,0:0:0:0:
416,208,143546,1,2,0:0:0:0:
304,368,143659,1,2,0:0:0:0:
432,292,143772,1,10,0:0:0:0:
276,296,143884,1,2,0:0:0:0:
416,208,143997,6,0,P|420:164|408:124,1,80,14|10,0:0|0:0,0:0:0:0:
256,48,144223,2,0,P|252:92|264:132,1,80,10|10,0:0|0:0,0:0:0:0:
356,296,144448,5,10,0:0:0:0:
344,176,144561,1,10,0:0:0:0:
276,296,144674,1,10,0:0:0:0:
416,208,144787,1,10,0:0:0:0:
356,296,144899,6,0,L|364:368,1,64,6|0,0:0|0:0,0:0:0:0:
276,296,145125,2,0,L|268:224,1,64,2|0,0:0|0:0,0:0:0:0:
188,168,145351,2,0,L|196:240,1,64,8|0,0:0|0:0,0:0:0:0:
120,124,145576,1,2,0:0:0:0:
120,124,145689,2,0,P|172:88|240:108,1,128,8|0,0:0|1:0,0:0:0:0:
352,215,146027,6,0,L|432:208,1,80,12|0,0:0|0:0,0:0:0:0:
276,302,146253,2,0,L|356:295,1,80,10|0,0:0|0:0,0:0:0:0:
188,232,146478,2,0,L|268:225,1,80,8|0,0:0|1:0,0:0:0:0:
431,208,146704,6,0,P|440:173|432:129,1,64,6|0,0:0|0:0,0:0:0:0:
336,80,146929,2,0,P|327:115|335:159,1,64,2|0,0:0|0:0,0:0:0:0:
431,208,147156,2,0,L|512:209,1,64,8|0,0:0|0:0,0:0:0:0:
440,296,147381,1,2,0:0:0:0:
440,296,147494,2,0,L|312:296,1,128,8|0,0:0|1:0,0:0:0:0:
140,284,147832,6,0,L|104:204,1,80,12|0,0:0|0:0,0:0:0:0:
208,200,148057,2,0,L|244:120,1,80,10|0,0:0|0:0,0:0:0:0:
140,104,148283,2,0,L|104:24,1,80,8|0,0:0|1:0,0:0:0:0:
24,184,148508,6,0,L|60:256,1,64,6|0,0:0|0:0,0:0:0:0:
140,284,148734,2,0,P|172:288|200:276,1,64,2|0,0:0|0:0,0:0:0:0:
280,224,148960,2,0,P|309:211|340:215,1,64,8|0,0:0|0:0,0:0:0:0:
404,292,149185,1,2,0:0:0:0:
420,184,149298,2,0,B|432:80|432:80|392:88,1,128,8|0,0:0|1:0,0:0:0:0:
240,116,149636,6,0,P|228:76|236:40,1,80,12|0,0:0|0:0,0:0:0:0:
320,144,149862,2,0,P|332:184|324:220,1,80,10|0,0:0|0:0,0:0:0:0:
215,258,150087,2,0,L|131:286,1,80,8|0,0:0|0:0,0:0:0:0:
344,316,150313,6,0,L|412:288,1,64,6|0,0:0|0:0,0:0:0:0:
420,184,150538,2,0,L|352:212,1,64,2|0,0:0|0:0,0:0:0:0:
344,316,150764,2,0,L|336:392,1,64,8|0,0:0|0:0,0:0:0:0:
241,291,150989,1,2,0:0:0:0:
241,291,151102,2,0,L|249:215,1,64,8|0,0:0|0:0,0:0:0:0:
256,96,151328,1,8,0:0:0:0:
256,96,151441,2,0,L|328:88,1,64,2|0,0:0|0:0,0:0:0:0:
404,172,151666,5,8,0:0:0:0:
404,172,151779,1,8,0:0:0:0:
404,40,151892,1,8,0:0:0:0:
404,40,152005,1,8,0:0:0:0:
468,128,152117,6,0,P|480:168|464:220,1,80,6|0,0:0|0:0,0:0:0:0:
392,336,152343,2,0,P|380:296|396:244,1,80,8|0,0:0|0:0,0:0:0:0:
468,128,152569,2,0,P|480:88|464:36,1,80,2|0,0:0|0:0,0:0:0:0:
380,8,152794,1,8,0:0:0:0:
319,88,152907,2,0,P|236:116|172:72,1,160,2|0,0:0|0:0,0:0:0:0:
319,88,153245,6,0,L|344:192,1,95.9999970703126,12|0,0:0|0:0,0:0:0:0:
363,288,153471,2,0,P|319:305|273:296,1,95.9999970703126,10|0,0:0|0:0,0:0:0:0:
341,181,153696,2,0,P|385:163|431:172,1,95.9999970703126,8|0,0:0|0:0,0:0:0:0:
416,343,153922,6,0,P|382:322|364:288,1,80,6|0,0:0|0:0,0:0:0:0:
431,172,154148,2,0,P|465:193|483:227,1,80,8|0,0:0|0:0,0:0:0:0:
363,287,154374,2,0,L|248:300,1,80,2|0,0:0|0:0,0:0:0:0:
216,368,154599,1,8,0:0:0:0:
180,272,154711,2,0,P|152:196|188:120,1,160,2|0,0:0|0:0,0:0:0:0:
335,188,155050,6,0,P|294:212|247:204,1,95.9999970703126,12|0,0:0|0:0,0:0:0:0:
264,44,155275,2,0,P|287:84|280:131,1,95.9999970703126,10|0,0:0|0:0,0:0:0:0:
120,110,155501,2,0,P|160:86|207:93,1,95.9999970703126,8|0,0:0|1:0,0:0:0:0:
335,188,155726,6,0,B|399:188|399:188|427:168,1,80,6|0,0:0|0:0,0:0:0:0:
480,80,155952,2,0,B|416:80|416:80|388:100,1,80,8|0,0:0|0:0,0:0:0:0:
335,188,156178,2,0,P|319:228|331:272,1,80,2|0,0:0|0:0,0:0:0:0:
392,332,156403,1,8,0:0:0:0:
335,188,156516,2,0,P|259:172|187:228,1,160,2|0,0:0|0:0,0:0:0:0:
92,344,156854,6,0,L|44:256,1,95.9999970703126,12|0,0:0|0:0,0:0:0:0:
147,131,157080,2,0,L|198:223,1,95.9999970703126,10|0,0:0|1:0,0:0:0:0:
76,96,157305,2,0,P|108:61|154:53,1,95.9999970703126,8|0,0:0|1:0,0:0:0:0:
193,214,157531,6,0,P|165:246|113:254,1,80,6|0,0:0|0:0,0:0:0:0:
76,96,157757,2,0,L|48:-4,1,80,8|0,0:0|0:0,0:0:0:0:
184,48,157982,2,0,L|212:148,1,80,2|0,0:0|1:0,0:0:0:0:
256,252,158208,1,8,0:0:0:0:
306,125,158320,2,0,L|328:48,1,80,6|0,0:0|0:0,0:0:0:0:
256,252,159335,5,12,3:0:0:0:
252,352,162493,5,8,0:0:0:0:
252,352,162606,1,8,0:0:0:0:
252,352,162719,1,8,0:0:0:0:
252,352,162832,1,8,0:0:0:0:
252,352,162945,6,0,B|272:376|272:376|336:352|324:244,1,176.000005371094,6|8,0:0|0:0,0:0:0:0:
256,88,163283,2,0,B|236:64|236:64|172:88|184:196,1,176.000005371094,2|0,0:0|0:0,0:0:0:0:
324,252,163621,2,0,P|372:256|423:226,1,88.000002685547,8|0,0:0|0:0,0:0:0:0:
453,62,163847,6,0,P|374:93|356:176,1,176.000005371094,6|8,0:0|0:0,0:0:0:0:
495,212,164185,2,0,P|478:172|440:152,1,88.000002685547,2|0,0:0|0:0,0:0:0:0:
256,192,164411,2,0,P|212:208|164:192,1,88.000002685547,0|8,0:0|0:0,0:0:0:0:
128,112,164636,1,0,0:0:0:0:
256,192,164749,6,0,B|280:252|280:252|308:268,1,88.000002685547,6|0,0:0|0:0,0:0:0:0:
452,276,164975,2,0,B|428:216|428:216|400:200,1,88.000002685547,8|0,0:0|0:0,0:0:0:0:
256,192,165200,2,0,B|196:168|196:168|184:147,1,88.000002685547,2|0,0:0|0:0,0:0:0:0:
184,20,165426,2,0,B|244:44|244:44|255:64,1,88.000002685547,8|0,0:0|0:0,0:0:0:0:
256,192,165651,2,0,P|312:248|344:176,1,176.000005371094,2|8,0:0|0:0,0:0:0:0:
160,116,165990,5,8,0:0:0:0:
105,193,166102,1,8,0:0:0:0:
112,288,166215,1,8,0:0:0:0:
180,354,166328,1,8,0:0:0:0:
274,361,166441,1,8,0:0:0:0:
274,361,166554,6,0,L|282:274,1,88.000002685547,6|0,0:0|0:0,0:0:0:0:
364,104,166780,2,0,P|324:92|268:108,1,88.000002685547,2|0,0:0|0:0,0:0:0:0:
282,273,167005,2,0,P|322:285|378:269,1,88.000002685547,8|0,0:0|0:0,0:0:0:0:
484,116,167231,5,2,0:0:0:0:
364,104,167343,1,8,0:0:0:0:
420,220,167456,1,2,0:0:0:0:
484,116,167569,2,0,L|496:20,1,88.000002685547,8|0,0:0|0:0,0:0:0:0:
364,104,167794,2,0,L|352:200,1,88.000002685547,0|8,0:0|0:0,0:0:0:0:
256,256,168020,1,0,0:0:0:0:
158,191,168132,2,0,L|148:104,1,88.000002685547,2|0,0:0|0:0,0:0:0:0:
364,104,168359,6,0,P|408:112|448:100,1,88.000002685547,6|0,0:0|0:0,0:0:0:0:
288,64,168584,2,0,P|280:108|292:148,1,88.000002685547,2|0,0:0|0:0,0:0:0:0:
392,280,168809,2,0,P|400:236|388:196,1,88.000002685547,8|0,0:0|0:0,0:0:0:0:
208,152,169035,5,2,0:0:0:0:
180,272,169148,1,8,0:0:0:0:
299,239,169261,1,2,0:0:0:0:
208,152,169373,2,0,L|104:140,1,88.000002685547,8|0,0:0|0:0,0:0:0:0:
16,188,169599,5,8,0:0:0:0:
92,261,169711,2,0,L|179:271,1,88.000002685547,8|8,0:0|0:0,0:0:0:0:
236,376,169937,1,8,0:0:0:0:
236,376,170050,1,8,0:0:0:0:
352,364,170163,6,0,P|336:324|348:272,1,88.000002685547,6|0,0:0|0:0,0:0:0:0:
408,184,170389,1,8,0:0:0:0:
420,316,170501,1,0,0:0:0:0:
252,336,170614,2,0,L|156:348,1,88.000002685547,2|0,0:0|0:0,0:0:0:0:
40,324,170840,1,8,0:0:0:0:
164,312,170952,1,0,0:0:0:0:
40,296,171065,5,2,0:0:0:0:
168,288,171178,2,0,P|176:252|164:196,1,88.000002685547,0|8,0:0|0:0,0:0:0:0:
36,184,171403,2,0,P|28:220|40:276,1,88.000002685547,2|0,0:0|0:0,0:0:0:0:
112,360,171629,1,0,0:0:0:0:
228,348,171742,2,0,P|268:336|332:356,1,88.000002685547,8|0,0:0|0:0,0:0:0:0:
460,372,171968,6,0,L|468:280,1,88.000002685547,6|0,0:0|0:0,0:0:0:0:
472,156,172193,2,0,P|429:146|387:158,1,88.000002685547,8|0,0:0|0:0,0:0:0:0:
383,286,172419,2,0,P|425:295|467:283,1,88.000002685547,2|0,0:0|0:0,0:0:0:0:
320,216,172644,2,0,P|277:206|235:218,1,88.000002685547,8|0,0:0|0:0,0:0:0:0:
88,276,172870,5,8,0:0:0:0:
88,276,172982,2,0,L|112:360,1,88.000002685547,8|8,0:0|0:0,0:0:0:0:
164,252,173208,2,0,L|140:168,1,88.000002685547,8|8,0:0|0:0,0:0:0:0:
192,56,173433,1,8,0:0:0:0:
192,56,173546,2,0,L|216:140,1,88.000002685547,8|8,0:0|0:0,0:0:0:0:
272,308,173772,6,0,P|351:334|415:278,1,176.000005371094,6|8,0:0|0:0,0:0:0:0:
349,146,174110,2,0,P|328:184|332:228,2,88.000002685547,2|0|0,0:0|0:0|0:0,0:0:0:0:
480,128,174448,2,0,P|500:89|497:46,1,88.000002685547,8|0,0:0|0:0,0:0:0:0:
349,146,174674,6,0,B|224:168|224:168|184:132,1,176.000005371094,2|8,0:0|0:0,0:0:0:0:
32,104,175013,2,0,L|84:176,1,88.000002685547,2|0,0:0|0:0,0:0:0:0:
176,256,175238,1,0,0:0:0:0:
68,296,175351,1,8,0:0:0:0:
84,184,175464,1,0,0:0:0:0:
136,320,175576,6,0,P|180:332|232:304,1,88.000002685547,6|0,0:0|0:0,0:0:0:0:
256,192,175802,1,8,0:0:0:0:
293,317,175914,2,0,P|334:332|376:320,2,88.000002685547,2|0|0,0:0|0:0|0:0,0:0:0:0:
256,192,176253,2,0,L|248:96,1,88.000002685547,8|0,0:0|0:0,0:0:0:0:
119,209,176479,6,0,P|188:247|255:193,1,176.000005371094,6|8,0:0|0:0,0:0:0:0:
256,32,176817,2,0,P|300:20|344:32,2,88.000002685547,2|0|0,0:0|0:0|0:0,0:0:0:0:
184,172,177155,1,8,0:0:0:0:
184,172,177268,1,8,0:0:0:0:
388,300,177381,6,0,P|424:220|392:144,1,176.000005371094,6|8,0:0|0:0,0:0:0:0:
256,192,177719,2,0,L|168:212,2,88.000002685547,2|0|0,0:0|0:0|0:0,0:0:0:0:
180,120,178057,2,0,L|92:140,1,88.000002685547,8|0,0:0|0:0,0:0:0:0:
120,312,178283,6,0,L|205:292,1,88.000002685547,6|0,0:0|0:0,0:0:0:0:
256,192,178509,1,8,0:0:0:0:
336,108,178621,2,0,P|336:58|308:16,1,88.000002685547,2|0,0:0|0:0,0:0:0:0:
194,25,178847,2,0,P|174:64|175:107,1,88.000002685547,0|8,0:0|0:0,0:0:0:0:
256,192,179073,1,0,0:0:0:0:
348,268,179185,6,0,B|404:248|404:248|412:212,1,88.000002685547,6|0,0:0|0:0,0:0:0:0:
256,192,179411,2,0,B|200:212|200:212|192:248,1,88.000002685547,8|0,0:0|0:0,0:0:0:0:
363,350,179637,2,0,P|366:307|348:268,1,88.000002685547,2|0,0:0|0:0,0:0:0:0:
240,109,179862,2,0,P|236:152|255:191,1,88.000002685547,8|0,0:0|0:0,0:0:0:0:
347,267,180088,2,0,L|435:259,1,88.000002685547,2|0,0:0|0:0,0:0:0:0:
392,104,180313,5,8,0:0:0:0:
392,104,180426,1,8,0:0:0:0:
392,104,180538,2,0,L|296:112,1,88.000002685547,8|8,0:0|0:0,0:0:0:0:
167,199,180764,1,8,0:0:0:0:
167,199,180877,1,8,0:0:0:0:
164,72,180990,6,0,P|140:44|92:84,1,88.000002685547,6|0,0:0|0:0,0:0:0:0:
167,199,181215,2,0,P|191:227|239:187,1,88.000002685547,2|0,0:0|0:0,0:0:0:0:
352,108,181441,2,0,P|328:80|280:120,1,88.000002685547,8|0,0:0|0:0,0:0:0:0:
321,210,181666,5,2,0:0:0:0:
323,315,181779,1,8,0:0:0:0:
415,263,181892,1,2,0:0:0:0:
321,210,182005,2,0,L|223:211,1,88.000002685547,8|0,0:0|0:0,0:0:0:0:
415,263,182230,2,0,L|513:262,1,88.000002685547,0|8,0:0|0:0,0:0:0:0:
504,156,182456,1,0,0:0:0:0:
400,144,182569,2,0,P|388:100|404:56,1,88.000002685547,2|8,0:0|0:0,0:0:0:0:
260,76,182794,6,0,L|172:84,1,88.000002685547,6|0,0:0|0:0,0:0:0:0:
256,220,183020,2,0,L|344:212,1,88.000002685547,2|0,0:0|0:0,0:0:0:0:
464,192,183245,2,0,P|452:148|468:104,1,88.000002685547,8|0,0:0|0:0,0:0:0:0:
332,4,183471,5,2,0:0:0:0:
260,76,183584,1,8,0:0:0:0:
360,104,183697,1,2,0:0:0:0:
288,176,183809,2,0,L|200:180,1,88.000002685547,8|0,0:0|0:0,0:0:0:0:
168,324,184035,5,8,0:0:0:0:
168,324,184148,2,0,L|256:320,1,88.000002685547,8|8,0:0|0:0,0:0:0:0:
376,176,184373,2,0,L|287:176,1,88.000002685547,8|8,0:0|0:0,0:0:0:0:
120,248,184599,6,0,P|112:207|124:155,1,88.000002685547,6|0,0:0|0:0,0:0:0:0:
184,88,184825,1,8,0:0:0:0:
280,108,184937,1,0,0:0:0:0:
120,248,185050,2,0,B|50:253|50:253|24:232,1,88.000002685547,2|0,0:0|0:0,0:0:0:0:
201,187,185275,2,0,B|270:181|270:181|297:203,1,88.000002685547,8|0,0:0|0:0,0:0:0:0:
120,248,185501,6,0,P|103:205|110:156,1,88.000002685547,6|0,0:0|0:0,0:0:0:0:
280,108,185727,1,8,0:0:0:0:
280,108,185839,2,0,P|292:152|280:200,1,88.000002685547,2|0,0:0|0:0,0:0:0:0:
216,328,186065,1,0,0:0:0:0:
216,328,186178,2,0,L|328:336,1,88.000002685547,8|0,0:0|0:0,0:0:0:0:
432,232,186403,6,0,L|320:224,1,88.000002685547,6|0,0:0|0:0,0:0:0:0:
504,276,186629,2,0,P|516:232|496:180,1,88.000002685547,8|0,0:0|0:0,0:0:0:0:
344,141,186854,2,0,P|332:185|352:237,1,88.000002685547,2|0,0:0|0:0,0:0:0:0:
504,192,187080,2,0,P|516:148|496:96,1,88.000002685547,8|0,0:0|0:0,0:0:0:0:
392,12,187306,5,8,0:0:0:0:
428,148,187418,1,8,0:0:0:0:
476,40,187531,1,8,0:0:0:0:
312,64,187644,2,0,B|248:64|248:64|220:84,1,88.000002685547,8|8,0:0|0:0,0:0:0:0:
172,192,187870,1,8,0:0:0:0:
228,306,187982,2,0,B|248:320|248:320|312:320,1,88.000002685547,8|8,0:0|0:0,0:0:0:0:
334,161,188208,6,0,P|291:236|312:320,1,176.000005371094,6|0,0:0|0:0,0:0:0:0:
444,316,188546,2,0,P|488:320|520:364,2,88.000002685547,10|0|0,0:0|0:0|0:0,0:0:0:0:
256,376,188885,1,8,0:0:0:0:
256,376,188997,1,2,0:0:0:0:
120,276,189110,6,0,P|68:208|92:120,1,176.000005371094,6|0,0:0|0:0,0:0:0:0:
268,64,189448,2,0,P|320:132|296:220,1,176.000005371094,10|0,0:0|0:0,0:0:0:0:
192,296,189787,1,8,0:0:0:0:
236,152,189900,1,2,0:0:0:0:
152,384,190012,6,0,P|100:316|124:228,1,176.000005371094,6|0,0:0|0:0,0:0:0:0:
236,152,190351,2,0,P|280:160|328:136,2,88.000002685547,10|0|0,0:0|0:0|0:0,0:0:0:0:
384,84,190689,2,0,P|408:124|396:180,1,88.000002685547,10|0,0:0|0:0,0:0:0:0:
256,260,190914,6,0,B|144:272|144:272|112:236,1,160,6|2,0:0|0:0,0:0:0:0:
52,148,191253,1,8,0:0:0:0:
104,20,191366,1,8,0:0:0:0:
184,108,191478,1,8,0:0:0:0:
52,76,191591,1,8,0:0:0:0:
312,40,191817,6,0,L|400:36,1,80,6|0,0:0|0:0,0:0:0:0:
464,144,192042,2,0,L|376:148,1,80,10|0,0:0|0:0,0:0:0:0:
256,192,192268,1,2,0:0:0:0:
120,372,192493,5,8,0:0:0:0:
120,372,192606,1,2,0:0:0:0:
392,372,192832,1,2,0:0:0:0:
392,372,192945,1,8,0:0:0:0:
256,192,193170,2,0,P|244:154|253:115,1,80,2|0,0:0|0:0,0:0:0:0:
356,40,193396,2,0,P|367:77|358:116,1,80,10|0,0:0|0:0,0:0:0:0:
256,192,193621,6,0,L|176:208,1,80,6|0,0:0|0:0,0:0:0:0:
256,296,193847,2,0,L|336:280,1,80,10|0,0:0|0:0,0:0:0:0:
448,248,194072,1,2,0:0:0:0:
256,24,194297,5,8,0:0:0:0:
256,24,194410,1,2,0:0:0:0:
256,296,194636,1,2,0:0:0:0:
256,296,194748,1,8,0:0:0:0:
304,96,194974,2,0,P|342:88|382:93,1,80,2|0,0:0|0:0,0:0:0:0:
208,96,195200,2,0,P|169:103|129:98,1,80,10|0,0:0|1:0,0:0:0:0:
28,220,195426,6,0,L|20:300,1,80,6|0,0:0|0:0,0:0:0:0:
136,356,195651,2,0,P|172:340|211:343,1,80,10|0,0:0|0:0,0:0:0:0:
340,372,195877,1,2,0:0:0:0:
256,128,196102,5,8,0:0:0:0:
256,128,196215,1,2,0:0:0:0:
136,356,196441,1,2,0:0:0:0:
136,356,196553,1,8,0:0:0:0:
356,232,196779,2,0,L|444:224,1,80,2|0,0:0|0:0,0:0:0:0:
496,116,197005,2,0,L|408:124,1,80,10|0,0:0|0:0,0:0:0:0:
255,127,197230,6,0,P|246:89|256:51,1,80,6|0,0:0|0:0,0:0:0:0:
356,155,197456,2,0,P|365:193|355:231,1,80,10|0,0:0|0:0,0:0:0:0:
256,308,197681,1,2,0:0:0:0:
100,164,197906,5,8,0:0:0:0:
100,164,198019,1,2,0:0:0:0:
340,28,198245,1,2,0:0:0:0:
340,28,198358,1,8,0:0:0:0:
256,228,198583,2,0,L|256:312,1,80,2|0,0:0|0:0,0:0:0:0:
340,192,198809,2,0,L|340:108,1,80,10|0,0:0|0:0,0:0:0:0:
204,48,199035,6,0,P|166:57|124:48,1,80,6|0,0:0|0:0,0:0:0:0:
28,148,199261,2,0,L|27:235,1,80,10|0,0:0|0:0,0:0:0:0:
96,320,199486,1,2,0:0:0:0:
256,128,199711,5,8,0:0:0:0:
344,92,199824,1,2,0:0:0:0:
184,284,200050,1,2,0:0:0:0:
96,320,200163,1,8,0:0:0:0:
103,115,200388,2,0,P|95:77|108:39,1,80,2|0,0:0|0:0,0:0:0:0:
252,40,200614,2,0,P|264:77|256:116,1,80,10|0,0:0|0:0,0:0:0:0:
184,232,200839,6,0,L|104:248,1,80,6|0,0:0|0:0,0:0:0:0:
256,324,201065,2,0,L|336:308,1,80,10|0,0:0|0:0,0:0:0:0:
448,280,201290,1,2,0:0:0:0:
380,36,201515,5,8,0:0:0:0:
380,36,201628,1,2,0:0:0:0:
256,192,201854,1,2,0:0:0:0:
256,192,201966,1,8,0:0:0:0:
96,48,202192,2,0,P|57:38|16:48,1,80,2|0,0:0|0:0,0:0:0:0:
100,148,202418,2,0,P|138:157|180:148,1,80,10|0,0:0|1:0,0:0:0:0:
302,34,202644,6,0,P|340:26|379:35,1,80,6|0,0:0|0:0,0:0:0:0:
461,136,202870,2,0,P|422:143|383:134,1,80,10|0,0:0|0:0,0:0:0:0:
256,100,203095,1,2,0:0:0:0:
120,352,203320,5,8,0:0:0:0:
120,352,203433,1,2,0:0:0:0:
392,352,203659,1,2,0:0:0:0:
392,352,203772,1,8,0:0:0:0:
256,180,203997,2,0,L|256:96,1,80,2|0,0:0|0:0,0:0:0:0:
220,248,204223,2,0,P|258:258|296:247,1,80,10|0,0:0|0:0,0:0:0:0:
424,168,204448,5,6,0:0:0:0:
352,108,204560,1,0,0:0:0:0:
256,100,204673,1,10,0:0:0:0:
172,148,204786,1,0,0:0:0:0:
143,240,204899,2,0,P|136:278|143:318,1,80,2|0,0:0|0:0,0:0:0:0:
272,364,205125,2,0,P|310:355|349:362,1,80,10|0,0:0|0:0,0:0:0:0:
488,376,205350,5,6,0:0:0:0:
400,272,205463,1,0,0:0:0:0:
488,168,205576,1,10,0:0:0:0:
212,192,205803,2,0,P|172:200|132:192,1,80,10|0,0:0|1:0,0:0:0:0:
300,192,206027,2,0,P|340:184|380:192,1,80,10|0,0:0|1:0,0:0:0:0:
464,304,206253,5,6,0:0:0:0:
256,112,206478,1,2,0:0:0:0:
256,112,206591,1,10,0:0:0:0:
48,304,206817,1,2,0:0:0:0:
48,304,206929,1,10,0:0:0:0:
256,368,207155,5,6,0:0:0:0:
464,80,207381,1,2,0:0:0:0:
464,80,207493,1,10,0:0:0:0:
48,80,207719,1,2,0:0:0:0:
48,80,207831,1,10,0:0:0:0:
256,296,208057,5,6,0:0:0:0:
400,24,208283,1,2,0:0:0:0:
400,24,208396,1,10,0:0:0:0:
112,24,208621,1,2,0:0:0:0:
112,24,208734,1,10,0:0:0:0:
256,212,208960,5,6,0:0:0:0:
