osu file format v14

[General]
AudioFilename: Ai no Scenario.mp3
AudioLeadIn: 0
PreviewTime: 69875
Countdown: 0
SampleSet: Soft
StackLeniency: 0.7
Mode: 0
LetterboxInBreaks: 0
WidescreenStoryboard: 0

[Editor]
Bookmarks: 256959
DistanceSpacing: 1.1
BeatDivisor: 4
GridSize: 4
TimelineZoom: 1.5

[Metadata]
Title:Ai no Scenario
TitleUnicode:アイのシナリオ
Artist:yuikonnu
ArtistUnicode:ゆいこんぬ
Creator:Guy
Version:Easy
Source:
Tags:CHiCO with HoneyWorks nico douga magic kaito 1412 まじっく快斗1412
BeatmapID:646565
BeatmapSetID:282375

[Difficulty]
HPDrainRate:2
CircleSize:3
OverallDifficulty:2
ApproachRate:3
SliderMultiplier:0.799999999999999
SliderTickRate:1

[Events]
//Background and Video events
0,0,"bg.png",0,0
Video,0,"video.flv"
//Break Periods
2,102825,104185
2,113491,114852
2,169825,179185
2,201825,205519
//Storyboard Layer 0 (Background)
//Storyboard Layer 1 (Fail)
//Storyboard Layer 2 (Pass)
//Storyboard Layer 3 (Foreground)
//Storyboard Sound Samples

[TimingPoints]
1626,333.333333333333,4,2,1,70,1,0
12292,-100,4,2,2,50,0,0
16959,-100,4,2,1,70,0,0
64459,-100,4,2,1,50,0,0
64959,-100,4,2,1,70,0,0
65625,-100,4,2,2,50,0,0
67625,-100,4,2,1,50,0,0
68292,-100,4,2,1,50,0,0
70959,-100,4,2,1,80,0,1
92292,-100,4,2,1,70,0,0
105625,-100,4,2,1,60,0,0
126292,-100,4,2,1,50,0,0
137625,-100,4,2,1,70,0,0
142959,-100,4,2,2,50,0,0
144625,-100,4,2,1,50,0,0
145625,-100,4,2,1,70,0,0
147125,-100,4,2,1,50,0,0
148292,-100,4,2,1,80,0,1
169625,-100,4,2,2,70,0,0
180625,-100,4,2,1,70,0,0
210959,-100,4,2,1,30,0,0
212625,-100,4,2,1,80,0,1
244292,-100,4,2,1,70,0,0
255292,-100,4,2,1,30,0,0

[Colours]
Combo1 : 255,0,204
Combo2 : 39,231,124
Combo3 : 232,139,0
Combo4 : 1,197,254
Combo5 : 170,201,48

[HitObjects]
140,268,1626,6,0,B|216:252|216:252|296:276|296:276|388:256,1,240,4|2,0:0|0:0,0:0:0:0:
372,172,2959,2,0,B|296:188|296:188|216:164|216:164|124:184,1,240,2|2,0:0|0:0,0:0:0:0:
60,220,4292,6,0,B|40:160|68:104|68:104|132:108|196:76,1,240,2|2,0:0|0:0,0:0:0:0:
264,124,5625,2,0,B|284:184|256:240|256:240|192:236|128:268,1,240,2|2,0:0|0:0,0:0:0:0:
100,340,6959,6,0,P|136:348|188:332,1,79.9999999999999,4|2,0:0|0:0,0:0:0:0:
264,324,7625,2,0,P|300:316|352:332,1,79.9999999999999,2|2,0:0|0:0,0:0:0:0:
428,348,8292,2,0,L|424:264,1,79.9999999999999,2|2,0:0|0:0,0:0:0:0:
344,236,8959,2,0,L|348:152,1,79.9999999999999,2|4,0:0|0:0,0:0:0:0:
416,100,9625,6,0,P|368:68|304:76,2,120,12|12|12,0:0|0:0|0:0,0:0:0:0:
212,344,12292,6,0,L|52:332,1,160,2|0,0:0|0:0,0:0:0:0:
60,244,13292,2,0,L|220:256,1,160,2|0,0:0|0:0,0:0:0:0:
296,304,14292,2,0,P|304:252|301:220,1,79.9999999999999,2|0,0:0|0:0,0:0:0:0:
232,172,14959,6,0,B|212:108|216:60|216:60|164:48,1,160,2|0,0:0|0:0,0:0:0:0:
84,44,15959,2,0,B|104:108|100:156|100:156|152:168,1,160,2|0,0:0|0:0,0:0:0:0:
232,172,16959,2,0,P|292:168|320:164,1,79.9999999999999,8|8,0:3|0:0,0:0:0:0:
400,148,17625,6,0,P|452:140|508:228,2,160,4|2|2,0:0|0:0|0:0,0:0:0:0:
312,164,19292,1,8,0:0:0:0:
248,104,19625,2,0,P|228:140|228:184,1,79.9999999999999,2|8,0:0|0:0,0:0:0:0:
280,248,20292,6,0,P|220:264|140:200,2,160,2|2|2,0:0|0:0|0:0,0:0:0:0:
312,164,21959,1,8,0:0:0:0:
368,232,22292,2,0,P|424:220|460:208,1,79.9999999999999,2|8,0:0|0:0,0:0:0:0:
460,128,22959,6,0,P|440:72|356:12,1,160,4|2,0:0|0:0,0:0:0:0:
272,12,23959,1,8,0:0:0:0:
216,80,24292,2,0,P|220:124|228:164,1,79.9999999999999,2|8,0:0|0:0,0:0:0:0:
256,244,24959,2,0,P|252:288|244:328,1,79.9999999999999,2|8,0:0|0:0,0:0:0:0:
164,356,25625,6,0,P|112:296|32:308,2,160,2|2|2,0:0|0:0|0:0,0:0:0:0:
246,324,27292,1,8,0:0:0:0:
220,240,27625,2,0,P|208:176|208:144,1,79.9999999999999,2|8,0:0|0:0,0:0:0:0:
212,72,28292,6,0,P|252:32|352:56,1,160,4|2,0:0|0:0,0:0:0:0:
400,120,29292,1,2,0:0:0:0:
388,208,29625,2,0,P|377:270|372:344,2,120,2|0|2,0:0|0:0|0:0,0:0:0:0:
400,120,30959,6,0,P|360:124|324:144,1,79.9999999999999,2|2,0:0|0:0,0:0:0:0:
296,224,31625,2,0,P|248:216|220:200,1,79.9999999999999,2|2,0:0|0:0,0:0:0:0:
156,144,32292,2,0,P|68:132|20:184,1,160,2|2,0:0|0:0,0:0:0:0:
128,320,33625,6,0,L|220:316,1,79.9999999999999,2|2,0:0|0:0,0:0:0:0:
252,240,34292,2,0,L|344:236,1,79.9999999999999,2|2,0:0|0:0,0:0:0:0:
388,168,34959,2,0,P|416:216|404:288,2,120,2|0|2,0:0|0:0|0:0,0:0:0:0:
324,108,36292,5,2,0:0:0:0:
240,128,36625,1,2,0:0:0:0:
208,212,36959,2,0,L|88:200,1,120,2|8,0:0|0:0,0:0:0:0:
416,328,38959,6,0,L|408:236,1,79.9999999999999,4|8,0:0|0:0,0:0:0:0:
404,160,39625,2,0,P|360:172|324:176,1,79.9999999999999,2|8,0:0|0:0,0:0:0:0:
237,180,40292,2,0,P|185:136|161:76,2,120,2|0|8,0:0|0:0|0:0,0:0:0:0:
326,176,41625,6,0,P|324:220|316:256,1,79.9999999999999,2|8,0:0|0:0,0:0:0:0:
232,288,42292,2,0,P|260:324|296:344,1,79.9999999999999,2|8,0:0|0:0,0:0:0:0:
376,348,42959,2,0,P|396:284|412:176,1,160,2|2,0:0|0:0,0:0:0:0:
304,52,44292,6,0,P|288:96|284:136,1,79.9999999999999,2|8,0:0|0:0,0:0:0:0:
272,216,44959,2,0,P|228:196|204:168,1,79.9999999999999,2|8,0:0|0:0,0:0:0:0:
200,84,45625,2,0,L|64:104,2,120,2|0|8,0:0|0:0|0:0,0:0:0:0:
288,72,46959,5,2,0:0:0:0:
360,124,47292,1,8,0:0:0:0:
432,172,47625,2,0,P|424:252|416:300,1,120,2|4,0:0|0:0,0:0:0:0:
296,348,48625,1,12,0:0:0:0:
216,312,48959,2,0,P|204:248|204:216,1,79.9999999999999,8|4,0:3|0:3,0:0:0:0:
280,188,49625,6,0,P|212:148|128:184,1,160,4|8,0:0|0:0,0:0:0:0:
28,308,50959,2,0,P|12:256|4:216,1,79.9999999999999,2|0,0:0|0:0,0:0:0:0:
4,144,51625,6,0,P|20:96|128:48,2,160,8|4|8,0:0|0:0|0:0,0:0:0:0:
84,184,53292,1,0,0:0:0:0:
164,220,53625,2,0,L|244:212,1,79.9999999999999,2|0,0:0|0:0,0:0:0:0:
332,200,54292,6,0,B|336:144|312:100|312:100|336:36,2,160,8|4|8,0:0|0:0|0:0,0:0:0:0:
300,280,55959,1,0,0:0:0:0:
212,272,56292,2,0,P|156:264|120:256,1,79.9999999999999,2|0,0:0|0:0,0:0:0:0:
128,172,56959,6,0,P|196:140|248:200,2,160,8|4|8,0:0|0:0|0:0,0:0:0:0:
52,220,58625,1,0,0:0:0:0:
44,132,58959,2,0,P|52:80|64:44,1,79.9999999999999,2|12,0:0|0:0,0:0:0:0:
144,28,59625,2,0,P|180:36|224:40,1,79.9999999999999,4|8,0:0|0:0,0:0:0:0:
312,48,60292,6,0,B|344:32|344:32|424:56,2,120,4|0|8,0:0|0:0|0:0,0:0:0:0:
264,124,61625,2,0,B|232:140|232:140|152:116,2,120,2|0|8,0:0|0:0|0:0,0:0:0:0:
352,128,62959,2,0,P|340:172|336:220,1,79.9999999999999,2|8,0:0|0:0,0:0:0:0:
408,260,63625,2,0,P|420:216|424:168,1,79.9999999999999,2|8,0:0|0:0,0:0:0:0:
352,128,64292,6,0,L|180:136,1,160,4|2,0:0|0:0,0:0:0:0:
104,140,65292,2,0,P|112:184|124:228,1,79.9999999999999,2|4,0:0|0:0,0:0:0:0:
256,328,66292,6,0,P|312:296|408:296,1,160,2|2,0:0|0:0,0:0:0:0:
492,272,67292,2,0,P|509:222|505:182,2,79.9999999999999,0|4|0,0:0|0:3|0:0,0:0:0:0:
425,214,68292,6,0,B|378:178|325:184|325:184|318:175|318:175|270:181|232:157|207:118|218:77,1,280,4|8,0:0|0:0,0:0:0:0:
61,350,70959,6,0,P|120:285|192:305,1,160,4|2,0:0|0:0,0:0:0:0:
252,352,71959,1,8,0:0:0:0:
264,264,72292,2,0,P|256:208|248:176,1,79.9999999999999,2|8,0:0|0:0,0:0:0:0:
208,108,72959,2,0,P|244:100|288:108,1,79.9999999999999,2|8,0:0|0:0,0:0:0:0:
336,180,73625,6,0,P|412:196|468:132,1,160,2|2,0:0|0:0,0:0:0:0:
444,56,74625,1,8,0:0:0:0:
356,68,74959,2,0,P|304:76|268:80,1,79.9999999999999,2|8,0:0|0:0,0:0:0:0:
192,92,75625,2,0,L|204:176,2,79.9999999999999,2|8|4,0:0|0:0|0:0,0:0:0:0:
116,52,76625,6,0,P|64:60|36:156,1,160,8|8,0:0|0:0,0:0:0:0:
80,228,77625,1,2,0:0:0:0:
168,228,77959,2,0,P|240:212|284:280,1,160,8|8,0:0|0:0,0:0:0:0:
304,360,78959,6,0,B|324:356|344:340|344:340|396:360|456:328,1,160,2|2,0:0|0:0,0:0:0:0:
468,240,79959,1,8,0:0:0:0:
436,160,80292,2,0,B|424:120|424:120|440:36,2,120,4|2|8,0:0|0:0|0:0,0:0:0:0:
468,240,81625,6,0,P|408:244|348:168,1,160,4|2,0:0|0:0,0:0:0:0:
352,84,82625,1,8,0:0:0:0:
276,124,82959,2,0,P|224:136|192:140,1,79.9999999999999,2|8,0:0|0:0,0:0:0:0:
124,92,83625,2,0,P|112:132|120:176,1,79.9999999999999,2|8,0:0|0:0,0:0:0:0:
140,256,84292,6,0,P|80:256|24:180,1,160,2|2,0:0|0:0,0:0:0:0:
36,92,85292,1,8,0:0:0:0:
124,92,85625,2,0,P|200:104|216:104,1,79.9999999999999,2|8,0:0|0:0,0:0:0:0:
288,88,86292,2,0,P|364:76|380:76,2,79.9999999999999,2|8|4,0:0|0:0|0:0,0:0:0:0:
264,172,87292,6,0,B|260:204|240:228|240:228|260:280|256:332,1,160,8|8,0:0|0:0,0:0:0:0:
180,368,88292,1,0,0:0:0:0:
92,357,88625,2,0,B|96:325|116:301|116:301|96:249|100:197,1,160,8|8,0:0|0:0,0:0:0:0:
100,116,89625,6,0,P|160:60|240:72,1,160,2|2,0:0|0:0,0:0:0:0:
300,124,90625,1,12,0:0:0:0:
284,212,90959,2,0,P|276:264|272:304,2,79.9999999999999,12|12|12,0:0|0:0|0:0,0:0:0:0:
368,184,91959,1,12,0:0:0:0:
300,124,92292,6,0,P|248:116|208:112,1,79.9999999999999,2|12,0:0|0:0,0:0:0:0:
132,124,92959,2,0,P|88:140|44:160,1,79.9999999999999,2|8,0:0|0:0,0:0:0:0:
44,240,93625,2,0,P|84:292|172:284,1,160,2|2,0:0|0:0,0:0:0:0:
208,204,94625,1,8,0:0:0:0:
180,120,94959,6,0,B|164:72|172:16|172:16|200:40|232:44,1,160,2|2,0:0|0:0,0:0:0:0:
308,60,95959,1,8,0:0:0:0:
396,52,96292,2,0,P|440:44|480:32,2,79.9999999999999,2|8|2,0:0|0:0|0:0,0:0:0:0:
308,60,97292,1,8,0:0:0:0:
356,136,97625,6,0,P|344:232|332:296,1,160,4|2,0:0|0:0,0:0:0:0:
268,356,98625,1,8,0:0:0:0:
184,324,98959,2,0,P|124:332|96:332,1,79.9999999999999,2|8,0:0|0:0,0:0:0:0:
60,256,99625,2,0,P|120:248|148:248,1,79.9999999999999,2|8,0:0|0:0,0:0:0:0:
228,244,100292,6,0,P|208:136|192:76,1,160,2|2,0:0|0:0,0:0:0:0:
120,44,101292,1,8,0:0:0:0:
52,100,101625,2,0,P|40:148|32:196,1,79.9999999999999,2|12,0:0|0:0,0:0:0:0:
36,268,102292,2,0,P|76:264|132:256,1,79.9999999999999,2|8,0:0|0:0,0:0:0:0:
364,260,105625,6,0,P|352:204|340:168,1,79.9999999999999,2|8,0:0|0:0,0:0:0:0:
260,168,106292,2,0,P|272:224|284:260,1,79.9999999999999,2|8,0:0|0:0,0:0:0:0:
308,328,106959,2,0,P|248:328|176:304,2,120,2|0|8,0:0|0:0|0:0,0:0:0:0:
364,260,108292,6,0,P|400:248|444:228,1,79.9999999999999,2|8,0:0|0:0,0:0:0:0:
408,148,108959,2,0,P|372:160|328:180,1,79.9999999999999,2|8,0:0|0:0,0:0:0:0:
276,240,109625,2,0,P|248:184|300:96,1,160,2|2,0:0|0:0,0:0:0:0:
440,192,110959,6,0,L|436:276,1,79.9999999999999,2|8,0:0|0:0,0:0:0:0:
380,340,111625,2,0,L|296:336,1,79.9999999999999,2|8,0:0|0:0,0:0:0:0:
212,332,112292,2,0,P|116:308|80:308,2,120,2|0|8,0:0|0:0|0:0,0:0:0:0:
96,80,116292,6,0,P|100:128|108:168,1,79.9999999999999,4|8,0:0|0:0,0:0:0:0:
124,244,116959,2,0,P|168:236|212:232,1,79.9999999999999,2|8,0:0|0:0,0:0:0:0:
292,232,117625,2,0,P|344:252|388:304,2,120,2|0|8,0:0|0:0|0:0,0:0:0:0:
248,156,118959,6,0,P|236:104|232:68,1,79.9999999999999,2|8,0:0|0:0,0:0:0:0:
300,20,119625,2,0,P|336:28|380:44,1,79.9999999999999,2|8,0:0|0:0,0:0:0:0:
412,124,120292,2,0,P|396:200|324:204,1,160,2|2,0:0|0:0,0:0:0:0:
164,132,121625,6,0,P|124:120|80:116,1,79.9999999999999,2|8,0:0|0:0,0:0:0:0:
36,188,122292,2,0,P|76:200|120:204,1,79.9999999999999,2|8,0:0|0:0,0:0:0:0:
200,212,122959,2,0,P|196:264|184:344,2,120,2|0|8,0:0|0:0|0:0,0:0:0:0:
200,124,124292,5,2,0:0:0:0:
280,164,124625,1,8,0:0:0:0:
280,76,124959,2,0,P|328:88|368:152,1,120,2|4,0:0|0:0,0:0:0:0:
308,264,125959,2,0,L|228:256,2,79.9999999999999,12|8|8,0:0|0:3|0:3,0:0:0:0:
396,276,126959,6,0,P|436:268|484:160,2,160,4|8|2,0:0|0:0|0:0,0:0:0:0:
403,188,128625,1,0,0:0:0:0:
320,220,128959,6,0,P|244:240|156:244,2,160,8|4|8,0:0|0:0|0:0,0:0:0:0:
336,132,130625,1,0,0:0:0:0:
336,44,130959,2,0,P|288:56|260:92,1,79.9999999999999,2|0,0:0|0:0,0:0:0:0:
252,164,131625,6,0,P|272:260|280:332,2,160,8|4|8,0:0|0:0|0:0,0:0:0:0:
184,108,133292,1,0,0:0:0:0:
100,128,133625,2,0,P|100:88|124:44,1,79.9999999999999,2|0,0:0|0:0,0:0:0:0:
200,24,134292,6,0,P|248:52|252:156,2,160,8|4|8,0:0|0:0|0:0,0:0:0:0:
184,108,135959,1,0,0:0:0:0:
174,195,136292,2,0,P|166:251|166:291,1,79.9999999999999,8|12,0:0|0:0,0:0:0:0:
212,348,136959,2,0,L|296:344,1,79.9999999999999,4|8,0:0|0:0,0:0:0:0:
380,336,137625,6,0,P|396:268|424:208,2,120,4|0|8,0:0|0:0|0:0,0:0:0:0:
308,288,138959,2,0,P|299:218|305:152,2,120,2|0|8,0:0|0:0|0:0,0:0:0:0:
244,348,140292,6,0,P|204:336|160:332,1,79.9999999999999,2|8,0:0|0:0,0:0:0:0:
84,360,140959,2,0,P|72:304|72:268,1,79.9999999999999,2|8,0:0|0:0,0:0:0:0:
68,192,141625,2,0,P|76:140|172:112,2,160,4|2|4,0:0|0:0|0:0,0:0:0:0:
224,276,143625,6,0,L|388:264,1,160,2|2,0:0|0:0,0:0:0:0:
452,209,144625,2,0,P|453:168|444:126,2,79.9999999999999,8|2|0,0:0|0:0|0:0,0:0:0:0:
370,175,145625,6,0,P|274:167|230:115,1,160,4|8,0:0|0:0,0:0:0:0:
102,104,146792,2,0,L|114:224,1,120,8|8,0:0|0:0,0:0:0:0:
152,304,147625,2,0,P|192:296|240:296,1,79.9999999999999,8|8,0:3|0:0,0:0:0:0:
320,308,148292,6,0,P|384:308|412:216,1,160,4|2,0:0|0:0,0:0:0:0:
384,148,149292,1,8,0:0:0:0:
296,160,149625,2,0,P|240:168|208:168,1,79.9999999999999,2|8,0:0|0:0,0:0:0:0:
172,92,150292,2,0,P|228:84|260:84,1,79.9999999999999,2|8,0:0|0:0,0:0:0:0:
296,160,150959,6,0,B|292:192|304:236|304:236|280:280|232:288,1,160,2|2,0:0|0:0,0:0:0:0:
156,304,151959,1,8,0:0:0:0:
76,268,152292,2,0,P|68:236|64:184,1,79.9999999999999,2|8,0:0|0:0,0:0:0:0:
136,140,152959,2,0,P|144:172|148:224,1,79.9999999999999,2|8,0:0|0:0,0:0:0:0:
156,304,153625,5,4,0:0:0:0:
245,291,153959,2,0,B|300:284|300:284|344:328|395:312,1,160,8|8,0:0|0:0,0:0:0:0:
371,227,154959,1,2,0:0:0:0:
396,142,155292,2,0,B|344:126|300:170|300:170|244:162,1,160,8|8,0:0|0:0,0:0:0:0:
160,148,156292,6,0,P|168:108|172:64,1,79.9999999999999,2|8,0:0|0:0,0:0:0:0:
84,88,156959,2,0,P|76:127|72:166,1,79.9999999999999,2|8,0:0|0:0,0:0:0:0:
128,232,157625,2,0,P|168:236|240:188,2,120,4|0|8,0:0|0:0|0:0,0:0:0:0:
40,252,158959,6,0,P|92:316|172:316,1,160,4|2,0:0|0:0,0:0:0:0:
248,296,159959,1,8,0:0:0:0:
232,208,160292,2,0,P|224:152|224:120,1,79.9999999999999,2|8,0:0|0:0,0:0:0:0:
276,56,160959,2,0,P|312:48|368:48,1,79.9999999999999,2|8,0:0|0:0,0:0:0:0:
436,76,161625,6,0,P|432:164|424:240,1,160,2|2,0:0|0:0,0:0:0:0:
400,320,162625,1,8,0:0:0:0:
316,300,162959,2,0,P|256:284|228:280,1,79.9999999999999,2|8,0:0|0:0,0:0:0:0:
152,268,163625,2,0,P|160:220|172:180,1,79.9999999999999,2|8,0:0|0:0,0:0:0:0:
196,104,164292,5,4,0:0:0:0:
284,116,164625,2,0,P|352:76|440:100,1,160,8|8,0:0|0:0,0:0:0:0:
468,168,165625,1,2,0:0:0:0:
456,256,165959,2,0,P|388:296|300:272,1,160,8|8,0:0|0:0,0:0:0:0:
268,204,166959,6,0,P|252:160|244:124,1,79.9999999999999,2|8,0:0|0:0,0:0:0:0:
224,40,167625,2,0,P|180:24|144:24,1,79.9999999999999,2|8,0:0|0:0,0:0:0:0:
60,44,168292,2,0,P|4:112|20:192,1,160,2|2,0:0|0:0,0:0:0:0:
84,232,169292,1,4,0:3:0:0:
168,208,169625,5,4,0:0:0:0:
184,296,180625,6,0,L|176:208,1,79.9999999999999,4|2,0:0|0:0,0:0:0:0:
168,128,181292,1,8,0:0:0:0:
248,164,181625,2,0,P|308:180|340:180,1,79.9999999999999,2|8,0:0|0:0,0:0:0:0:
412,176,182292,2,0,P|424:212|428:256,1,79.9999999999999,2|8,0:0|0:0,0:0:0:0:
388,332,182959,6,0,P|312:352|248:300,1,160,2|2,0:0|0:0,0:0:0:0:
232,220,183959,1,8,0:0:0:0:
315,244,184292,2,0,P|313:195|291:153,1,79.9999999999999,2|8,0:0|0:0,0:0:0:0:
220,136,184959,2,0,P|182:151|154:186,1,79.9999999999999,2|8,0:0|0:0,0:0:0:0:
156,268,185625,6,0,B|36:260,2,120,4|0|8,0:0|0:0|0:0,0:0:0:0:
228,320,186959,2,0,B|348:328,2,120,2|0|8,0:0|0:0|0:0,0:0:0:0:
236,232,188292,6,0,P|236:192|232:136,1,79.9999999999999,2|8,0:0|0:0,0:0:0:0:
148,124,188959,2,0,P|147:163|152:220,1,79.9999999999999,2|8,0:0|0:0,0:0:0:0:
156,292,189625,1,12,0:0:0:0:
240,320,189959,1,12,0:0:0:0:
320,288,190292,2,0,P|360:264|476:264,1,160,12|4,0:0|0:0,0:0:0:0:
480,88,191625,6,0,P|440:96|388:96,1,79.9999999999999,2|8,0:0|0:0,0:0:0:0:
312,88,192292,2,0,P|272:80|220:80,1,79.9999999999999,2|8,0:0|0:0,0:0:0:0:
144,72,192959,2,0,L|152:156,1,79.9999999999999,2|8,0:0|0:0,0:0:0:0:
164,240,193625,6,0,P|224:228|332:216,1,160,2|2,0:0|0:0,0:0:0:0:
368,292,194625,1,8,0:0:0:0:
308,356,194959,2,0,P|260:364|224:368,1,79.9999999999999,2|8,0:0|0:0,0:0:0:0:
152,324,195625,2,0,P|104:308|68:300,1,79.9999999999999,2|8,0:0|0:0,0:0:0:0:
0,256,196292,5,4,0:0:0:0:
78,215,196625,2,0,L|65:125,2,79.9999999999999,8|2|8,0:0|0:0|0:0,0:0:0:0:
154,259,197625,2,0,L|172:169,2,79.9999999999999,2|8|2,0:0|0:0|0:0,0:0:0:0:
231,301,198625,1,8,0:0:0:0:
308,340,198959,6,0,P|348:328|396:320,1,79.9999999999999,2|8,0:0|0:0,0:0:0:0:
472,334,199625,2,0,P|464:282|444:250,1,79.9999999999999,2|8,0:0|0:0,0:0:0:0:
368,232,200292,2,0,P|276:260|200:264,1,160,4|2,0:0|0:0,0:0:0:0:
124,252,201292,2,0,P|80:240|36:236,1,79.9999999999999,8|4,0:0|0:0,0:0:0:0:
68,76,206959,6,0,L|72:164,1,79.9999999999999,2|2,0:0|0:0,0:0:0:0:
160,152,207625,2,0,L|156:240,1,79.9999999999999,2|2,0:0|0:0,0:0:0:0:
156,320,208292,2,0,P|228:312|248:308,1,79.9999999999999,2|2,0:0|0:0,0:0:0:0:
272,232,208959,2,0,P|344:240|364:244,1,79.9999999999999,2|2,0:0|0:0,0:0:0:0:
440,256,209625,6,0,P|460:192|440:100,2,160,2|2|0,0:0|0:0|0:0,0:0:0:0:
100,344,212292,1,0,0:0:0:0:
88,256,212625,6,0,P|80:192|80:168,1,79.9999999999999,4|2,0:0|0:0,0:0:0:0:
84,88,213292,1,8,0:0:0:0:
172,104,213625,2,0,P|212:116|252:120,1,79.9999999999999,2|8,0:0|0:0,0:0:0:0:
340,120,214292,2,0,P|348:184|348:208,1,79.9999999999999,2|8,0:0|0:0,0:0:0:0:
344,288,214959,6,0,P|284:332|204:316,1,160,2|2,0:0|0:0,0:0:0:0:
152,248,215959,1,8,0:0:0:0:
156,160,216292,2,0,P|168:128|172:80,2,79.9999999999999,2|8|2,0:0|0:0|0:0,0:0:0:0:
76,200,217292,1,8,0:0:0:0:
152,248,217625,5,4,0:0:0:0:
240,244,217959,2,0,B|308:240|308:240|328:244|328:244|408:240,1,160,8|8,0:0|0:0,0:0:0:0:
480,204,218959,1,2,0:0:0:0:
408,152,219292,2,0,B|340:156|340:156|320:152|320:152|240:156,1,160,8|8,0:0|0:0,0:0:0:0:
160,160,220292,6,0,P|148:92|148:76,2,79.9999999999999,2|8|2,0:0|0:0|0:0,0:0:0:0:
208,232,221292,1,8,0:0:0:0:
292,212,221625,2,0,P|340:192|412:180,2,120,8|0|8,0:3|0:0|0:0,0:0:0:0:
208,232,222959,6,0,P|112:184|60:200,1,160,4|2,0:0|0:0,0:0:0:0:
12,268,223959,1,8,0:0:0:0:
48,348,224292,2,0,P|90:344|140:336,1,79.9999999999999,2|8,0:0|0:0,0:0:0:0:
212,320,224959,2,0,P|254:323|304:332,1,79.9999999999999,2|8,0:0|0:0,0:0:0:0:
380,340,225625,6,0,P|384:284|380:176,1,160,2|2,0:0|0:0,0:0:0:0:
368,92,226625,1,8,0:0:0:0:
300,148,226959,2,0,P|256:156|208:160,1,79.9999999999999,2|8,0:0|0:0,0:0:0:0:
132,164,227625,2,0,P|136:212|144:256,1,79.9999999999999,2|8,0:0|0:0,0:0:0:0:
184,320,228292,6,0,B|256:324|268:304|344:308,2,160,4|2|2,0:0|0:0|0:0,0:0:0:0:
96,324,229959,1,8,0:0:0:0:
88,236,230292,2,0,P|84:192|84:152,1,79.9999999999999,2|8,0:0|0:0,0:0:0:0:
100,68,230959,6,0,P|164:24|244:140,1,240,2|8,0:0|0:0,0:0:0:0:
236,216,232292,2,0,P|224:264|224:304,1,79.9999999999999,4|8,0:0|0:0,0:0:0:0:
296,344,232959,2,0,P|308:296|308:256,1,79.9999999999999,2|8,0:0|0:0,0:0:0:0:
316,176,233625,6,0,P|300:120|300:16,1,160,4|2,0:0|0:0,0:0:0:0:
384,40,234625,1,8,0:0:0:0:
468,64,234959,2,0,P|460:112|448:152,1,79.9999999999999,2|8,0:0|0:0,0:0:0:0:
412,220,235625,2,0,P|368:248|324:256,1,79.9999999999999,2|8,0:0|0:0,0:0:0:0:
256,240,236292,6,0,P|192:192|100:196,1,160,2|2,0:0|0:0,0:0:0:0:
28,212,237292,1,8,0:0:0:0:
48,128,237625,2,0,P|56:84|68:44,1,79.9999999999999,2|8,0:0|0:0,0:0:0:0:
156,48,238292,2,0,P|192:60|236:64,1,79.9999999999999,2|8,0:0|0:0,0:0:0:0:
320,48,238959,6,0,P|368:76|380:184,2,160,4|2|2,0:0|0:0|0:0,0:0:0:0:
304,136,240625,1,8,0:0:0:0:
216,128,240959,2,0,L|128:116,1,79.9999999999999,2|8,0:0|0:0,0:0:0:0:
52,96,241625,6,0,B|68:168|32:232|32:232|68:276|72:332,1,240,2|12,0:0|0:0,0:0:0:0:
156,340,242959,2,0,L|244:352,1,79.9999999999999,8|8,0:0|0:0,0:0:0:0:
240,264,243625,2,0,L|328:276,1,79.9999999999999,8|8,0:0|0:0,0:0:0:0:
408,284,244292,5,0,0:0:0:0:
376,204,244625,1,12,0:0:0:0:
464,216,244959,2,0,P|456:168|434:137,1,79.9999999999999,2|8,0:0|0:0,0:0:0:0:
354,119,245625,2,0,P|306:152|306:255,1,160,2|2,0:0|0:0,0:0:0:0:
373,297,246625,1,8,0:0:0:0:
292,332,246959,6,0,L|200:324,1,79.9999999999999,2|8,0:0|0:0,0:0:0:0:
124,320,247625,2,0,P|130:280|136:236,1,79.9999999999999,2|8,0:0|0:0,0:0:0:0:
132,152,248292,2,0,P|168:108|268:120,1,160,2|2,0:0|0:0,0:0:0:0:
316,184,249292,1,8,0:0:0:0:
312,272,249625,6,0,P|304:308|304:352,1,79.9999999999999,4|8,0:0|0:0,0:0:0:0:
388,320,250292,2,0,P|396:284|396:240,1,79.9999999999999,2|8,0:0|0:0,0:0:0:0:
396,152,250959,2,0,P|352:104|256:120,1,160,2|2,0:0|0:0,0:0:0:0:
204,176,251959,1,8,0:0:0:0:
172,256,252292,6,0,P|132:224|120:196,1,79.9999999999999,2|8,0:0|0:0,0:0:0:0:
140,112,252959,2,0,P|156:60|156:32,1,79.9999999999999,2|8,0:0|0:0,0:0:0:0:
68,24,253625,2,0,P|17:74|48:157,1,160,4|2,0:0|0:0,0:0:0:0:
115,199,254625,1,8,0:0:0:0:
296,196,255292,6,0,P|334:191|376:192,1,79.9999999999999,8|2,0:0|0:0,0:0:0:0:
451,236,255959,1,8,0:0:0:0:
376,280,256292,2,0,B|336:273|297:289|297:289|256:286|222:269|201:238|189:197|204:153|236:127,1,300,2|0,0:0|3:0,0:0:0:0:
