osu file format v14

[General]
AudioFilename: aoi iro step.mp3
AudioLeadIn: 0
PreviewTime: 40949
Countdown: 0
SampleSet: Soft
StackLeniency: 0.3
Mode: 0
LetterboxInBreaks: 0
WidescreenStoryboard: 0

[Editor]
Bookmarks: 29028,107344
DistanceSpacing: 0.9
BeatDivisor: 2
GridSize: 4
TimelineZoom: 1.3

[Metadata]
Title:AOI-IRO STEP
TitleUnicode:葵色ステップ
Artist:yuikonnu
ArtistUnicode:ゆいこんぬ
Creator:Momochikun
Version:Normal
Source:
Tags:Hatsune Miku Aoiiro ゆいこんぬ Silve ねじまきと置き手紙 Nejimaki to Okitegami 魔法のための少女クラブ Mahou no tame no Shoujo Club 初音ミク めいこ meiko ヘンズル プリムヴィ-ラ Hensel Primavera vocaloid
BeatmapID:656135
BeatmapSetID:291386

[Difficulty]
HPDrainRate:4
CircleSize:3.2
OverallDifficulty:3.5
ApproachRate:5
SliderMultiplier:1.1
SliderTickRate:1

[Events]
//Background and Video events
0,0,"BG.jpg",0,0
//Break Periods
2,69649,75828
2,132806,141512
2,154081,159828
//Storyboard Layer 0 (Background)
//Storyboard Layer 1 (Fail)
//Storyboard Layer 2 (Pass)
//Storyboard Layer 3 (Foreground)
//Storyboard Sound Samples

[TimingPoints]
1239,315.789473684211,4,2,1,85,1,0
11344,-100,4,2,1,65,0,0
21449,-100,4,2,1,85,0,0
30133,-100,4,2,1,85,0,0
31554,-100,4,2,1,85,0,0
39133,-100,4,2,1,85,0,0
41660,-100,4,2,1,95,0,1
50186,-100,4,2,1,95,0,1
51133,-100,4,2,1,80,0,0
51765,-100,4,2,1,95,0,1
61870,-100,4,2,1,95,0,1
65502,-100,4,2,1,95,0,1
66923,-100,4,2,1,95,0,1
69449,-100,4,2,1,60,0,0
74502,-100,4,2,1,80,0,0
74975,-100,4,2,1,85,0,0
76396,-100,4,2,1,80,0,0
77028,-100,4,2,1,85,0,0
77344,-100,4,2,1,70,0,0
86660,-100,4,2,1,80,0,0
87133,-100,4,2,1,85,0,0
95817,-100,4,2,1,90,0,0
97239,-100,4,2,1,80,0,0
104817,-100,4,2,1,85,0,0
107344,-100,4,2,1,95,0,1
115870,-100,4,2,1,85,0,1
116817,-100,4,2,1,90,0,0
117449,-100,4,2,1,95,0,1
127554,-100,4,2,1,95,0,1
131502,-100,4,2,1,75,0,1
132054,-100,4,2,1,80,0,1
132291,-100,4,2,1,85,0,1
132607,-100,4,2,1,90,0,0
142712,-100,4,2,1,75,0,0
151475,-100,4,2,1,20,0,0
153449,-100,4,2,1,30,0,0
161028,-100,4,2,1,50,0,0
161660,-100,4,2,1,85,0,1
162607,-100,4,2,1,75,0,1
163554,-100,4,2,1,80,0,0
163870,-100,4,2,1,85,0,0
164186,-100,4,2,1,95,0,1
168291,-100,4,2,1,80,0,1
169239,-100,4,2,1,95,0,1
172239,-100,4,2,1,95,0,1
174291,-100,4,2,1,95,0,1
176817,-100,4,2,1,95,0,1
177923,-100,4,2,1,80,0,1
178712,-100,4,2,1,85,0,1
179344,-100,4,2,1,95,0,1
181870,-100,4,2,1,80,0,0

[Colours]
Combo1 : 192,192,192
Combo2 : 89,172,255
Combo3 : 255,128,255
Combo4 : 198,140,255
Combo5 : 113,113,185

[HitObjects]
79,308,1239,6,0,P|152:298|197:292,1,110,4|8,0:0|0:0,0:0:0:0:
216,198,1870,2,0,P|159:205|102:213,1,110,0|8,0:0|0:0,0:0:0:0:
57,208,2344,2,0,P|40:158|40:84,1,110,4|0,0:0|0:0,0:0:0:0:
70,64,2817,1,8,0:0:0:0:
168,55,3133,2,0,P|224:62|281:70,1,110,2|8,0:0|0:0,0:0:0:0:
375,85,3765,5,4,0:0:0:0:
353,181,4081,1,8,0:0:0:0:
349,279,4396,2,0,L|405:295,2,55,0|2|8,0:0|0:0|0:0,0:0:0:0:
299,286,4870,2,0,B|248:313|248:313|202:282|118:292,1,165,4|8,0:0|0:0,0:0:0:0:
48,264,5660,2,0,P|31:207|38:147,1,110,2|8,0:0|0:0,0:0:0:0:
114,98,6291,6,0,P|131:155|124:215,1,110,4|8,0:0|0:0,0:0:0:0:
175,213,6765,2,0,L|296:199,1,110,10|2,0:0|0:0,0:0:0:0:
321,233,7239,2,0,L|380:242,1,55,8|4,0:0|0:0,0:0:0:0:
436,163,7712,2,0,L|379:154,2,55,0|8|2,0:0|0:0|0:0,0:0:0:0:
501,237,8344,2,0,L|490:290,1,55,2|8,0:0|0:0,0:0:0:0:
412,356,8817,6,0,P|345:355|249:297,1,165,4|4,0:0|0:0,0:0:0:0:
192,236,9607,1,8,0:0:0:0:
235,147,9923,2,0,P|302:148|398:206,1,165,4|12,0:0|0:0,0:0:0:0:
482,219,10712,2,0,P|484:160|459:97,1,110,8|4,0:0|1:3,0:0:0:0:
401,38,11344,21,4,0:0:0:0:
304,59,11660,1,2,0:0:0:0:
304,59,11817,2,0,P|232:52|159:43,2,110,0|0|2,0:0|0:0|0:0,0:0:0:0:
360,140,12765,1,0,0:0:0:0:
274,189,13081,2,0,P|260:245|250:309,1,110,0|2,0:0|0:3,0:0:0:0:
153,317,13712,6,0,P|137:268|135:248,1,55,0|2,0:0|0:0,0:0:0:0:
113,171,14186,2,0,L|46:156,1,55,2|2,0:3|0:0,0:0:0:0:
88,64,14660,1,0,0:0:0:0:
180,98,14975,2,0,L|299:82,1,110,2|0,0:0|0:0,0:0:0:0:
386,64,15607,1,2,0:3:0:0:
445,143,15923,2,0,P|465:185|470:220,2,55,0|2|0,0:0|0:3|0:0,0:0:0:0:
398,158,16396,6,0,P|353:180|283:177,1,110,2|2,0:0|0:3,0:0:0:0:
247,162,16870,2,0,L|258:277,1,110,2|0,0:0|0:0,0:0:0:0:
161,297,17502,2,0,L|150:182,1,110,2|0,0:0|0:0,0:0:0:0:
91,108,18133,1,0,0:0:0:0:
178,60,18449,1,0,0:0:0:0:
267,101,18765,5,0,0:0:0:0:
267,101,18923,2,0,B|328:109|374:73|374:73|413:82|429:117,1,165,2|2,0:0|0:3,0:0:0:0:
409,201,19712,1,2,0:3:0:0:
339,271,20028,2,0,P|267:270|214:241,1,110,2|0,0:0|0:0,0:0:0:0:
188,166,20660,2,0,P|133:163|82:181,1,110,0|8,0:0|0:0,0:0:0:0:
69,229,21133,2,0,L|80:290,2,55,8|8|4,0:0|0:0|0:0,0:0:0:0:
3,154,21765,22,0,P|-2:98|9:34,1,110,8|0,0:0|0:0,0:0:0:0:
103,58,22396,2,0,L|167:48,1,55,8|2,0:0|0:0,0:0:0:0:
239,102,22870,2,0,L|293:93,1,55,0|8,0:0|0:0,0:0:0:0:
391,79,23344,1,0,0:0:0:0:
453,155,23660,2,0,P|478:211|477:272,1,110,8|2,0:0|0:0,0:0:0:0:
404,324,24291,5,8,0:0:0:0:
305,313,24607,2,0,P|280:257|281:196,1,110,0|8,0:0|0:0,0:0:0:0:
304,166,25081,2,0,B|236:175|236:175|209:160|209:160|139:170,1,165,2|8,0:0|0:0,0:0:0:0:
57,120,25870,1,0,0:0:0:0:
27,214,26186,2,0,L|49:338,1,110,8|4,0:0|0:0,0:0:0:0:
138,359,26817,5,8,0:0:0:0:
228,322,27133,2,0,P|282:304|398:303,1,165,0|2,0:0|0:0,0:0:0:0:
494,195,28081,1,8,0:0:0:0:
409,144,28396,2,0,P|351:144|293:125,1,110,0|8,0:0|0:0,0:0:0:0:
289,30,29028,2,0,P|347:30|405:49,2,110,2|8|0,0:0|0:0|0:0,0:0:0:0:
189,39,29975,5,8,0:0:0:0:
189,39,30133,2,0,B|162:160|162:160|181:181|186:218,1,165,4|4,0:0|0:3,0:0:0:0:
146,288,30923,2,0,P|138:315|139:351,1,55,0|8,1:3|0:3,0:0:0:0:
182,362,31239,2,0,P|207:365|245:369,1,55,0|0,3:3|3:3,0:0:0:0:
284,357,31554,6,0,P|346:340|401:297,1,110,4|0,0:0|0:0,0:0:0:0:
449,231,32186,2,0,P|387:214|332:171,1,110,8|4,0:0|0:3,0:0:0:0:
337,140,32660,1,4,1:3:0:0:
243,172,32975,2,0,P|246:105|191:28,1,165,8|8,0:0|0:0,0:0:0:0:
93,49,33765,1,8,0:0:0:0:
24,120,34081,54,0,P|45:212|48:242,1,110,8|0,0:0|0:0,0:0:0:0:
117,297,34712,2,0,B|172:284|172:284|284:302,2,165,8|8|8,0:0|0:0|0:0,0:0:0:0:
26,336,35975,1,8,0:0:0:0:
17,237,36291,1,8,0:0:0:0:
9,138,36607,6,0,P|70:127|131:121,1,110,4|0,0:0|0:0,0:0:0:0:
195,183,37239,2,0,P|155:139|167:35,2,165,8|8|0,0:0|0:0|0:3,0:0:0:0:
285,223,38502,1,8,0:0:0:0:
336,139,38817,1,4,0:0:0:0:
402,212,39133,6,0,L|393:332,1,110,4|8,0:0|0:0,0:0:0:0:
356,355,39607,2,0,P|302:360|236:322,1,110,2|0,0:0|0:0,0:0:0:0:
210,309,40081,2,0,L|136:323,1,55,8|8,0:0|0:0,0:0:0:0:
101,236,40554,2,0,L|155:225,1,55,8|8,0:0|0:0,0:0:0:0:
241,176,41028,6,0,P|225:132|227:65,1,110,2|2,0:0|0:0,0:0:0:0:
320,37,41660,2,0,P|336:81|334:148,1,110,4|8,0:0|0:0,0:0:0:0:
310,186,42133,2,0,B|388:206|381:164|477:195,1,165
454,240,42765,2,0,B|418:287|409:355|409:355|382:348|364:316,1,165,2|8,0:0|0:0,0:0:0:0:
280,308,43554,1,2,0:0:0:0:
183,330,43870,1,8,0:0:0:0:
215,236,44186,6,0,P|227:177|225:121,1,110,4|8,0:0|0:0,0:0:0:0:
182,102,44660,2,0,P|61:124|28:131,1,110,0|2,0:0|0:0,0:0:0:0:
11,40,45291,2,0,P|65:29|177:10,1,165,2|12,0:0|0:0,0:0:0:0:
271,26,46081,2,0,P|304:74|306:124,1,110,2|10,0:0|0:0,0:0:0:0:
386,181,46712,6,0,P|434:148|484:146,1,110,4|8,0:0|0:0,0:0:0:0:
503,192,47186,2,0,B|483:307|483:307|488:360,1,165,0|8,0:0|0:0,0:0:0:0:
438,364,47817,2,0,B|353:373|370:339|276:351,1,165,2|8,0:0|0:0,0:0:0:0:
178,328,48607,1,2,0:0:0:0:
236,248,48923,1,8,0:0:0:0:
137,241,49239,38,0,P|113:192|111:138,1,110,4|8,0:0|0:0,0:0:0:0:
73,105,49712,2,0,P|140:105|228:52,1,165,4|12,0:0|0:0,0:0:0:0:
420,37,50817,1,12,0:0:0:0:
470,122,51133,6,0,P|461:179|436:241,1,110,8|8,0:0|0:0,0:0:0:0:
358,280,51765,2,0,P|301:269|234:263,1,110,4|8,0:0|0:0,0:0:0:0:
206,289,52239,2,0,P|211:233|197:181,1,110,2|2,0:0|0:0,0:0:0:0:
159,148,52712,1,8,0:0:0:0:
159,148,52870,2,0,B|98:145|63:177|63:177|34:150|37:120,1,165,2|8,0:0|0:0,0:0:0:0:
90,39,53660,2,0,L|220:52,1,110,2|8,0:0|0:0,0:0:0:0:
276,112,54291,6,0,L|385:101,1,110,4|8,0:0|0:0,0:0:0:0:
435,98,54765,2,0,P|416:174|415:227,1,110,2|2,0:0|0:0,0:0:0:0:
457,294,55396,2,0,P|391:302|322:228,1,165,2|12,0:0|0:0,0:0:0:0:
232,207,56186,1,2,0:0:0:0:
179,291,56502,22,0,P|60:276|37:273,2,110,10|4|0,0:0|0:0|0:0,0:0:0:0:
207,331,57291,2,0,P|261:337|316:344,1,110,0|2,0:0|0:0,0:0:0:0:
393,282,57923,2,0,B|380:217|416:179|416:179|398:125,1,165,2|8,0:0|0:0,0:0:0:0:
331,53,58712,1,2,0:0:0:0:
233,72,59028,1,8,0:0:0:0:
136,92,59344,6,0,P|114:149|109:198,1,110,4|8,0:0|0:0,0:0:0:0:
134,239,59817,1,4,0:0:0:0:
210,302,60133,2,0,L|277:293,2,55,8|8|4,0:0|0:0|0:0,0:0:0:0:
116,335,60765,1,8,0:0:0:0:
116,335,60923,2,0,P|65:304|44:252,1,110,8|8,0:0|0:0,0:0:0:0:
82,164,61554,1,8,0:0:0:0:
162,105,61870,6,0,L|282:122,1,110,4|0,0:0|3:0,0:0:0:0:
353,176,62502,1,8,0:0:0:0:
449,142,62817,1,4,0:3:0:0:
449,142,62975,2,0,P|474:196|478:253,1,110,8|8,0:0|0:0,0:0:0:0:
434,334,63607,2,0,L|378:323,1,55,4|8,0:3|0:0,0:0:0:0:
284,349,64081,1,0,3:0:0:0:
301,254,64396,54,0,L|188:234,1,110,4|4,0:0|0:3,0:0:0:0:
145,218,64870,2,0,P|129:164|140:108,1,110,4|8,0:3|0:0,0:0:0:0:
215,49,65502,2,0,L|328:69,2,110,4|12|4,0:0|0:0|0:3,0:0:0:0:
118,27,66449,2,0,L|59:36,2,55,8|8|8,0:0|0:0|0:0,0:0:0:0:
256,192,66923,12,4,69449,0:0:0:0:
314,74,77028,22,0,P|338:127|340:196,1,110,4|2,0:0|3:2,0:0:0:0:
266,242,77660,2,0,P|213:218|144:216,2,110,0|0|0,3:0|3:0|3:0,0:0:0:0:
317,326,78607,1,0,3:0:0:0:
224,362,78923,2,0,P|169:356|119:333,1,110,0|8,3:0|0:2,0:0:0:0:
48,265,79554,6,0,L|30:137,2,110,2|0|0,3:2|3:0|3:0,0:0:0:0:
135,217,80502,2,0,L|117:89,1,110,0|0,3:0|3:0,0:0:0:0:
202,53,81133,1,0,3:0:0:0:
260,132,81449,2,0,B|295:144|295:144|393:127,1,110,0|8,3:0|0:0,0:0:0:0:
384,229,82081,6,0,B|349:217|349:217|251:234,2,110,2|0|2,3:2|3:2|3:3,0:0:0:0:
459,292,83028,1,0,3:0:0:0:
493,198,83344,2,0,P|496:142|478:88,1,110,0|0,3:0|3:0,0:0:0:0:
393,41,83975,1,0,3:0:0:0:
297,66,84291,2,0,P|252:60|173:49,1,110,8|2,0:0|3:2,0:0:0:0:
99,96,84923,5,0,3:0:0:0:
134,188,85239,2,0,P|178:193|258:205,1,110,0|0,3:0|3:0,0:0:0:0:
272,242,85712,1,8,0:0:0:0:
506,59,86660,2,0,L|495:2,2,55,12|8|8,0:0|0:0|0:0,0:0:0:0:
493,106,87133,22,0,L|476:235,1,110,4|8,0:0|0:0,0:0:0:0:
417,293,87765,2,0,P|362:294|311:267,1,110,0|8,0:0|0:0,0:0:0:0:
264,265,88239,2,0,B|199:278|199:278|171:266|145:264|83:284,1,165,2|8,0:0|0:0,0:0:0:0:
16,228,89028,1,0,0:0:0:0:
77,150,89344,1,8,0:0:0:0:
155,93,89660,6,0,P|220:103|270:104,1,110,2|8,0:0|0:0,0:0:0:0:
285,59,90133,2,0,P|307:174|317:229,1,165,2|8,0:0|0:0,0:0:0:0:
325,270,90765,1,2,0:0:0:0:
422,285,91081,1,0,0:0:0:0:
422,285,91239,2,0,P|449:243|443:179,1,110,8|0,0:0|0:0,0:0:0:0:
414,90,91870,1,8,0:0:0:0:
318,67,92186,6,0,P|298:109|299:175,1,110,4|8,0:0|0:0,0:0:0:0:
293,270,92817,2,0,L|181:253,1,110,0|8,0:0|0:0,0:0:0:0:
134,257,93291,2,0,B|85:267|61:287|61:287|14:261|27:202,1,165,2|8,0:0|0:0,0:0:0:0:
82,135,94081,1,0,0:0:0:0:
30,50,94396,1,8,0:0:0:0:
128,60,94712,6,0,P|214:61|252:69,1,110,2|8,0:0|0:0,0:0:0:0:
314,128,95344,2,0,P|400:127|438:119,1,110,0|8,0:0|0:0,0:0:0:0:
458,88,95817,2,0,B|425:195|425:195|450:216|450:245,1,165,4|4,0:0|0:3,0:0:0:0:
401,326,96607,2,0,L|343:315,1,55,8|8,0:0|0:0,0:0:0:0:
310,349,96923,2,0,L|252:338,1,55,8|4,0:0|1:3,0:0:0:0:
207,325,97239,6,0,P|152:316|82:327,1,110,4|0,0:0|0:0,0:0:0:0:
26,253,97870,2,0,P|48:197|31:83,1,165,8|4,0:0|1:3,0:0:0:0:
121,42,98660,2,0,P|177:64|291:47,1,165,8|8,0:0|0:0,0:0:0:0:
377,36,99449,1,8,0:0:0:0:
455,96,99765,54,0,P|471:157|484:211,1,110,0|4,1:0|0:3,0:0:0:0:
409,270,100396,2,0,P|395:216|381:163,1,110,8|4,0:0|0:3,0:0:0:0:
334,148,100870,2,0,P|272:148|224:163,1,110,8|8,0:0|0:0,0:0:0:0:
152,95,101502,2,0,P|112:142|92:188,1,110,2|4,0:0|0:3,0:0:0:0:
76,232,101975,2,0,L|22:223,2,55,4|8|4,1:3|0:0|0:0,0:0:0:0:
158,287,102607,5,0,0:0:0:0:
219,209,102923,2,0,L|336:224,1,110,0|4,1:0|0:3,0:0:0:0:
365,254,103396,2,0,P|354:206|393:111,1,110,4|8,0:3|0:0,0:0:0:0:
423,66,104028,2,0,L|357:49,1,55,4|8,0:3|0:0,0:0:0:0:
272,29,104502,1,4,0:0:0:0:
177,58,104817,6,0,P|139:97|122:149,1,110,4|8,0:0|0:0,0:0:0:0:
146,192,105291,2,0,B|22:174|22:174|35:224,1,165,2|8,0:0|0:0,0:0:0:0:
45,260,105923,1,8,0:0:0:0:
130,309,106239,2,0,L|188:298,1,55,8|8,0:0|0:0,0:0:0:0:
276,334,106712,6,0,P|293:285|288:222,1,110,2|2,0:0|0:0,0:0:0:0:
204,177,107344,2,0,P|187:128|192:65,1,110,4|8,0:0|0:0,0:0:0:0:
286,46,107975,2,0,L|451:22,2,165,0|2|8,0:0|0:0|0:0,0:0:0:0:
190,70,109239,2,0,P|125:73|72:63,1,110,2|8,0:0|0:0,0:0:0:0:
21,144,109870,6,0,P|12:198|15:253,1,110,4|8,0:0|0:0,0:0:0:0:
42,295,110344,2,0,P|90:278|173:273,1,110,10|2,0:0|0:0,0:0:0:0:
244,295,110975,2,0,P|303:329|407:316,1,165,2|12,0:0|0:0,0:0:0:0:
467,250,111765,2,0,L|457:139,1,110,2|10,0:0|0:0,0:0:0:0:
364,176,112396,6,0,L|373:66,1,110,4|8,0:0|0:0,0:0:0:0:
332,36,112870,2,0,P|282:16|214:26,1,110,0|2,0:0|0:0,0:0:0:0:
143,74,113502,2,0,P|93:94|25:84,1,110,2|0,0:0|0:0,0:0:0:0:
29,137,113975,2,0,L|38:247,1,110,8|2,0:0|0:0,0:0:0:0:
106,318,114607,1,8,0:0:0:0:
201,343,114923,38,0,P|289:341|359:295,2,165,4|4|12,0:0|0:0|0:0,0:0:0:0:
146,204,116344,2,0,L|157:140,1,55,2|12,0:0|0:0,0:0:0:0:
224,79,116817,6,0,P|176:56|115:63,2,110,8|8|4,0:0|0:0|0:0,0:0:0:0:
304,136,117765,1,8,0:0:0:0:
304,136,117923,2,0,L|456:117,1,110,2|2,0:0|0:0,0:0:0:0:
493,63,118554,2,0,P|451:119|445:215,1,165,2|8,0:0|0:0,0:0:0:0:
489,299,119344,1,2,0:0:0:0:
390,311,119660,1,8,0:0:0:0:
316,244,119975,6,0,P|264:243|204:263,1,110,4|8,0:0|0:0,0:0:0:0:
180,300,120449,2,0,P|172:240|136:195,2,110,2|2|2,0:0|0:0|0:0,0:0:0:0:
86,332,121396,1,0,0:0:0:0:
86,332,121554,2,0,P|55:287|49:232,1,110,12|2,0:0|0:0,0:0:0:0:
76,137,122186,1,10,0:0:0:0:
165,95,122502,22,0,B|230:103|275:71|275:71|310:80|328:110,1,165,4|0,0:0|0:0,0:0:0:0:
395,157,123291,1,2,0:0:0:0:
486,115,123607,2,0,B|463:240|463:240|473:286,1,165,2|8,0:0|0:0,0:0:0:0:
500,371,124396,1,2,0:0:0:0:
402,353,124712,1,8,0:0:0:0:
304,336,125028,6,0,P|207:343|178:344,1,110,4|8,0:0|0:0,0:0:0:0:
149,320,125502,2,0,P|126:271|135:199,1,110,4|8,0:0|0:0,0:0:0:0:
143,169,125975,2,0,L|85:161,1,55,8|4,0:0|0:0,0:0:0:0:
135,73,126449,2,0,L|193:65,1,55,0|8,3:3|0:0,0:0:0:0:
287,49,126923,2,0,P|313:101|306:156,1,110,8|8,0:0|0:0,0:0:0:0:
268,181,127396,2,0,L|249:233,1,55,0|4,1:0|0:0,0:0:0:0:
228,329,127870,37,4,0:3:0:0:
321,289,128186,2,0,B|443:266|443:266|487:275,1,165,8|8,0:0|0:0,0:0:0:0:
498,176,128975,2,0,L|318:141,1,165,8|8,0:0|0:0,0:0:0:0:
275,65,129765,1,8,0:0:0:0:
187,111,130081,54,0,P|166:166|168:219,1,110,4|4,0:0|0:3,0:0:0:0:
176,265,130554,2,0,L|186:319,2,55,4|8|8,0:3|0:0|0:0,0:0:0:0:
79,240,131186,1,4,0:0:0:0:
13,165,131502,2,0,L|30:45,1,110,12|4,0:0|0:3,0:0:0:0:
74,37,131975,2,0,P|132:49|196:56,1,110,12|8,0:0|0:0,0:0:0:0:
228,72,132449,2,0,L|283:61,1,55,8|12,0:0|0:0,0:0:0:0:
439,328,142712,6,0,P|384:327|326:304,1,110,4|2,0:0|3:2,0:0:0:0:
266,234,143344,2,0,P|214:215|159:214,1,110,8|0,0:0|3:0,0:0:0:0:
114,234,143817,2,0,B|88:138|88:138|121:117|136:91,1,165,2|0,0:0|3:0,0:0:0:0:
217,37,144607,1,8,0:0:0:0:
300,90,144923,54,0,P|351:108|406:109,1,110,0|2,3:0|3:2,0:0:0:0:
491,59,145554,1,0,3:0:0:0:
491,159,145870,2,0,L|502:272,1,110,8|0,0:0|3:0,0:0:0:0:
510,317,146344,2,0,P|445:287|342:297,1,165,2|0,0:0|3:0,0:0:0:0:
263,333,147133,1,8,0:0:0:0:
207,251,147449,1,0,0:0:0:0:
293,203,147765,6,0,P|314:148|313:90,1,110,4|0,0:0|3:0,0:0:0:0:
244,26,148396,2,0,L|130:41,1,110,8|0,0:0|3:0,0:0:0:0:
85,49,148870,2,0,P|53:120|64:216,1,165,2|0,0:0|3:0,0:0:0:0:
95,297,149660,1,8,0:0:0:0:
185,336,149975,54,0,L|311:318,2,110,2|2|0,3:2|3:0|3:0,0:0:0:0:
95,297,150923,2,0,L|101:237,2,55,8|8|0,0:0|0:3|3:0,0:0:0:0:
256,192,151396,12,0,153449,0:0:0:0:
388,117,161028,21,2,0:0:0:0:
367,213,161344,1,2,0:0:0:0:
347,310,161660,2,0,P|289:302|223:281,1,110,4|8,0:0|0:0,0:0:0:0:
227,239,162133,2,0,P|175:255|110:255,1,110,4|0,0:0|0:3,0:0:0:0:
73,275,162607,2,0,P|86:206|30:135,1,165,4|0,0:0|3:0,0:0:0:0:
4,92,163239,1,12,0:0:0:0:
87,39,163554,6,0,P|155:47|201:57,1,110,10|12,0:0|0:0,0:0:0:0:
273,117,164186,2,0,P|327:111|381:100,1,110,4|8,0:0|0:0,0:0:0:0:
423,73,164660,2,0,B|397:195|397:195|409:221|409:254,1,165,2|8,0:0|0:0,0:0:0:0:
434,275,165291,1,2,0:0:0:0:
346,321,165607,2,0,L|283:310,1,55,0|8,0:0|0:0,0:0:0:0:
201,353,166081,2,0,L|91:333,1,110,2|8,0:0|0:0,0:0:0:0:
18,268,166712,6,0,P|19:216|50:160,1,110,4|8,0:0|0:0,0:0:0:0:
87,139,167186,2,0,L|195:158,1,110,2|2,0:0|0:0,0:0:0:0:
239,181,167660,2,0,L|299:175,1,55,8|2,0:0|0:0,0:0:0:0:
266,80,168133,2,0,L|320:74,1,55,0|12,0:0|0:0,0:0:0:0:
416,100,168607,5,2,0:0:0:0:
475,179,168923,2,0,P|457:242|448:291,2,110,12|4|8,0:0|0:0|0:0,0:0:0:0:
501,136,169712,2,0,P|495:83|472:25,1,110,0|2,0:0|0:0,0:0:0:0:
427,13,170186,1,8,0:0:0:0:
427,13,170344,2,0,L|230:36,1,165,2|8,0:0|0:0,0:0:0:0:
177,82,171133,1,2,0:0:0:0:
82,52,171449,1,8,0:0:0:0:
112,146,171765,22,0,P|133:202|139:262,1,110,4|8,0:0|0:0,0:0:0:0:
108,291,172239,1,4,0:0:0:0:
204,311,172554,2,0,L|263:322,2,55,0|8|4,3:0|0:0|0:0,0:0:0:0:
269,236,173186,2,0,L|328:247,1,55,8|8,0:0|0:0,0:0:0:0:
420,264,173660,2,0,P|440:218|434:156,1,110,8|4,0:0|1:3,0:0:0:0:
365,88,174291,54,0,L|212:102,1,110,4|4,0:0|0:3,0:0:0:0:
171,151,174923,2,0,L|0:133,1,165,8|8,0:0|0:0,0:0:0:0:
21,231,175712,2,0,L|185:248,1,165,8|8,0:0|0:0,0:0:0:0:
278,282,176502,2,0,P|299:233|291:171,1,110,0|4,1:3|0:0,0:0:0:0:
272,80,177133,1,4,0:3:0:0:
365,67,177449,2,0,L|354:-2,2,55,8|8|4,0:0|0:0|0:3,0:0:0:0:
411,85,177923,6,0,P|390:134|398:196,1,110,4|12,0:0|0:0,0:0:0:0:
446,274,178554,1,0,3:0:0:0:
446,274,178712,2,0,L|324:287,1,110,12|8,0:0|0:0,0:0:0:0:
294,312,179186,2,0,L|220:305,1,55,8|12,0:0|0:0,0:0:0:0:
256,192,179502,12,4,181870,0:0:0:0:
