osu file format v14

[General]
AudioFilename: AIS.mp3
AudioLeadIn: 0
PreviewTime: 40871
Countdown: 0
SampleSet: Soft
StackLeniency: 0.7
Mode: 0
LetterboxInBreaks: 0
WidescreenStoryboard: 1

[Editor]
DistanceSpacing: 1.4
BeatDivisor: 4
GridSize: 4
TimelineZoom: 1.2

[Metadata]
Title:AOI-IRO STEP
TitleUnicode:葵色ステップ
Artist:yuikonnu
ArtistUnicode:ゆいこんぬ
Creator:Fycho
Version:Insane
Source:
Tags:めいこ meiko しぐれうい shigure ui 初音ミク hatsune miku vocaloid ねじまきと置き手紙 nejimaki to oki tegami 魔法のための少女クラブ Mahou no tame no Shoujo Club amamiya yuko skystar xinely
BeatmapID:623277
BeatmapSetID:274645

[Difficulty]
HPDrainRate:7
CircleSize:4
OverallDifficulty:7.3
ApproachRate:9
SliderMultiplier:1.7
SliderTickRate:1

[Events]
//Background and Video events
0,0,"aisbg.jpg",0,0
//Break Periods
2,69571,73824
2,132729,142034
2,154203,160350
//Storyboard Layer 0 (Background)
//Storyboard Layer 1 (Fail)
//Storyboard Layer 2 (Pass)
//Storyboard Layer 3 (Foreground)
//Storyboard Sound Samples

[TimingPoints]
1161,315.789473684211,4,2,1,80,1,0
11266,-133.333333333333,4,2,1,80,0,0
11582,-133.333333333333,4,2,1,60,0,0
21371,-100,4,2,1,70,0,0
31476,-133.333333333333,4,2,1,70,0,0
39055,-100,4,2,1,70,0,0
41582,-100,4,2,1,90,0,1
61792,-125,4,2,1,80,0,1
65424,-100,4,2,1,80,0,1
66845,-100,4,2,1,70,0,0
66924,-100,4,2,1,30,0,0
69371,-100,4,2,1,70,0,0
74424,-100,4,2,1,80,0,0
76950,-111.111111111111,4,2,1,60,0,0
87055,-100,4,2,1,70,0,0
97161,-133.333333333333,4,2,1,70,0,0
104739,-100,4,2,1,70,0,0
107266,-100,4,2,1,90,0,1
127476,-125,4,2,1,80,0,1
131108,-100,4,2,1,80,0,1
132529,-100,4,2,1,70,0,0
142634,-111.111111111111,4,2,1,70,0,0
151397,-111.111111111111,4,2,1,20,0,0
154003,-111.111111111111,4,2,1,50,0,0
161582,-100,4,2,1,70,0,1
163476,-100,4,2,1,60,0,1
163792,-100,4,2,1,65,0,0
164108,-100,4,2,1,90,0,1
174213,-125,4,2,1,80,0,1
177845,-100,4,2,1,80,0,1
179266,-100,4,2,1,70,0,0

[Colours]
Combo1 : 32,225,32
Combo2 : 235,109,225
Combo3 : 24,242,248
Combo4 : 234,15,48

[HitObjects]
346,112,1161,6,0,P|259:64|176:81,1,170,4|8,0:0|0:0,0:0:0:0:
210,248,1634,1,2,0:0:0:0:
210,248,1713,1,8,0:0:0:0:
210,248,1792,2,0,L|219:156,1,85,0|2,0:0|0:0,0:0:0:0:
132,316,2108,1,8,0:0:0:0:
286,316,2266,6,0,B|342:303|385:315|385:315|402:281|398:245,1,170,4|0,0:0|0:0,0:0:0:0:
375,147,2739,2,0,P|438:166|473:173,1,85,8|0,0:0|0:0,0:0:0:0:
284,80,3055,1,2,0:0:0:0:
331,228,3213,1,0,0:0:0:0:
194,134,3371,2,0,P|145:123|105:124,1,85,8|0,0:0|0:0,0:0:0:0:
199,342,3687,6,0,P|218:287|213:212,1,127.5,4|0,0:0|0:0,0:0:0:0:
214,218,4003,1,8,0:0:0:0:
97,261,4161,1,0,0:0:0:0:
90,286,4239,1,8,0:0:0:0:
84,311,4318,1,0,0:0:0:0:
107,114,4476,1,2,0:0:0:0:
23,191,4634,1,8,0:0:0:0:
195,134,4792,6,0,P|291:147|347:102,1,170,4|0,0:0|0:0,0:0:0:0:
450,117,5266,2,0,L|450:67|450:22,1,85,8|0,0:0|0:0,0:0:0:0:
397,235,5582,2,0,P|438:223|490:211,1,85,2|0,0:0|0:0,0:0:0:0:
344,110,5897,1,8,0:0:0:0:
272,197,6055,1,0,0:0:0:0:
272,197,6134,1,0,0:0:0:0:
272,197,6213,6,0,B|211:221|211:221|171:169|177:113,1,170,4|8,0:0|0:0,0:0:0:0:
83,235,6687,1,2,0:0:0:0:
83,235,6766,1,8,0:0:0:0:
83,234,6845,2,0,P|79:277|72:319,1,85,0|2,0:0|0:0,0:0:0:0:
188,263,7161,1,8,0:0:0:0:
202,146,7318,6,0,P|112:154|43:98,1,170,4|0,0:0|0:0,0:0:0:0:
143,58,7792,1,8,0:0:0:0:
83,235,7950,1,2,0:0:0:0:
286,105,8108,2,0,P|292:147|286:189,1,85,0|2,0:0|0:0,0:0:0:0:
222,25,8424,1,8,0:0:0:0:
287,106,8582,1,2,0:0:0:0:
305,117,8661,1,0,0:0:0:0:
323,125,8739,6,0,P|382:135|413:135,1,85,4|0,0:0|0:0,0:0:0:0:
457,218,9055,1,8,0:0:0:0:
430,28,9213,2,0,P|361:43|325:143,1,170,4|0,0:0|0:0,0:0:0:0:
491,119,9687,1,8,0:0:0:0:
383,339,9845,6,0,L|410:143,1,170,4|0,0:0|0:0,0:0:0:0:
278,230,10318,1,8,0:0:0:0:
176,314,10476,1,0,0:0:0:0:
180,292,10555,1,8,0:0:0:0:
185,271,10634,1,0,0:0:0:0:
306,357,10792,1,8,0:0:0:0:
278,230,10950,1,8,0:0:0:0:
415,165,11108,2,0,L|410:218,1,42.5
431,342,11266,5,4,0:0:0:0:
331,160,11582,1,0,0:0:0:0:
331,160,11739,2,0,P|327:73|333:32,2,127.500004863739,2|2|2,0:0|0:0|0:0,0:0:0:0:
488,91,12687,5,0,0:0:0:0:
426,156,12845,1,0,0:0:0:0:
331,160,13003,2,0,P|241:164|194:170,2,127.500004863739,2|2|2,0:0|0:0|0:0,0:0:0:0:
233,238,13792,6,0,P|156:239|131:183,1,127.500004863739,2|0,0:0|0:0,0:0:0:0:
158,46,14266,2,0,L|71:56,1,63.7500024318696,2|0,0:0|0:0,0:0:0:0:
234,91,14582,2,0,L|297:83,1,63.7500024318696,2|0,0:0|0:0,0:0:0:0:
157,155,14897,6,0,P|113:224|120:275,1,127.500004863739,2|0,0:0|0:0,0:0:0:0:
203,268,15371,1,0,0:0:0:0:
263,331,15529,2,0,P|333:317|398:309,1,127.500004863739,2|0,0:0|0:0,0:0:0:0:
467,249,16003,1,0,0:0:0:0:
467,249,16161,1,0,0:0:0:0:
503,142,16318,6,0,P|432:155|368:164,1,127.500004863739,2|0,0:0|0:0,0:0:0:0:
295,112,16792,2,0,P|254:137|244:219,1,127.500004863739,2|0,0:0|0:0,0:0:0:0:
143,194,17266,1,0,0:0:0:0:
177,339,17424,6,0,P|186:297|190:270,1,63.7500024318696,2|0,0:0|0:0,0:0:0:0:
82,304,17739,2,0,P|73:346|69:373,2,63.7500024318696,2|0|0,0:0|0:0|0:0,0:0:0:0:
143,194,18213,1,0,0:0:0:0:
79,131,18371,2,0,L|17:162,2,63.7500024318696,2|0|0,0:0|0:0|0:0,0:0:0:0:
215,142,18845,6,0,P|231:225|197:269,1,127.500004863739,2|0,0:0|0:0,0:0:0:0:
215,142,19318,2,0,L|358:135,1,127.500004863739,2|0,0:0|0:0,0:0:0:0:
388,62,19792,1,0,0:0:0:0:
438,176,19950,6,0,P|443:138|450:111,1,63.7500024318696,2|0,0:0|0:0,0:0:0:0:
350,213,20266,2,0,P|345:251|338:278,1,63.7500024318696,2|0,0:0|0:0,0:0:0:0:
219,327,20582,5,0,0:0:0:0:
417,330,20739,1,4,0:3:0:0:
250,220,20897,1,8,0:0:0:0:
301,88,21055,1,8,0:0:0:0:
329,81,21134,1,8,0:0:0:0:
357,81,21213,1,8,0:0:0:0:
382,94,21292,1,8,0:0:0:0:
406,116,21371,6,0,L|424:25,1,85,4|0,0:0|0:0,0:0:0:0:
263,53,21687,1,8,0:0:0:0:
160,91,21845,2,0,P|133:152|128:266,1,170,2|0,0:0|0:0,0:0:0:0:
251,156,22318,1,8,0:0:0:0:
361,310,22476,6,0,B|290:293|239:327|239:327|206:313|199:293,1,170,2|0,0:0|0:0,0:0:0:0:
71,259,22950,1,8,0:0:0:0:
43,120,23108,2,0,P|107:146|127:153,1,85,2|0,0:0|0:0,0:0:0:0:
251,156,23424,1,0,0:0:0:0:
170,238,23582,1,8,0:0:0:0:
229,60,23739,1,0,0:0:0:0:
345,131,23897,6,0,P|409:150|489:82,1,170,2|8,0:0|0:0,0:0:0:0:
251,156,24371,2,0,L|246:255,1,85,2|0,0:0|0:0,0:0:0:0:
170,329,24687,1,0,0:0:0:0:
276,360,24845,1,8,0:0:0:0:
425,214,25003,6,0,P|473:280|437:353,1,170,2|0,0:0|0:0,0:0:0:0:
322,194,25476,1,8,0:0:0:0:
348,292,25634,1,2,0:0:0:0:
198,308,25792,1,0,0:0:0:0:
209,208,25950,1,0,0:0:0:0:
51,127,26108,1,8,0:0:0:0:
106,216,26266,1,0,0:0:0:0:
154,65,26424,6,0,P|285:60|350:58,1,170,4|8,0:0|0:0,0:0:0:0:
460,200,26897,2,0,L|474:101,1,85,2|0,0:0|0:0,0:0:0:0:
370,171,27213,1,2,0:0:0:0:
420,273,27371,1,8,0:0:0:0:
251,187,27529,6,0,P|213:242|211:360,1,170,2|0,0:0|0:0,0:0:0:0:
370,171,28003,1,8,0:0:0:0:
325,269,28161,1,2,0:0:0:0:
414,75,28318,1,0,0:0:0:0:
481,161,28476,1,0,0:0:0:0:
299,82,28634,1,8,0:0:0:0:
247,176,28792,1,0,0:0:0:0:
161,107,28950,6,0,B|111:100|66:136|66:136|48:106|56:66,1,170,2|8,0:0|0:0,0:0:0:0:
142,224,29424,2,0,P|147:267|141:309,1,85,2|0,0:0|0:0,0:0:0:0:
247,176,29739,1,2,0:0:0:0:
251,289,29897,1,8,0:0:0:0:
40,187,30055,6,0,B|22:228|22:228|24:370,1,170,4|8,0:0|0:0,0:0:0:0:
143,225,30529,1,8,0:0:0:0:
197,377,30687,1,0,0:0:0:0:
124,314,30845,5,10,0:0:0:0:
317,306,31003,1,8,0:0:0:0:
197,377,31161,1,8,0:0:0:0:
240,216,31318,1,8,0:0:0:0:
396,376,31476,5,4,0:0:0:0:
396,376,31792,1,0,0:0:0:0:
396,288,31950,1,0,0:0:0:0:
402,202,32108,2,0,P|427:154|504:137,1,127.500004863739,8|0,0:0|0:0,0:0:0:0:
306,109,32582,6,0,P|281:157|204:174,1,127.500004863739,0|8,0:0|0:0,0:0:0:0:
92,57,33055,2,0,L|80:135,1,63.7500024318696,0|0,0:0|0:0,0:0:0:0:
63,201,33371,1,8,0:0:0:0:
44,281,33529,1,0,0:0:0:0:
173,108,33687,1,0,0:0:0:0:
173,108,34003,6,0,L|306:85,1,127.500004863739,0|0,0:0|0:0,0:0:0:0:
410,44,34476,1,0,0:0:0:0:
378,137,34634,2,0,P|390:191|381:269,1,127.500004863739,8|0,0:0|0:0,0:0:0:0:
299,337,35108,6,0,P|287:283|296:205,1,127.500004863739,0|8,0:0|0:0,0:0:0:0:
377,138,35582,1,0,0:0:0:0:
243,45,35739,1,0,0:0:0:0:
332,58,35897,1,8,0:0:0:0:
146,206,36055,1,8,0:0:0:0:
166,120,36213,1,4,0:3:0:0:
260,134,36371,1,4,0:3:0:0:
67,108,36529,5,4,0:0:0:0:
67,108,36845,2,0,L|54:191,1,63.7500024318696
32,264,37161,2,0,B|76:289|117:255|169:278,1,127.500004863739,8|0,0:0|0:0,0:0:0:0:
302,189,37634,6,0,B|261:170|220:204|176:179,1,127.500004863739,0|8,0:0|0:0,0:0:0:0:
362,244,38108,2,0,P|381:200|382:167,1,63.7500024318696
283,104,38424,1,8,0:0:0:0:
409,58,38582,1,4,0:3:0:0:
449,83,38661,1,4,0:3:0:0:
483,116,38739,1,12,0:0:0:0:
283,104,39055,6,0,P|208:117|119:166,1,170,4|8,0:0|0:0,0:0:0:0:
85,275,39529,2,0,P|98:172|48:115,1,170,2|0,0:0|0:0,0:0:0:0:
221,187,40003,1,8,0:0:0:0:
189,290,40161,6,0,P|172:348|171:396,1,85,8|0,0:0|0:0,0:0:0:0:
283,104,40476,1,8,0:0:0:0:
286,267,40634,1,8,0:0:0:0:
424,109,40950,6,0,L|464:122,3,42.5,2|0|0|0,0:0|0:0|0:0|0:0,0:0:0:0:
347,155,41266,1,2,0:0:0:0:
330,189,41345,1,0,0:0:0:0:
336,226,41424,1,0,0:0:0:0:
348,262,41503,1,0,0:0:0:0:
379,284,41582,6,0,L|364:369,1,85,4|0,0:0|0:0,0:0:0:0:
458,242,41897,1,8,0:0:0:0:
265,274,42055,2,0,P|187:271|91:314,1,170,2|2,0:0|0:0,0:0:0:0:
0,247,42529,1,8,0:0:0:0:
37,98,42687,6,0,P|44:162|152:196,1,170,2|0,0:0|0:0,0:0:0:0:
264,275,43161,2,0,L|249:386,1,85,8|0,0:0|0:0,0:0:0:0:
401,227,43476,2,0,L|382:133,1,85,0|2,0:0|0:0,0:0:0:0:
174,227,43792,1,8,0:0:0:0:
272,120,43950,1,2,0:0:0:0:
370,315,44108,6,0,P|437:320|493:229,1,170,2|8,0:0|0:0,0:0:0:0:
264,274,44582,1,2,0:0:0:0:
264,274,44661,1,8,0:0:0:0:
264,274,44739,2,0,L|172:300,1,85
100,236,45055,1,8,0:0:0:0:
272,120,45213,6,0,L|376:91,1,85,2|0,0:0|0:0,0:0:0:0:
473,261,45529,1,2,0:0:0:0:
368,200,45687,1,12,0:0:0:0:
476,100,45845,1,2,0:0:0:0:
472,260,46003,2,0,L|476:352,1,85
372,324,46318,1,8,0:0:0:0:
340,311,46397,1,0,0:0:0:0:
305,310,46476,1,0,0:0:0:0:
272,320,46555,1,0,0:0:0:0:
242,337,46634,6,0,L|159:354,1,85,4|0,0:0|0:0,0:0:0:0:
180,208,46950,2,0,L|211:128,1,85,8|2,0:0|0:0,0:0:0:0:
224,96,47187,1,8,0:0:0:0:
224,96,47266,1,0,0:0:0:0:
108,148,47424,1,2,0:0:0:0:
260,244,47582,1,8,0:0:0:0:
56,248,47739,6,0,B|69:114|69:114|101:81,1,170,2|0,0:0|0:0,0:0:0:0:
196,8,48213,2,0,L|280:46,1,85,8|0,0:0|0:0,0:0:0:0:
338,175,48529,1,0,0:0:0:0:
189,217,48687,1,2,0:0:0:0:
237,136,48845,1,8,0:0:0:0:
356,282,49003,1,2,0:0:0:0:
356,282,49082,1,0,0:0:0:0:
356,282,49161,5,4,0:0:0:0:
396,107,49318,1,0,0:0:0:0:
274,239,49476,1,8,0:0:0:0:
101,187,49634,2,0,B|153:169|200:192|200:192|224:173|236:134,1,170,4|0,0:0|0:0,0:0:0:0:
478,206,50108,2,0,P|392:211|307:273,1,170,12|0,0:0|0:0,0:0:0:0:
396,107,50582,5,2,0:0:0:0:
220,160,50739,1,12,0:0:0:0:
303,83,50897,1,2,0:0:0:0:
170,234,51055,5,0,0:0:0:0:
201,85,51213,1,2,0:0:0:0:
292,176,51371,2,0,L|278:220,1,42.5,8|8,0:0|0:0,0:0:0:0:
202,85,51529,2,0,L|190:37,1,42.5,8|8,0:0|0:0,0:0:0:0:
88,136,51687,6,0,P|36:189|37:296,1,170,4|8,0:0|0:0,0:0:0:0:
133,337,52161,2,0,L|223:323,1,85,2|0,0:0|0:0,0:0:0:0:
313,357,52476,1,2,0:0:0:0:
357,221,52634,1,8,0:0:0:0:
446,335,52792,6,0,P|480:223|458:177,1,170,2|0,0:0|0:0,0:0:0:0:
390,93,53266,2,0,P|347:98|308:113,1,85,8|0,0:0|0:0,0:0:0:0:
220,280,53582,1,0,0:0:0:0:
243,187,53739,1,2,0:0:0:0:
135,204,53897,2,0,L|105:300,1,85,8|2,0:0|0:0,0:0:0:0:
347,248,54213,6,0,P|369:191|301:81,1,170,2|8,0:0|0:0,0:0:0:0:
113,309,54687,1,2,0:0:0:0:
113,309,54766,1,8,0:0:0:0:
113,309,54845,2,0,L|215:285,1,85,0|2,0:0|0:0,0:0:0:0:
243,187,55161,1,8,0:0:0:0:
172,100,55318,6,0,B|155:80|155:80|103:112|49:93|49:93|47:40,1,170,2|0,0:0|0:0,0:0:0:0:
280,21,55792,2,0,L|274:105,1,85,8|0,0:0|0:0,0:0:0:0:
114,309,56108,2,0,L|120:224,1,85,0|0,0:0|0:0,0:0:0:0:
281,304,56424,1,12,0:0:0:0:
281,304,56739,6,0,P|365:313|423:246,1,170,4|8,0:0|0:0,0:0:0:0:
399,106,57213,1,2,0:0:0:0:
399,106,57292,1,8,0:0:0:0:
399,106,57371,2,0,L|494:122,1,85
311,49,57687,1,8,0:0:0:0:
204,49,57845,6,0,P|185:87|185:227,1,170,2|0,0:0|0:0,0:0:0:0:
96,120,58318,2,0,P|75:77|48:40,1,85,8|0,0:0|0:0,0:0:0:0:
101,342,58634,1,0,0:0:0:0:
94,235,58792,1,2,0:0:0:0:
242,257,58950,1,8,0:0:0:0:
186,160,59108,1,2,0:0:0:0:
364,271,59266,6,0,P|437:215|431:118,1,170,4|8,0:0|0:0,0:0:0:0:
242,257,59739,2,0,L|54:250,1,170,12|2,0:0|0:0,0:0:0:0:
186,160,60213,1,8,0:0:0:0:
288,336,60371,6,0,P|321:245|288:181,1,170,4|2,0:0|0:0,0:0:0:0:
288,336,60845,2,0,L|405:328,1,85,8|4,0:0|0:3,0:0:0:0:
401,329,61082,1,4,0:3:0:0:
401,329,61161,1,8,0:0:0:0:
453,154,61318,1,2,0:0:0:0:
478,256,61476,1,8,0:0:0:0:
393,77,61634,1,8,0:0:0:0:
321,168,61792,6,0,P|282:118|273:48,1,136,4|0,0:0|0:0,0:0:0:0:
176,166,62266,1,0,0:0:0:0:
176,166,62424,2,0,L|186:67,1,68,8|0,0:0|0:0,0:0:0:0:
245,243,62739,1,0,0:0:0:0:
148,277,62897,6,0,P|60:307|23:364,1,136,0|8,0:0|0:0,0:0:0:0:
245,243,63371,2,0,P|254:187|254:158,1,68
133,65,63687,2,0,P|182:85|208:89,1,68,8|0,0:0|0:0,0:0:0:0:
364,41,64003,2,0,P|313:63|286:86,1,68
421,205,64318,6,0,P|460:142|441:59,1,136,4|0,0:0|0:0,0:0:0:0:
329,166,64792,1,0,0:0:0:0:
257,232,64950,1,8,0:0:0:0:
391,314,65108,1,8,0:0:0:0:
226,319,65266,1,0,0:0:0:0:
35,187,65424,6,0,P|80:254|161:248,2,170,4|8|8,0:0|0:0|0:0,0:0:0:0:
198,77,66213,1,12,0:0:0:0:
323,89,66371,1,8,0:0:0:0:
351,114,66450,1,8,0:0:0:0:
360,151,66529,1,8,0:0:0:0:
358,189,66608,1,8,0:0:0:0:
342,224,66687,1,8,0:0:0:0:
311,247,66766,1,8,0:0:0:0:
272,249,66845,5,4,0:0:0:0:
256,192,66924,12,4,69371,0:0:0:0:
156,291,74424,5,4,0:0:0:0:
332,184,74582,1,0,0:0:0:0:
222,145,74739,1,8,0:0:0:0:
327,285,74897,2,0,B|378:269|435:289|435:289|466:277|495:285,1,170,4|0,0:0|0:0,0:0:0:0:
245,233,75371,1,8,0:0:0:0:
303,36,75529,6,0,P|342:77|312:203,1,170,4|2,0:0|0:0,0:0:0:0:
134,164,76003,2,0,L|138:79,1,85,8|2,0:0|0:0,0:0:0:0:
138,79,76239,1,8,0:0:0:0:
138,79,76318,1,0,0:0:0:0:
32,240,76476,1,2,0:0:0:0:
32,240,76555,1,0,0:0:0:0:
32,240,76634,1,8,0:0:0:0:
206,241,76792,1,0,0:0:0:0:
53,138,76950,5,4,0:0:0:0:
280,304,77266,1,0,0:0:0:0:
280,304,77424,2,0,P|352:312|380:312,1,76.4999976654053,2|0,0:0|0:0,0:0:0:0:
424,233,77740,2,0,P|432:161|432:133,1,76.4999976654053,2|0,0:0|0:0,0:0:0:0:
347,100,78055,6,0,P|275:92|247:92,1,76.4999976654053,2|0,0:0|0:0,0:0:0:0:
198,167,78371,2,0,P|190:239|190:267,1,76.4999976654053,2|0,0:0|0:0,0:0:0:0:
90,296,78687,2,0,P|98:224|98:196,1,76.4999976654053,2|0,0:0|0:0,0:0:0:0:
102,129,79003,1,2,0:0:0:0:
315,205,79161,1,8,0:0:0:0:
315,205,79476,6,0,L|150:206,1,152.999995330811,2|0,0:0|0:0,0:0:0:0:
54,168,79950,2,0,P|49:202|53:244,1,76.4999976654053,2|0,0:0|0:0,0:0:0:0:
143,109,80266,2,0,P|148:75|143:32,1,76.4999976654053,2|0,0:0|0:0,0:0:0:0:
54,80,80582,6,0,L|226:69,1,152.999995330811,2|0,0:0|0:0,0:0:0:0:
270,135,81055,1,0,0:0:0:0:
361,160,81213,2,0,P|413:108|417:17,1,152.999995330811,2|0,0:0|0:0,0:0:0:0:
337,291,81687,1,8,0:0:0:0:
337,291,82003,6,0,L|345:206,1,76.4999976654053,2|0,0:0|0:0,0:0:0:0:
346,99,82318,1,0,0:0:0:0:
346,99,82476,2,0,P|412:105|447:114,1,76.4999976654053,2|0,0:0|0:0,0:0:0:0:
242,197,82792,2,0,P|176:191|141:182,1,76.4999976654053,2|0,0:0|0:0,0:0:0:0:
73,101,83108,6,0,L|237:101,1,152.999995330811,2|2,0:0|0:0,0:0:0:0:
346,99,83582,1,0,0:0:0:0:
346,99,83739,2,0,L|438:91,1,76.4999976654053,0|2,0:0|0:0,0:0:0:0:
383,16,84055,1,0,0:0:0:0:
325,236,84213,1,8,0:0:0:0:
325,236,84529,6,0,L|307:322,1,76.4999976654053,2|0,0:0|0:0,0:0:0:0:
401,196,84845,1,0,0:0:0:0:
257,177,85003,2,0,P|154:179|104:214,1,152.999995330811,2|2,0:0|0:0,0:0:0:0:
123,303,85476,1,0,0:0:0:0:
183,63,85634,1,8,0:0:0:0:
183,63,86582,5,12,0:0:0:0:
93,131,86739,2,0,L|88:94,1,38.2499988327027,8|8,0:0|0:0,0:0:0:0:
188,165,86897,2,0,L|160:211,1,38.2499988327027,8|8,0:0|0:0,0:0:0:0:
106,268,87055,6,0,L|88:359,1,85,4|0,0:0|0:0,0:0:0:0:
232,284,87371,1,8,0:0:0:0:
354,209,87529,2,0,B|396:191|434:204|434:204|448:238|430:289,1,170,2|2,0:0|0:0,0:0:0:0:
280,136,88002,1,8,0:0:0:0:
415,35,88160,6,0,B|413:24|380:10|380:10|329:44|258:27,1,170,2|0,0:0|0:0,0:0:0:0:
148,60,88634,1,8,0:0:0:0:
113,163,88792,2,0,P|154:157|196:153,1,85,2|0,0:0|0:0,0:0:0:0:
270,312,89108,1,2,0:0:0:0:
355,139,89266,1,8,0:0:0:0:
395,338,89423,1,0,0:0:0:0:
327,243,89581,6,0,P|263:224|183:292,1,170,2|8,0:0|0:0,0:0:0:0:
63,335,90055,2,0,L|68:236,1,85,2|0,0:0|0:0,0:0:0:0:
161,124,90371,1,2,0:0:0:0:
178,221,90529,1,8,0:0:0:0:
73,82,90687,6,0,P|141:33|224:43,1,170,2|0,0:0|0:0,0:0:0:0:
127,216,91160,1,8,0:0:0:0:
161,123,91318,1,0,0:0:0:0:
280,221,91476,1,2,0:0:0:0:
252,124,91634,1,0,0:0:0:0:
407,117,91792,1,8,0:0:0:0:
326,66,91950,1,0,0:0:0:0:
417,199,92108,6,0,P|286:204|221:206,1,170,4|8,0:0|0:0,0:0:0:0:
191,320,92581,2,0,L|291:315,1,85,2|0,0:0|0:0,0:0:0:0:
159,233,92897,1,0,0:0:0:0:
72,315,93055,1,8,0:0:0:0:
101,54,93213,6,0,B|64:72|64:72|44:124|58:210,1,170,2|0,0:0|0:0,0:0:0:0:
237,49,93687,1,8,0:0:0:0:
162,117,93845,1,0,0:0:0:0:
279,258,94002,1,2,0:0:0:0:
262,157,94161,1,0,0:0:0:0:
135,317,94318,1,8,0:0:0:0:
173,222,94476,1,0,0:0:0:0:
350,179,94634,6,0,B|411:165|454:167|454:167|475:208|472:239,1,170,2|8,0:0|0:0,0:0:0:0:
352,349,95108,2,0,P|347:306|353:264,1,85,2|0,0:0|0:0,0:0:0:0:
441,310,95423,1,2,0:0:0:0:
264,232,95581,1,8,0:0:0:0:
479,190,95739,6,0,B|497:149|497:149|495:7,1,170,4|8,0:0|0:0,0:0:0:0:
389,171,96213,1,8,0:0:0:0:
333,25,96371,1,0,0:0:0:0:
408,82,96529,5,10,0:0:0:0:
215,90,96687,1,8,0:0:0:0:
194,188,96845,1,8,0:0:0:0:
308,117,97002,1,8,0:0:0:0:
287,348,97160,5,4,0:0:0:0:
287,348,97476,1,0,0:0:0:0:
193,332,97634,1,0,0:0:0:0:
100,312,97792,2,0,P|133:259|120:199,1,127.500004863739,8|0,0:0|0:0,0:0:0:0:
44,136,98266,6,0,P|14:191|33:250,1,127.500004863739,0|8,0:0|0:0,0:0:0:0:
136,100,98739,2,0,L|200:92,1,63.7500024318696
304,68,99055,1,8,0:0:0:0:
392,93,99213,1,0,0:0:0:0:
435,277,99371,1,0,0:0:0:0:
435,277,99687,6,0,L|302:300,1,127.500004863739
299,204,100160,1,0,0:0:0:0:
216,381,100318,2,0,P|204:327|213:249,1,127.500004863739,8|0,0:0|0:0,0:0:0:0:
110,156,100792,6,0,P|122:210|113:288,1,127.500004863739,0|8,0:0|0:0,0:0:0:0:
213,167,101266,1,0,0:0:0:0:
166,88,101423,1,0,0:0:0:0:
269,92,101581,1,8,0:0:0:0:
337,264,101739,1,8,0:0:0:0:
301,181,101897,1,4,0:3:0:0:
244,264,102055,1,4,0:3:0:0:
442,263,102213,5,4,0:0:0:0:
442,263,102529,2,0,L|455:180,1,63.7500024318696
378,34,102845,2,0,B|359:74|393:115|368:159,1,127.500004863739,8|0,0:0|0:0,0:0:0:0:
243,271,103318,6,0,B|268:227|234:186|253:146,1,127.500004863739,0|8,0:0|0:0,0:0:0:0:
172,81,103792,2,0,P|153:125|152:158,1,63.7500024318696
259,52,104108,1,8,0:0:0:0:
36,82,104266,1,4,0:3:0:0:
19,126,104345,1,4,0:3:0:0:
3,171,104423,1,12,0:0:0:0:
245,272,104739,6,0,P|320:259|409:210,1,170,4|8,0:0|0:0,0:0:0:0:
464,59,105213,2,0,P|423:124|490:134,1,170,2|0,0:0|0:0,0:0:0:0:
340,25,105687,1,8,0:0:0:0:
216,78,105845,6,0,L|225:176,1,85,8|0,0:0|0:0,0:0:0:0:
455,336,106160,1,8,0:0:0:0:
418,207,106318,1,8,0:0:0:0:
418,207,106634,5,2,0:0:0:0:
389,199,106713,1,0,0:0:0:0:
359,200,106792,1,0,0:0:0:0:
332,213,106871,1,0,0:0:0:0:
306,228,106950,1,2,0:0:0:0:
278,238,107029,1,0,0:0:0:0:
248,243,107108,1,0,0:0:0:0:
220,232,107187,1,0,0:0:0:0:
199,210,107266,6,0,L|214:125,1,85,4|0,0:0|0:0,0:0:0:0:
65,219,107581,1,8,0:0:0:0:
303,111,107739,2,0,P|381:114|477:71,1,170,2|2,0:0|0:0,0:0:0:0:
267,34,108213,1,8,0:0:0:0:
46,87,108371,6,0,P|123:113|141:192,1,170,2|0,0:0|0:0,0:0:0:0:
243,311,108845,2,0,L|258:200,1,85,8|0,0:0|0:0,0:0:0:0:
47,281,109160,2,0,L|65:374,1,85,0|2,0:0|0:0,0:0:0:0:
236,155,109476,1,8,0:0:0:0:
183,245,109634,1,2,0:0:0:0:
232,46,109792,6,0,P|165:41|109:132,1,170,2|8,0:0|0:0,0:0:0:0:
331,126,110266,1,2,0:0:0:0:
331,126,110345,1,8,0:0:0:0:
331,126,110424,2,0,L|354:30,1,85
436,123,110739,1,8,0:0:0:0:
232,74,110897,6,0,L|213:157,1,85,2|0,0:0|0:0,0:0:0:0:
258,269,111213,1,0,0:0:0:0:
358,268,111371,1,8,0:0:0:0:
216,358,111529,1,2,0:0:0:0:
97,239,111687,2,0,L|185:245,1,85
446,258,112002,1,8,0:0:0:0:
467,231,112081,1,0,0:0:0:0:
474,197,112160,1,0,0:0:0:0:
461,165,112239,1,0,0:0:0:0:
443,136,112318,6,0,L|350:142,1,85,2|0,0:0|0:0,0:0:0:0:
183,249,112634,1,8,0:0:0:0:
279,91,112792,1,2,0:0:0:0:
279,91,112871,1,8,0:0:0:0:
279,91,112950,1,0,0:0:0:0:
208,158,113108,1,0,0:0:0:0:
325,217,113266,1,8,0:0:0:0:
400,36,113423,6,0,B|367:14|367:14|236:9,1,170,2|0,0:0|0:0,0:0:0:0:
434,225,113897,2,0,L|440:107,1,85,8|0,0:0|0:0,0:0:0:0:
210,256,114213,1,0,0:0:0:0:
314,229,114371,1,2,0:0:0:0:
298,122,114529,1,8,0:0:0:0:
330,334,114687,1,2,0:0:0:0:
330,334,114766,1,0,0:0:0:0:
330,334,114845,5,4,0:0:0:0:
130,335,115002,1,0,0:0:0:0:
219,155,115160,1,8,0:0:0:0:
415,197,115318,2,0,B|363:215|316:192|316:192|292:211|280:250,1,170,4|2,0:0|0:0,0:0:0:0:
93,88,115792,2,0,P|137:159|141:243,1,170,12|0,0:0|0:0,0:0:0:0:
204,43,116266,5,2,0:0:0:0:
43,195,116423,1,12,0:0:0:0:
268,178,116581,1,2,0:0:0:0:
147,152,116739,5,0,0:0:0:0:
108,281,116897,1,2,0:0:0:0:
267,179,117055,2,0,L|256:238,1,42.5,8|8,0:0|0:0,0:0:0:0:
259,331,117213,2,0,L|300:321,1,42.5,8|8,0:0|0:0,0:0:0:0:
435,275,117371,6,0,P|487:222|486:115,1,170,4|8,0:0|0:0,0:0:0:0:
339,66,117845,2,0,L|432:32,1,85,2|0,0:0|0:0,0:0:0:0:
279,179,118160,1,2,0:0:0:0:
241,45,118318,1,8,0:0:0:0:
52,129,118476,6,0,P|111:216|178:220,1,170,2|0,0:0|0:0,0:0:0:0:
310,54,118950,2,0,P|255:73|221:93,1,85,8|0,0:0|0:0,0:0:0:0:
236,186,119266,1,0,0:0:0:0:
144,64,119423,1,2,0:0:0:0:
91,301,119581,2,0,L|121:205,1,85,8|2,0:0|0:0,0:0:0:0:
364,179,119897,6,0,P|307:157|197:225,1,170,2|8,0:0|0:0,0:0:0:0:
241,343,120371,1,2,0:0:0:0:
241,343,120450,1,8,0:0:0:0:
241,343,120529,2,0,L|139:367,1,85,0|2,0:0|0:0,0:0:0:0:
318,119,120845,1,8,0:0:0:0:
333,265,121002,6,0,B|347:324|347:324|399:292|466:300,1,170,2|0,0:0|0:0,0:0:0:0:
512,135,121476,2,0,P|476:142|428:150,1,85,8|0,0:0|0:0,0:0:0:0:
310,56,121792,2,0,P|352:50|393:40,1,85
185,150,122108,1,12,0:0:0:0:
185,150,122423,6,0,P|100:140|43:208,1,170,4|8,0:0|0:0,0:0:0:0:
0,341,122897,1,2,0:0:0:0:
0,341,122976,1,8,0:0:0:0:
0,341,123055,2,0,L|89:321,1,85,0|2,0:0|0:0,0:0:0:0:
175,350,123371,1,8,0:0:0:0:
402,257,123529,6,0,P|364:238|242:285,1,170,2|0,0:0|0:0,0:0:0:0:
132,278,124003,2,0,P|153:321|180:358,1,85,8|0,0:0|0:0,0:0:0:0:
331,361,124318,1,0,0:0:0:0:
371,83,124476,1,2,0:0:0:0:
285,230,124634,1,8,0:0:0:0:
454,134,124792,1,2,0:0:0:0:
258,128,124950,6,0,P|185:184|191:281,1,170,4|8,0:0|0:0,0:0:0:0:
0,165,125423,2,0,L|188:172,1,170,12|2,0:0|0:0,0:0:0:0:
309,47,125897,1,8,0:0:0:0:
188,8,126055,6,0,P|155:99|188:163,1,170,4|2,0:0|0:0,0:0:0:0:
328,135,126529,2,0,L|336:252,1,85,8|4,0:0|0:3,0:0:0:0:
335,248,126766,1,4,0:3:0:0:
335,248,126845,1,8,0:0:0:0:
206,291,127002,1,2,0:0:0:0:
126,180,127160,1,8,0:0:0:0:
202,67,127318,1,8,0:0:0:0:
330,112,127476,6,0,P|369:162|378:232,1,136,4|0,0:0|0:0,0:0:0:0:
279,279,127950,1,0,0:0:0:0:
279,279,128108,2,0,L|269:378,1,68,8|0,0:0|0:0,0:0:0:0:
267,141,128423,1,0,0:0:0:0:
360,198,128581,6,0,P|448:168|485:111,1,136,0|8,0:0|0:0,0:0:0:0:
267,141,129055,2,0,P|258:197|258:226,1,68
384,60,129371,2,0,P|335:40|309:36,1,68,8|0,0:0|0:0,0:0:0:0:
161,101,129687,2,0,P|212:79|239:56,1,68
62,85,130002,6,0,P|23:148|42:231,1,136,4|0,0:0|0:0,0:0:0:0:
138,176,130476,1,0,0:0:0:0:
252,350,130634,1,8,0:0:0:0:
105,350,130792,1,8,0:0:0:0:
211,250,130950,1,0,0:0:0:0:
394,257,131108,6,0,P|405:322|328:384,2,170,4|8|8,0:0|0:0|0:0,0:0:0:0:
307,102,131897,1,12,0:0:0:0:
179,100,132055,1,8,0:0:0:0:
148,122,132134,1,8,0:0:0:0:
129,155,132213,1,8,0:0:0:0:
132,193,132292,1,8,0:0:0:0:
144,229,132371,1,8,0:0:0:0:
171,255,132450,1,8,0:0:0:0:
208,263,132529,5,4,0:0:0:0:
134,108,142634,6,0,P|116:190|139:256,1,152.999995330811,4|0,0:0|0:0,0:0:0:0:
326,106,143266,2,0,L|236:125,1,76.4999976654053,8|0,0:0|0:0,0:0:0:0:
281,209,143582,1,0,0:0:0:0:
398,201,143739,6,0,P|403:156|412:38,1,152.999995330811,2|0,0:0|0:0,0:0:0:0:
281,209,144213,2,0,P|279:251|286:291,1,76.4999976654053
493,233,144529,1,8,0:0:0:0:
329,354,144845,2,0,P|292:361|254:359,1,76.4999976654053
181,288,145161,6,0,P|93:299|54:354,1,152.999995330811,2|0,0:0|0:0,0:0:0:0:
28,251,145634,1,0,0:0:0:0:
28,251,145792,2,0,L|36:173,1,76.4999976654053,8|0,0:0|0:0,0:0:0:0:
134,106,146108,2,0,L|126:182,1,76.4999976654053,0|2,0:0|0:0,0:0:0:0:
372,49,146424,6,0,P|295:51|219:54,1,152.999995330811
135,106,146897,1,0,0:0:0:0:
332,203,147055,1,8,0:0:0:0:
332,203,147371,2,0,L|318:284,1,76.4999976654053,0|0,0:0|0:0,0:0:0:0:
237,193,147687,6,0,L|206:346,2,152.999995330811,4|0|8,0:0|0:0|0:0,0:0:0:0:
142,93,148634,2,0,P|109:74|71:73,1,76.4999976654053,0|2,0:0|0:0,0:0:0:0:
72,238,148950,6,0,P|109:236|142:218,1,76.4999976654053,0|0,0:0|0:0,0:0:0:0:
228,73,149266,2,0,P|217:107|222:161,1,76.4999976654053
373,77,149582,1,8,0:0:0:0:
321,290,149897,2,0,P|333:251|329:211,1,76.4999976654053
98,365,150213,6,0,L|259:348,2,152.999995330811,2|0|8,0:0|0:0|0:0,0:0:0:0:
82,176,151003,1,4,0:3:0:0:
35,268,151161,1,4,1:3:0:0:
211,269,151318,1,4,0:0:0:0:
256,192,151397,12,2,154003,0:0:0:0:
165,58,160950,5,2,0:0:0:0:
159,84,161029,1,0,0:0:0:0:
159,110,161108,1,2,0:0:0:0:
160,136,161187,1,0,0:0:0:0:
165,162,161266,1,2,0:0:0:0:
162,188,161345,1,0,0:0:0:0:
152,212,161424,1,2,0:0:0:0:
137,234,161503,1,0,0:0:0:0:
119,258,161582,6,0,L|232:229,1,85,4|0,0:0|0:0,0:0:0:0:
277,303,161897,1,8,0:0:0:0:
512,257,162055,2,0,P|464:223|338:234,1,170,4|2,0:0|0:0,0:0:0:0:
376,54,162529,6,0,P|263:58|276:171,1,255,12|2,0:0|0:0,0:0:0:0:
360,312,163161,2,0,L|365:227,1,85,8|2,0:0|0:0,0:0:0:0:
377,55,163476,1,8,0:0:0:0:
344,65,163555,1,8,0:0:0:0:
310,68,163634,1,8,0:0:0:0:
276,61,163713,1,8,0:0:0:0:
242,58,163792,1,8,0:0:0:0:
208,56,163871,1,8,0:0:0:0:
175,65,163950,1,8,0:0:0:0:
144,79,164029,1,8,0:0:0:0:
122,99,164108,6,0,P|108:140|86:277,1,170,4|8,0:0|0:0,0:0:0:0:
303,260,164582,2,0,L|223:230,1,85,2|0,0:0|0:0,0:0:0:0:
198,147,164897,1,2,0:0:0:0:
269,356,165055,1,8,0:0:0:0:
23,333,165213,6,0,P|82:246|149:242,1,170,2|0,0:0|0:0,0:0:0:0:
269,355,165687,2,0,P|214:336|180:316,1,85,8|0,0:0|0:0,0:0:0:0:
379,218,166003,1,0,0:0:0:0:
382,317,166160,1,2,0:0:0:0:
483,137,166318,2,0,L|501:235,1,85,8|2,0:0|0:0,0:0:0:0:
379,218,166634,6,0,P|322:240|212:172,1,170,2|8,0:0|0:0,0:0:0:0:
210,66,167108,1,2,0:0:0:0:
210,66,167187,1,8,0:0:0:0:
210,66,167266,2,0,L|297:46,1,85,0|2,0:0|0:0,0:0:0:0:
259,294,167582,1,8,0:0:0:0:
27,294,167739,6,0,B|21:262|39:241|39:241|93:267|158:238,1,170,2|0,0:0|0:0,0:0:0:0:
306,216,168213,2,0,P|313:180|321:132,1,85,8|0,0:0|0:0,0:0:0:0:
196,39,168529,2,0,P|189:77|180:122,1,85,2|0,0:0|0:0,0:0:0:0:
318,25,168845,1,12,0:0:0:0:
27,294,169160,6,0,P|84:352|166:340,1,170,4|8,0:0|0:0,0:0:0:0:
248,193,169634,1,2,0:0:0:0:
248,193,169713,1,8,0:0:0:0:
248,193,169792,2,0,L|157:212,1,85,0|2,0:0|0:0,0:0:0:0:
278,350,170108,1,8,0:0:0:0:
402,355,170266,6,0,P|441:282|419:202,1,170,2|0,0:0|0:0,0:0:0:0:
323,72,170740,2,0,P|298:106|280:145,1,85,8|0,0:0|0:0,0:0:0:0:
239,277,171055,1,0,0:0:0:0:
146,144,171213,1,2,0:0:0:0:
53,333,171371,1,8,0:0:0:0:
133,234,171529,1,2,0:0:0:0:
240,367,171687,6,0,P|308:320|319:238,1,170,4|8,0:0|0:0,0:0:0:0:
394,84,172160,2,0,L|225:91,1,170,4|2,0:0|0:0,0:0:0:0:
439,175,172634,1,8,0:0:0:0:
293,21,172792,6,0,P|323:97|290:173,1,170,4|8,0:0|0:0,0:0:0:0:
129,172,173266,2,0,L|137:55,1,85,8|4,0:0|0:3,0:0:0:0:
136,59,173503,1,4,0:3:0:0:
136,59,173582,1,8,0:0:0:0:
67,327,173739,1,2,0:0:0:0:
157,280,173897,1,8,0:0:0:0:
247,327,174055,1,8,0:0:0:0:
331,278,174213,6,0,P|370:228|379:158,1,136,4|0,0:0|0:0,0:0:0:0:
279,105,174687,1,0,0:0:0:0:
279,105,174845,2,0,L|269:6,1,68,8|0,0:0|0:0,0:0:0:0:
372,56,175160,1,0,0:0:0:0:
490,209,175318,6,0,P|441:162|376:147,1,136,0|8,0:0|0:0,0:0:0:0:
289,184,175792,2,0,P|285:219|288:263,1,68
441,316,176108,2,0,P|414:296|380:286,1,68,8|0,0:0|0:0,0:0:0:0:
240,371,176424,2,0,P|270:364|303:348,1,68
170,190,176739,6,0,P|144:251|151:323,1,136,4|0,0:0|0:0,0:0:0:0:
267,139,177213,1,0,0:0:0:0:
64,192,177371,1,8,0:0:0:0:
142,46,177529,1,8,0:0:0:0:
71,105,177687,1,0,0:0:0:0:
233,89,177845,6,0,L|226:-13,1,85,4|0,0:0|0:0,0:0:0:0:
170,189,178161,2,0,L|150:284,1,85,12|0,0:0|0:0,0:0:0:0:
385,83,178476,1,4,0:0:0:0:
431,222,178634,1,8,0:0:0:0:
222,150,178792,1,8,0:0:0:0:
259,138,178871,1,8,0:0:0:0:
298,138,178950,1,8,0:0:0:0:
335,152,179029,1,8,0:0:0:0:
373,160,179108,1,8,0:0:0:0:
412,156,179187,1,8,0:0:0:0:
445,137,179266,5,12,0:0:0:0:
256,192,179345,12,4,181792,0:0:0:0:
