osu file format v14

[General]
AudioFilename: AIS.mp3
AudioLeadIn: 0
PreviewTime: 40871
Countdown: 0
SampleSet: Soft
StackLeniency: 0.7
Mode: 0
LetterboxInBreaks: 0
WidescreenStoryboard: 1

[Editor]
DistanceSpacing: 1.1
BeatDivisor: 4
GridSize: 4
TimelineZoom: 1.3

[Metadata]
Title:AOI-IRO STEP
TitleUnicode:葵色ステップ
Artist:yuikonnu
ArtistUnicode:ゆいこんぬ
Creator:Fycho
Version:Hard
Source:
Tags:めいこ meiko しぐれうい shigure ui 初音ミク hatsune miku vocaloid ねじまきと置き手紙 nejimaki to oki tegami 魔法のための少女クラブ Mahou no tame no Shoujo Club amamiya yuko skystar xinely
BeatmapID:623275
BeatmapSetID:274645

[Difficulty]
HPDrainRate:6
CircleSize:4
OverallDifficulty:6
ApproachRate:8
SliderMultiplier:1.5
SliderTickRate:1

[Events]
//Background and Video events
0,0,"aisbg.jpg",0,0
//Break Periods
2,69571,73674
2,132729,141884
2,154203,160832
//Storyboard Layer 0 (Background)
//Storyboard Layer 1 (Fail)
//Storyboard Layer 2 (Pass)
//Storyboard Layer 3 (Foreground)
//Storyboard Sound Samples

[TimingPoints]
1161,315.789473684211,4,2,1,80,1,0
11266,-100,4,2,1,80,0,0
11582,-100,4,2,1,60,0,0
21371,-100,4,2,1,70,0,0
31476,-111.111111111111,4,2,1,70,0,0
39055,-100,4,2,1,70,0,0
41582,-100,4,2,1,90,0,1
61792,-111.111111111111,4,2,1,80,0,1
65424,-100,4,2,1,80,0,1
66845,-100,4,2,1,70,0,0
66924,-100,4,2,1,30,0,0
69371,-100,4,2,1,70,0,0
74424,-100,4,2,1,80,0,0
76950,-100,4,2,1,60,0,0
87055,-100,4,2,1,70,0,0
97161,-111.111111111111,4,2,1,70,0,0
104739,-100,4,2,1,70,0,0
107266,-100,4,2,1,90,0,1
127476,-111.111111111111,4,2,1,80,0,1
131108,-100,4,2,1,80,0,1
132529,-100,4,2,1,70,0,0
142634,-111.111111111111,4,2,1,70,0,0
151397,-111.111111111111,4,2,1,20,0,0
154003,-111.111111111111,4,2,1,50,0,0
161582,-100,4,2,1,70,0,1
163792,-100,4,2,1,70,0,0
164108,-100,4,2,1,90,0,1
174213,-111.111111111111,4,2,1,80,0,1
177845,-100,4,2,1,80,0,1
179266,-100,4,2,1,70,0,0

[Colours]
Combo1 : 32,225,32
Combo2 : 235,109,225
Combo3 : 24,242,248
Combo4 : 234,15,48

[HitObjects]
111,90,1161,6,0,L|274:69,1,150,4|8,0:0|0:0,0:0:0:0:
340,54,1634,2,0,P|386:128|370:208,1,150,2|2,0:0|0:0,0:0:0:0:
297,200,2108,1,8,0:0:0:0:
232,252,2266,6,0,P|158:276|96:247,1,150,4|0,0:0|0:0,0:0:0:0:
16,269,2739,2,0,L|21:348,1,75,8|0,0:0|0:0,0:0:0:0:
102,357,3055,1,2,0:0:0:0:
183,341,3213,1,0,0:0:0:0:
263,323,3371,2,0,P|309:337|349:373,1,75,8|0,0:0|0:0,0:0:0:0:
411,335,3687,6,0,P|447:299|431:185,1,150,4|8,0:0|0:0,0:0:0:0:
408,130,4161,2,0,B|376:128|340:164|340:164|309:139|258:150,1,150,2|2,0:0|0:0,0:0:0:0:
207,96,4634,1,8,0:0:0:0:
134,140,4792,6,0,P|66:142|22:65,1,150,4|0,0:0|0:0,0:0:0:0:
134,140,5266,2,0,L|132:237,1,75,8|0,0:0|0:0,0:0:0:0:
207,178,5582,2,0,L|210:90,1,75,2|0,0:0|0:0,0:0:0:0:
291,95,5897,1,8,0:0:0:0:
368,122,6055,1,0,0:0:0:0:
450,128,6213,6,0,P|489:206|471:291,1,150,4|8,0:0|0:0,0:0:0:0:
414,313,6687,2,0,L|248:308,1,150,2|2,0:0|0:0,0:0:0:0:
182,322,7161,1,8,0:0:0:0:
135,254,7318,6,0,P|130:175|150:106,1,150,4|0,0:0|0:0,0:0:0:0:
201,43,7792,1,8,0:0:0:0:
273,83,7950,2,0,L|454:72,1,150,2|2,0:0|0:0,0:0:0:0:
504,56,8424,1,8,0:0:0:0:
490,137,8582,1,2,0:0:0:0:
410,156,8739,6,0,L|236:163,1,150,4|8,0:0|0:0,0:0:0:0:
177,166,9213,2,0,P|153:225|175:330,1,150,4|0,0:0|0:0,0:0:0:0:
243,331,9687,1,8,0:0:0:0:
256,249,9845,6,0,P|340:240|373:293,1,150,4|0,0:0|0:0,0:0:0:0:
446,323,10318,1,8,0:0:0:0:
495,256,10476,1,2,0:0:0:0:
495,256,10555,1,8,0:0:0:0:
495,256,10634,2,0,L|501:160,1,75,0|8,0:0|0:0,0:0:0:0:
441,121,10950,1,8,0:0:0:0:
370,164,11108,1,0,0:0:0:0:
287,164,11266,6,0,P|196:151|134:209,1,150,4|0,0:0|0:0,0:0:0:0:
76,215,11739,2,0,L|62:371,2,150,2|2|2,0:0|0:0|0:0,0:0:0:0:
169,80,12687,5,0,0:0:0:0:
169,80,12845,1,0,0:0:0:0:
169,80,13003,2,0,L|327:66,2,150,2|2|2,0:0|0:0|0:0,0:0:0:0:
128,143,13792,6,0,P|116:200|121:224,1,75,2|0,0:0|0:0,0:0:0:0:
119,291,14108,1,0,0:0:0:0:
179,335,14266,2,0,P|280:310|345:318,2,150,2|2|2,0:0|0:0|0:0,0:0:0:0:
52,254,15213,5,0,0:0:0:0:
37,180,15371,1,0,0:0:0:0:
88,125,15529,2,0,P|153:151|227:131,1,150,2|0,0:0|0:0,0:0:0:0:
210,57,16003,1,0,0:0:0:0:
210,57,16161,1,0,0:0:0:0:
276,23,16318,6,0,P|381:18|456:18,1,150,2|0,0:0|0:0,0:0:0:0:
450,89,16792,2,0,P|479:160|421:222,2,150,2|0|2,0:0|0:0|0:0,0:0:0:0:
331,180,17739,5,0,0:0:0:0:
331,180,17897,1,0,0:0:0:0:
331,180,18055,2,0,L|319:272,1,75,0|0,0:0|0:0,0:0:0:0:
246,266,18371,2,0,L|265:338,2,75,0|0|0,0:0|0:0|0:0,0:0:0:0:
173,246,18845,6,0,P|67:233|15:245,1,150,2|0,0:0|0:0,0:0:0:0:
26,166,19318,2,0,P|20:84|15:67,1,75,2|0,0:0|0:0,0:0:0:0:
82,47,19634,2,0,P|161:48|249:44,1,150,0|2,0:0|0:0,0:0:0:0:
375,109,20266,6,0,P|339:169|327:253,1,150,2|0,0:0|0:0,0:0:0:0:
317,329,20739,1,4,0:3:0:0:
235,341,20897,1,8,0:0:0:0:
160,305,21055,2,0,L|152:258,3,37.5,8|8|8|8,0:0|0:0|0:0|0:0,0:0:0:0:
144,227,21371,6,0,L|166:122,1,75,4|0,0:0|0:0,0:0:0:0:
122,78,21687,1,8,0:0:0:0:
202,58,21845,2,0,P|303:44|369:44,1,150,2|0,0:0|0:0,0:0:0:0:
424,81,22318,1,8,0:0:0:0:
366,140,22476,6,0,P|324:200|346:286,1,150,2|0,0:0|0:0,0:0:0:0:
405,316,22950,1,8,0:0:0:0:
334,359,23108,2,0,B|266:355|266:355|161:382,1,150,2|0,0:0|0:0,0:0:0:0:
183,292,23582,1,8,0:0:0:0:
104,314,23739,1,0,0:0:0:0:
116,232,23897,6,0,P|129:168|137:142,1,75,2|0,0:0|0:0,0:0:0:0:
55,124,24213,1,8,0:0:0:0:
55,124,24371,2,0,P|45:160|39:197,1,75,2|0,0:0|0:0,0:0:0:0:
29,279,24687,1,0,0:0:0:0:
103,314,24845,1,8,0:0:0:0:
183,292,25003,6,0,P|266:282|334:278,1,150,2|0,0:0|0:0,0:0:0:0:
413,264,25476,1,8,0:0:0:0:
482,219,25634,2,0,P|476:132|477:117,1,75,2|0,0:0|0:0,0:0:0:0:
397,117,25950,2,0,P|403:30|402:15,2,75,0|8|0,0:0|0:0|0:0,0:0:0:0:
328,163,26424,6,0,P|234:146|216:98,1,150,4|8,0:0|0:0,0:0:0:0:
214,21,26897,2,0,P|114:33|60:33,1,150,2|2,0:0|0:0,0:0:0:0:
49,114,27371,1,8,0:0:0:0:
94,182,27529,6,0,P|79:238|72:340,1,150,2|0,0:0|0:0,0:0:0:0:
151,307,28003,1,8,0:0:0:0:
233,311,28161,2,0,L|328:297,1,75,2|0,0:0|0:0,0:0:0:0:
386,321,28476,1,0,0:0:0:0:
465,299,28634,1,8,0:0:0:0:
491,220,28792,1,0,0:0:0:0:
478,138,28950,6,0,P|449:122|331:165,1,150,2|8,0:0|0:0,0:0:0:0:
274,197,29424,1,2,0:0:0:0:
195,223,29582,2,0,L|90:235,2,75,0|2|8,0:0|0:0|0:0,0:0:0:0:
77,320,30055,6,0,L|94:146,1,150,4|8,0:0|0:0,0:0:0:0:
134,99,30529,1,8,0:0:0:0:
213,75,30687,1,4,0:3:0:0:
289,107,30845,2,0,L|275:215,2,75,2|8|8,0:0|0:0|0:0,0:0:0:0:
365,76,31318,1,8,0:0:0:0:
438,111,31476,6,0,P|449:180|436:266,1,134.999995880127,4|0,0:0|0:0,0:0:0:0:
425,317,31950,1,0,0:0:0:0:
353,295,32108,2,0,L|192:296,1,134.999995880127,8|0,0:0|0:0,0:0:0:0:
156,337,32582,6,0,P|68:317|43:269,1,134.999995880127,0|8,0:0|0:0,0:0:0:0:
75,214,33055,2,0,L|92:125,1,67.4999979400635,0|0,0:0|0:0,0:0:0:0:
151,109,33371,1,8,0:0:0:0:
216,143,33529,1,0,0:0:0:0:
289,133,33687,2,0,P|324:85|330:57,1,67.4999979400635
372,162,34003,6,0,P|341:216|332:301,1,134.999995880127
396,324,34476,1,0,0:0:0:0:
396,324,34634,2,0,L|488:308,1,67.4999979400635,8|0,0:0|0:0,0:0:0:0:
484,226,34950,1,0,0:0:0:0:
484,226,35108,6,0,L|417:237,1,67.4999979400635,0|0,0:0|0:0,0:0:0:0:
339,260,35424,1,8,0:0:0:0:
339,260,35582,2,0,L|265:246,2,67.4999979400635,0|0|8,0:0|0:0|0:0,0:0:0:0:
343,181,36055,2,0,L|269:167,2,67.4999979400635,0|4|4,0:0|0:3|0:3,0:0:0:0:
236,89,36529,6,0,P|197:139|205:216,1,134.999995880127,4|0,0:0|0:0,0:0:0:0:
83,322,37161,2,0,L|112:177,1,134.999995880127,8|0,0:0|0:0,0:0:0:0:
42,156,37634,6,0,P|83:114|158:133,1,134.999995880127,0|8,0:0|0:0,0:0:0:0:
220,178,38108,2,0,L|239:87,1,67.4999979400635,0|0,0:0|0:0,0:0:0:0:
291,53,38424,1,8,0:0:0:0:
370,69,38582,1,4,0:3:0:0:
370,69,38661,1,4,0:3:0:0:
370,69,38739,2,0,L|464:61,1,67.4999979400635,12|0,0:0|0:0,0:0:0:0:
477,140,39055,6,0,L|321:159,1,150,4|8,0:0|0:0,0:0:0:0:
246,171,39529,1,2,0:0:0:0:
163,178,39687,2,0,L|181:91,1,75,0|0,0:0|0:0,0:0:0:0:
112,53,40003,1,8,0:0:0:0:
55,113,40161,6,0,P|14:177|37:259,1,150,8|8,0:0|0:0,0:0:0:0:
47,326,40634,1,8,0:0:0:0:
202,269,40950,6,0,L|255:263,3,37.5,2|0|0|0,0:0|0:0|0:0|0:0,0:0:0:0:
274,242,41266,2,0,L|326:252,3,37.5,2|0|0|0,0:0|0:0|0:0|0:0,0:0:0:0:
349,233,41582,6,0,L|399:382,1,150,4|8,0:0|0:0,0:0:0:0:
468,334,42055,2,0,L|420:191,1,150,2|2,0:0|0:0,0:0:0:0:
377,120,42529,1,8,0:0:0:0:
316,64,42687,6,0,P|232:60|137:67,1,150,2|0,0:0|0:0,0:0:0:0:
89,94,43161,2,0,P|49:119|13:143,1,75,8|0,0:0|0:0,0:0:0:0:
74,201,43476,1,0,0:0:0:0:
74,201,43634,2,0,L|47:281,2,75,2|8|2,0:0|0:0|0:0,0:0:0:0:
152,173,44108,6,0,P|226:169|301:173,1,150,2|8,0:0|0:0,0:0:0:0:
384,166,44582,2,0,P|358:240|281:255,1,150,2|0,0:0|0:0,0:0:0:0:
212,248,45055,1,8,0:0:0:0:
130,234,45213,6,0,L|139:418,1,150,2|2,0:0|0:0,0:0:0:0:
213,350,45687,2,0,L|293:341,1,75,12|2,0:0|0:0,0:0:0:0:
366,317,46003,2,0,L|447:338,1,75,0|0,0:0|0:0,0:0:0:0:
490,272,46318,2,0,P|509:214|498:178,1,75,8|0,0:0|0:0,0:0:0:0:
454,95,46634,6,0,P|408:157|450:236,1,150,4|8,0:0|0:0,0:0:0:0:
348,228,47108,1,2,0:0:0:0:
348,228,47187,1,8,0:0:0:0:
348,228,47266,2,0,L|248:213,1,75,0|2,0:0|0:0,0:0:0:0:
192,204,47582,1,8,0:0:0:0:
120,240,47739,6,0,P|87:202|112:105,1,150,2|0,0:0|0:0,0:0:0:0:
188,104,48213,2,0,L|203:30,1,75,8|0,0:0|0:0,0:0:0:0:
274,73,48529,1,0,0:0:0:0:
355,59,48687,1,2,0:0:0:0:
422,107,48845,1,8,0:0:0:0:
503,94,49003,1,2,0:0:0:0:
507,176,49161,6,0,P|466:232|364:228,1,150,4|8,0:0|0:0,0:0:0:0:
289,192,49634,2,0,L|285:371,1,150,12|0,0:0|0:0,0:0:0:0:
193,259,50108,2,0,B|127:250|61:295|61:295|32:260|31:215,1,225,12|2,0:0|0:0,0:0:0:0:
54,115,50739,6,0,L|157:147,1,75,12|2,0:0|0:0,0:0:0:0:
223,134,51055,2,0,P|237:68|235:33,1,75,0|2,0:0|0:0,0:0:0:0:
333,40,51371,2,0,L|378:45,3,37.5,8|8|8|8,0:0|0:0|0:0|0:0,0:0:0:0:
415,51,51687,6,0,P|424:122|417:145,1,75,4|0,0:0|0:0,0:0:0:0:
365,184,52003,1,8,0:0:0:0:
293,226,52161,2,0,B|252:248|190:241|190:241|167:193,1,150,2|2,0:0|0:0,0:0:0:0:
89,217,52634,1,8,0:0:0:0:
53,308,52792,6,0,P|152:311|195:345,1,150,2|0,0:0|0:0,0:0:0:0:
273,337,53266,2,0,L|366:324,1,75,8|0,0:0|0:0,0:0:0:0:
430,324,53582,1,0,0:0:0:0:
430,324,53739,1,2,0:0:0:0:
496,274,53897,1,8,0:0:0:0:
496,274,54055,1,2,0:0:0:0:
482,192,54213,6,0,P|490:139|486:118,1,75,2|0,0:0|0:0,0:0:0:0:
409,85,54529,1,8,0:0:0:0:
351,144,54687,2,0,L|194:146,1,150,2|2,0:0|0:0,0:0:0:0:
118,158,55161,1,8,0:0:0:0:
105,70,55318,6,0,L|262:58,1,150,2|0,0:0|0:0,0:0:0:0:
337,53,55792,2,0,L|444:40,1,75,8|0,0:0|0:0,0:0:0:0:
459,111,56108,2,0,P|473:169|461:206,1,75,2|0,0:0|0:0,0:0:0:0:
402,230,56424,2,0,L|390:289,2,37.5,12|0|0,0:0|0:0|0:0,0:0:0:0:
320,215,56739,6,0,P|208:210|142:207,1,150,4|8,0:0|0:0,0:0:0:0:
101,254,57213,1,2,0:0:0:0:
101,254,57292,1,8,0:0:0:0:
101,254,57371,2,0,L|76:346,1,75,0|0,0:0|0:0,0:0:0:0:
163,315,57687,1,8,0:0:0:0:
240,342,57845,6,0,P|278:357|380:309,1,150,2|0,0:0|0:0,0:0:0:0:
443,274,58318,2,0,L|440:189,1,75,8|0,0:0|0:0,0:0:0:0:
362,171,58634,2,0,L|364:245,1,75,0|2,0:0|0:0,0:0:0:0:
282,230,58950,2,0,L|279:155,1,75,8|2,0:0|0:0,0:0:0:0:
208,266,59266,6,0,B|165:246|165:246|36:264,1,150,4|8,0:0|0:0,0:0:0:0:
17,161,59739,2,0,B|60:181|60:181|189:163,1,150,12|2,0:0|0:0,0:0:0:0:
244,173,60213,1,8,0:0:0:0:
313,118,60371,6,0,B|349:136|349:136|377:260,1,150,4|2,0:0|0:0,0:0:0:0:
382,325,60845,1,8,0:0:0:0:
462,306,61003,1,4,0:3:0:0:
462,306,61082,1,4,0:3:0:0:
462,306,61161,2,0,L|469:227,1,75,8|2,0:0|0:0,0:0:0:0:
476,149,61476,2,0,L|462:70,1,75,8|8,0:0|0:0,0:0:0:0:
389,57,61792,6,0,L|241:66,1,134.999995880127,4|0,0:0|0:0,0:0:0:0:
174,81,62266,2,0,L|90:64,1,67.4999979400635,0|8,0:0|0:0,0:0:0:0:
92,147,62582,2,0,L|158:160,1,67.4999979400635,0|0,0:0|0:0,0:0:0:0:
229,199,62897,6,0,L|363:190,1,134.999995880127,0|8,0:0|0:0,0:0:0:0:
432,233,63371,2,0,L|439:311,1,67.4999979400635,0|0,0:0|0:0,0:0:0:0:
364,335,63687,2,0,L|357:267,1,67.4999979400635,8|0,0:0|0:0,0:0:0:0:
278,286,64003,1,0,0:0:0:0:
198,291,64161,1,0,0:0:0:0:
117,293,64318,6,0,L|121:151,1,134.999995880127,4|0,0:0|0:0,0:0:0:0:
193,120,64792,2,0,L|188:52,1,67.4999979400635,0|8,0:0|0:0,0:0:0:0:
268,63,65108,1,8,0:0:0:0:
347,76,65266,1,0,0:0:0:0:
418,116,65424,6,0,P|446:185|419:280,1,150,4|8,0:0|0:0,0:0:0:0:
351,243,65897,1,0,0:0:0:0:
280,285,66055,2,0,L|116:281,1,150,8|8,0:0|0:0,0:0:0:0:
47,276,66529,1,8,0:0:0:0:
13,200,66687,1,8,0:0:0:0:
38,121,66845,5,4,0:0:0:0:
256,192,66924,12,4,69371,0:0:0:0:
209,251,74424,6,0,L|383:244,1,150,4|8,0:0|0:0,0:0:0:0:
434,279,74897,2,0,P|458:220|436:115,1,150,4|0,0:0|0:0,0:0:0:0:
381,85,75371,1,8,0:0:0:0:
299,96,75529,6,0,P|215:105|182:52,1,150,4|2,0:0|0:0,0:0:0:0:
100,61,76003,1,8,0:0:0:0:
78,138,76161,1,2,0:0:0:0:
78,138,76239,1,8,0:0:0:0:
78,138,76318,2,0,L|72:234,1,75,0|2,0:0|0:0,0:0:0:0:
54,293,76634,1,8,0:0:0:0:
112,351,76792,1,0,0:0:0:0:
178,302,76950,6,0,P|255:280|321:317,1,150,4|0,0:0|0:0,0:0:0:0:
397,310,77424,2,0,L|392:232,1,75,2|0,0:0|0:0,0:0:0:0:
466,143,77739,2,0,L|470:217,1,75,2|0,0:0|0:0,0:0:0:0:
382,160,78055,6,0,L|226:147,1,150,2|2,0:0|0:0,0:0:0:0:
161,104,78529,1,0,0:0:0:0:
86,140,78687,2,0,P|50:190|68:289,1,150,2|2,0:0|0:0,0:0:0:0:
140,283,79161,2,0,P|151:318|153:355,1,75,8|0,0:0|0:0,0:0:0:0:
230,325,79476,6,0,L|405:306,1,150,2|0,0:0|0:0,0:0:0:0:
452,268,79950,2,0,P|453:193|430:122,1,150,2|2,0:0|0:0,0:0:0:0:
356,85,80424,1,0,0:0:0:0:
289,133,80582,6,0,L|117:138,1,150,2|0,0:0|0:0,0:0:0:0:
57,122,81055,1,0,0:0:0:0:
65,203,81213,2,0,L|61:313,1,75,2|0,0:0|0:0,0:0:0:0:
145,275,81529,1,0,0:0:0:0:
222,246,81687,1,8,0:0:0:0:
299,274,81845,1,0,0:0:0:0:
346,340,82003,6,0,P|420:338|495:334,1,150,2|0,0:0|0:0,0:0:0:0:
470,255,82476,2,0,P|441:184|499:122,1,150,2|2,0:0|0:0,0:0:0:0:
465,47,82950,2,0,L|368:22,1,75,0|2,0:0|0:0,0:0:0:0:
362,105,83266,6,0,L|189:88,1,150,0|0,0:0|0:0,0:0:0:0:
130,102,83739,2,0,L|142:10,1,75,0|2,0:0|0:0,0:0:0:0:
57,40,84055,2,0,L|41:121,2,75,0|8|0,0:0|0:0|0:0,0:0:0:0:
98,170,84529,6,0,P|204:183|256:171,1,150,2|0,0:0|0:0,0:0:0:0:
327,170,85003,2,0,P|333:252|338:269,1,75,2|0,0:0|0:0,0:0:0:0:
337,327,85318,2,0,P|258:326|170:330,1,150,2|8,0:0|0:0,0:0:0:0:
243,119,86582,5,12,0:0:0:0:
323,136,86739,2,0,L|376:130,3,37.5,8|8|8|8,0:0|0:0|0:0|0:0,0:0:0:0:
401,139,87055,6,0,L|379:244,1,75,4|0,0:0|0:0,0:0:0:0:
440,274,87371,1,8,0:0:0:0:
380,326,87529,2,0,P|279:340|213:340,1,150,2|2,0:0|0:0,0:0:0:0:
148,346,88003,1,8,0:0:0:0:
80,298,88161,6,0,P|74:239|100:152,1,150,2|0,0:0|0:0,0:0:0:0:
137,78,88634,1,8,0:0:0:0:
197,133,88792,2,0,B|249:116|305:146|305:146|329:131|352:108,1,150,2|2,0:0|0:0,0:0:0:0:
342,40,89266,1,8,0:0:0:0:
419,66,89424,1,0,0:0:0:0:
448,143,89582,6,0,P|435:207|427:233,1,75,2|0,0:0|0:0,0:0:0:0:
349,219,89897,1,8,0:0:0:0:
349,219,90055,2,0,P|359:183|365:146,1,75,2|0,0:0|0:0,0:0:0:0:
290,108,90371,1,2,0:0:0:0:
225,159,90529,1,8,0:0:0:0:
178,227,90687,6,0,P|95:237|27:241,1,150,2|0,0:0|0:0,0:0:0:0:
26,158,91161,1,8,0:0:0:0:
89,105,91318,2,0,P|87:67|82:30,1,75,0|2,0:0|0:0,0:0:0:0:
192,11,91634,2,0,P|186:98|187:113,2,75,0|8|0,0:0|0:0|0:0,0:0:0:0:
266,47,92108,6,0,P|360:64|378:112,1,150,4|8,0:0|0:0,0:0:0:0:
363,187,92582,2,0,P|463:175|517:175,1,150,2|0,0:0|0:0,0:0:0:0:
485,253,93055,1,8,0:0:0:0:
415,298,93213,6,0,P|340:293|267:275,1,150,2|0,0:0|0:0,0:0:0:0:
225,203,93687,1,8,0:0:0:0:
236,121,93845,2,0,L|141:135,1,75,0|2,0:0|0:0,0:0:0:0:
92,86,94161,1,0,0:0:0:0:
62,163,94318,1,8,0:0:0:0:
27,238,94476,1,0,0:0:0:0:
36,319,94634,6,0,P|65:335|183:292,1,150,2|8,0:0|0:0,0:0:0:0:
231,250,95108,1,2,0:0:0:0:
267,175,95266,2,0,L|270:92,2,75,0|2|8,0:0|0:0|0:0,0:0:0:0:
349,176,95739,6,0,L|332:350,1,150,4|8,0:0|0:0,0:0:0:0:
398,377,96213,1,8,0:0:0:0:
425,298,96371,1,0,0:0:0:0:
471,229,96529,2,0,L|485:121,2,75,4|8|8,0:0|0:0|0:0,0:0:0:0:
388,226,97003,1,8,0:0:0:0:
313,221,97161,6,0,P|302:152|315:66,1,134.999995880127,4|0,0:0|0:0,0:0:0:0:
265,26,97634,1,0,0:0:0:0:
202,65,97792,2,0,L|67:65,1,134.999995880127,8|0,0:0|0:0,0:0:0:0:
81,139,98266,6,0,P|61:227|13:252,1,134.999995880127,0|8,0:0|0:0,0:0:0:0:
48,319,98739,2,0,L|116:312,1,67.4999979400635,0|0,0:0|0:0,0:0:0:0:
189,319,99055,1,8,0:0:0:0:
262,329,99213,1,0,0:0:0:0:
302,266,99371,2,0,P|316:235|339:211,1,67.4999979400635
410,234,99687,6,0,P|441:180|450:95,1,134.999995880127,0|0,0:0|0:0,0:0:0:0:
385,74,100161,1,0,0:0:0:0:
385,74,100318,2,0,L|293:90,1,67.4999979400635,8|0,0:0|0:0,0:0:0:0:
253,122,100634,1,0,0:0:0:0:
253,122,100792,6,0,P|252:169|248:202,1,67.4999979400635,0|0,0:0|0:0,0:0:0:0:
255,263,101108,2,0,L|321:275,2,67.4999979400635,8|0|0,0:0|0:0|0:0,0:0:0:0:
200,313,101582,2,0,L|133:300,2,67.4999979400635,8|0|4,0:0|0:0|0:3,0:0:0:0:
264,349,102055,1,4,0:3:0:0:
338,341,102213,6,0,P|377:291|369:214,1,134.999995880127,4|0,0:0|0:0,0:0:0:0:
304,63,102845,2,0,L|457:50,1,134.999995880127,8|0,0:0|0:0,0:0:0:0:
467,120,103318,6,0,P|426:162|351:143,1,134.999995880127,0|8,0:0|0:0,0:0:0:0:
288,180,103792,2,0,L|269:271,1,67.4999979400635,0|0,0:0|0:0,0:0:0:0:
252,317,104108,1,8,0:0:0:0:
178,328,104266,1,4,0:3:0:0:
178,328,104345,1,4,0:3:0:0:
178,328,104424,2,0,L|84:336,1,67.4999979400635,12|0,0:0|0:0,0:0:0:0:
63,265,104739,6,0,L|219:246,1,150,4|8,0:0|0:0,0:0:0:0:
281,197,105213,1,2,0:0:0:0:
350,244,105371,2,0,L|332:331,1,75,0|0,0:0|0:0,0:0:0:0:
415,336,105687,1,8,0:0:0:0:
484,291,105845,6,0,P|525:227|502:145,1,150,8|8,0:0|0:0,0:0:0:0:
460,93,106318,1,8,0:0:0:0:
299,56,106634,6,0,L|246:62,3,37.5,2|0|0|0,0:0|0:0|0:0|0:0,0:0:0:0:
235,92,106950,2,0,L|183:82,3,37.5,2|0|0|0,0:0|0:0|0:0|0:0,0:0:0:0:
163,107,107266,6,0,L|145:268,1,150,4|8,0:0|0:0,0:0:0:0:
82,320,107739,2,0,P|181:280|249:271,1,150,2|2,0:0|0:0,0:0:0:0:
302,229,108213,1,8,0:0:0:0:
309,318,108371,6,0,P|393:322|488:315,1,150,2|0,0:0|0:0,0:0:0:0:
474,229,108845,2,0,P|449:189|425:153,1,75,8|0,0:0|0:0,0:0:0:0:
483,90,109161,1,0,0:0:0:0:
483,90,109318,2,0,L|510:10,2,75,2|8|2,0:0|0:0|0:0,0:0:0:0:
393,103,109792,6,0,P|319:107|244:103,1,150,2|8,0:0|0:0,0:0:0:0:
160,66,110266,2,0,P|91:89|70:158,1,150,2|0,0:0|0:0,0:0:0:0:
121,232,110739,1,8,0:0:0:0:
210,226,110897,6,0,L|217:375,1,150,2|0,0:0|0:0,0:0:0:0:
295,330,111371,2,0,L|369:321,1,75,8|2,0:0|0:0,0:0:0:0:
392,234,111687,2,0,L|464:252,1,75
448,164,112003,2,0,P|468:135|468:91,1,75,8|0,0:0|0:0,0:0:0:0:
382,71,112318,6,0,P|320:25|241:67,1,150,2|8,0:0|0:0,0:0:0:0:
202,119,112792,1,2,0:0:0:0:
202,119,112871,1,8,0:0:0:0:
202,119,112950,2,0,L|185:207,1,75,0|0,0:0|0:0,0:0:0:0:
275,215,113266,1,8,0:0:0:0:
363,206,113424,6,0,P|396:244|371:341,1,150,2|0,0:0|0:0,0:0:0:0:
293,368,113897,2,0,L|218:358,1,75,8|0,0:0|0:0,0:0:0:0:
128,345,114213,1,0,0:0:0:0:
38,337,114371,1,2,0:0:0:0:
100,271,114529,1,8,0:0:0:0:
10,259,114687,1,2,0:0:0:0:
41,174,114845,6,0,P|82:118|184:122,1,150,4|8,0:0|0:0,0:0:0:0:
272,169,115318,2,0,P|231:225|129:221,1,150,4|2,0:0|0:0,0:0:0:0:
178,136,115792,2,0,B|235:87|235:87|259:103|340:96|340:96|354:73|363:46,1,225,12|2,0:0|0:0,0:0:0:0:
439,118,116424,6,0,L|510:140,1,75,12|2,0:0|0:0,0:0:0:0:
445,213,116739,2,0,P|431:279|433:314,1,75,0|2,0:0|0:0,0:0:0:0:
336,314,117055,2,0,L|291:309,3,37.5,8|8|8|8,0:0|0:0|0:0|0:0,0:0:0:0:
267,343,117371,6,0,P|258:272|265:249,1,75,4|0,0:0|0:0,0:0:0:0:
300,189,117687,1,8,0:0:0:0:
296,99,117845,2,0,B|276:59|276:59|214:52|173:74,1,150,2|2,0:0|0:0,0:0:0:0:
100,126,118318,1,8,0:0:0:0:
81,214,118476,6,0,P|144:251|218:245,1,150,2|0,0:0|0:0,0:0:0:0:
300,206,118950,2,0,L|374:195,1,75,8|0,0:0|0:0,0:0:0:0:
461,219,119266,1,0,0:0:0:0:
461,219,119424,1,2,0:0:0:0:
435,305,119582,1,8,0:0:0:0:
435,305,119739,1,2,0:0:0:0:
344,305,119897,6,0,P|343:341|340:379,1,75,2|0,0:0|0:0,0:0:0:0:
251,358,120213,1,8,0:0:0:0:
215,275,120371,2,0,L|65:276,1,150,2|2,0:0|0:0,0:0:0:0:
57,186,120845,1,8,0:0:0:0:
94,104,121003,6,0,L|252:128,1,150,2|0,0:0|0:0,0:0:0:0:
302,194,121476,2,0,L|376:184,1,75,8|0,0:0|0:0,0:0:0:0:
459,147,121792,2,0,P|457:184|470:218,1,75,2|0,0:0|0:0,0:0:0:0:
456,308,122108,2,0,L|448:344,2,37.5,12|0|0,0:0|0:0|0:0,0:0:0:0:
385,252,122424,6,0,P|310:248|235:245,1,150,4|8,0:0|0:0,0:0:0:0:
174,178,122897,1,2,0:0:0:0:
174,178,122976,1,8,0:0:0:0:
174,178,123055,2,0,L|199:86,1,75,0|2,0:0|0:0,0:0:0:0:
269,56,123371,1,8,0:0:0:0:
346,102,123529,6,0,P|408:63|479:78,1,150,2|0,0:0|0:0,0:0:0:0:
469,167,124003,2,0,L|472:252,1,75,8|0,0:0|0:0,0:0:0:0:
392,284,124318,2,0,L|390:210,1,75,0|2,0:0|0:0,0:0:0:0:
308,249,124634,2,0,L|311:324,1,75,8|2,0:0|0:0,0:0:0:0:
226,277,124950,6,0,B|124:291|124:291|81:271,1,150,4|8,0:0|0:0,0:0:0:0:
18,182,125424,2,0,B|119:167|119:167|162:187,1,150,12|2,0:0|0:0,0:0:0:0:
247,157,125897,1,8,0:0:0:0:
330,189,126055,6,0,B|294:171|294:171|266:47,1,150,4|2,0:0|0:0,0:0:0:0:
187,26,126529,1,8,0:0:0:0:
107,67,126687,1,4,0:3:0:0:
107,67,126766,1,4,0:3:0:0:
107,67,126845,2,0,L|100:146,1,75,8|2,0:0|0:0,0:0:0:0:
183,177,127161,2,0,L|157:264,1,75,8|8,0:0|0:0,0:0:0:0:
127,313,127476,6,0,L|276:297,1,134.999995880127,4|0,0:0|0:0,0:0:0:0:
338,325,127950,2,0,L|422:342,1,67.4999979400635,0|8,0:0|0:0,0:0:0:0:
437,263,128266,2,0,L|371:250,1,67.4999979400635,0|0,0:0|0:0,0:0:0:0:
320,186,128582,6,0,L|186:195,1,134.999995880127,0|8,0:0|0:0,0:0:0:0:
104,186,129055,2,0,L|97:108,1,67.4999979400635,0|0,0:0|0:0,0:0:0:0:
167,38,129371,2,0,L|174:106,1,67.4999979400635,8|0,0:0|0:0,0:0:0:0:
251,79,129687,1,0,0:0:0:0:
331,82,129845,1,0,0:0:0:0:
386,140,130003,6,0,L|382:282,1,134.999995880127,4|0,0:0|0:0,0:0:0:0:
300,274,130476,2,0,L|305:342,1,67.4999979400635,0|8,0:0|0:0,0:0:0:0:
223,335,130792,1,8,0:0:0:0:
144,353,130950,1,0,0:0:0:0:
68,319,131108,6,0,P|40:250|67:155,1,150,4|8,0:0|0:0,0:0:0:0:
97,107,131582,1,0,0:0:0:0:
178,112,131739,2,0,L|342:116,1,150,8|8,0:0|0:0,0:0:0:0:
398,67,132213,1,8,0:0:0:0:
458,126,132371,1,8,0:0:0:0:
429,203,132529,5,4,0:0:0:0:
246,167,142634,5,4,0:0:0:0:
246,167,142950,2,0,L|237:258,1,67.4999979400635,0|0,0:0|0:0,0:0:0:0:
235,315,143266,2,0,B|292:336|326:303|388:324,1,134.999995880127,8|0,0:0|0:0,0:0:0:0:
440,280,143739,6,0,P|484:212|460:152,1,134.999995880127,2|0,0:0|0:0,0:0:0:0:
424,96,144213,2,0,L|328:108,1,67.4999979400635,0|0,0:0|0:0,0:0:0:0:
276,112,144529,2,0,L|132:92,1,134.999995880127,8|0,0:0|0:0,0:0:0:0:
32,216,145161,6,0,P|40:96|24:68,1,134.999995880127,2|0,0:0|0:0,0:0:0:0:
116,92,145634,1,0,0:0:0:0:
144,168,145792,2,0,P|136:288|152:316,1,134.999995880127,8|0,0:0|0:0,0:0:0:0:
220,312,146266,6,0,L|368:296,1,134.999995880127,2|0,0:0|0:0,0:0:0:0:
428,264,146739,2,0,L|504:284,2,67.4999979400635,0|0|8,0:0|0:0|0:0,0:0:0:0:
438,83,147371,1,0,0:0:0:0:
304,200,147687,6,0,L|312:112,1,67.4999979400635,4|0,0:0|0:0,0:0:0:0:
213,187,148003,2,0,L|222:278,1,67.4999979400635,0|0,0:0|0:0,0:0:0:0:
240,332,148318,2,0,B|183:353|149:320|106:335,1,134.999995880127,8|0,0:0|0:0,0:0:0:0:
33,300,148792,6,0,P|26:219|75:177,1,134.999995880127,2|0,0:0|0:0,0:0:0:0:
140,170,149266,2,0,L|160:253,1,67.4999979400635,0|0,0:0|0:0,0:0:0:0:
229,190,149582,2,0,L|373:170,1,134.999995880127,8|0,0:0|0:0,0:0:0:0:
489,69,150213,6,0,P|474:134|492:198,1,134.999995880127,2|0,0:0|0:0,0:0:0:0:
469,276,150687,1,0,0:0:0:0:
388,283,150845,2,0,P|322:268|258:286,1,134.999995880127,8|0,0:0|0:0,0:0:0:0:
193,334,151318,1,4,0:0:0:0:
256,192,151397,12,2,154003,0:0:0:0:
162,124,161582,6,0,P|232:124|288:39,1,150,4|8,0:0|0:0,0:0:0:0:
442,120,162055,2,0,P|372:120|315:205,1,150,4|2,0:0|0:0,0:0:0:0:
299,287,162529,2,0,B|279:252|279:252|231:245|183:268|183:268|147:234|161:174,1,225,12|2,0:0|0:0,0:0:0:0:
102,108,163161,6,0,L|173:85,1,75,8|2,0:0|0:0,0:0:0:0:
270,70,163476,2,0,P|275:107|273:144,1,75,8|8,0:0|0:0,0:0:0:0:
193,201,163792,2,0,L|180:253,3,37.5,8|8|8|8,0:0|0:0|0:0|0:0,0:0:0:0:
173,281,164108,6,0,P|244:290|267:283,1,75,4|0,0:0|0:0,0:0:0:0:
324,243,164424,1,8,0:0:0:0:
379,313,164582,2,0,B|420:335|482:328|482:328|501:288,1,150,2|2,0:0|0:0,0:0:0:0:
483,199,165055,1,8,0:0:0:0:
486,109,165213,6,0,P|412:103|348:140,1,150,2|0,0:0|0:0,0:0:0:0:
260,117,165687,2,0,L|266:28,1,75,8|0,0:0|0:0,0:0:0:0:
178,70,166003,1,0,0:0:0:0:
178,70,166161,1,2,0:0:0:0:
90,52,166318,1,8,0:0:0:0:
90,52,166476,1,2,0:0:0:0:
30,117,166634,6,0,P|33:154|34:191,1,75,2|0,0:0|0:0,0:0:0:0:
23,281,166950,1,8,0:0:0:0:
111,264,167108,2,0,L|260:265,1,150,2|2,0:0|0:0,0:0:0:0:
324,201,167582,1,8,0:0:0:0:
410,222,167739,6,0,P|441:153|398:73,1,150,2|0,0:0|0:0,0:0:0:0:
332,53,168213,2,0,L|248:65,1,75,8|0,0:0|0:0,0:0:0:0:
169,44,168529,2,0,P|155:78|157:115,1,75,2|0,0:0|0:0,0:0:0:0:
149,206,168845,2,0,L|112:207,2,37.5,12|0|0,0:0|0:0|0:0,0:0:0:0:
226,159,169161,6,0,P|300:155|375:152,1,150,4|8,0:0|0:0,0:0:0:0:
440,215,169634,1,2,0:0:0:0:
440,215,169713,1,8,0:0:0:0:
440,215,169792,2,0,L|465:307,1,75,0|2,0:0|0:0,0:0:0:0:
374,319,170108,1,8,0:0:0:0:
284,328,170266,6,0,P|212:342|150:304,1,150,2|0,0:0|0:0,0:0:0:0:
68,267,170739,2,0,L|71:182,1,75,8|0,0:0|0:0,0:0:0:0:
103,107,171055,2,0,L|184:164,2,75,0|2|8,0:0|0:0|0:0,0:0:0:0:
153,31,171529,1,2,0:0:0:0:
234,70,171687,6,0,B|290:66|326:92|326:92|378:64,1,150,4|8,0:0|0:0,0:0:0:0:
267,177,172161,2,0,B|319:202|368:191|368:191|409:156,1,150,4|2,0:0|0:0,0:0:0:0:
452,236,172634,1,8,0:0:0:0:
362,249,172792,6,0,B|326:267|326:267|296:316|298:391,1,150,4|8,0:0|0:0,0:0:0:0:
219,327,173266,1,8,0:0:0:0:
129,337,173424,1,4,0:3:0:0:
129,337,173503,1,4,0:3:0:0:
129,337,173582,2,0,L|122:258,1,75,8|2,0:0|0:0,0:0:0:0:
156,179,173897,2,0,L|79:165,1,75,8|8,0:0|0:0,0:0:0:0:
84,83,174213,6,0,L|239:113,1,134.999995880127,4|0,0:0|0:0,0:0:0:0:
298,91,174687,2,0,L|382:74,1,67.4999979400635,0|8,0:0|0:0,0:0:0:0:
437,113,175003,2,0,L|424:192,1,67.4999979400635,0|0,0:0|0:0,0:0:0:0:
349,207,175318,6,0,L|365:341,1,134.999995880127,0|8,0:0|0:0,0:0:0:0:
286,363,175792,2,0,L|277:289,1,67.4999979400635,0|0,0:0|0:0,0:0:0:0:
259,216,176108,2,0,L|199:248,1,67.4999979400635,8|0,0:0|0:0,0:0:0:0:
151,313,176424,1,0,0:0:0:0:
70,322,176582,1,0,0:0:0:0:
19,259,176739,6,0,L|15:117,1,134.999995880127,4|0,0:0|0:0,0:0:0:0:
94,106,177213,2,0,L|97:181,1,67.4999979400635,0|8,0:0|0:0,0:0:0:0:
163,220,177529,1,8,0:0:0:0:
242,202,177687,1,0,0:0:0:0:
324,202,177845,6,0,P|331:266|323:366,1,150,4|12,0:0|0:0,0:0:0:0:
408,347,178318,1,0,0:0:0:0:
463,285,178476,2,0,P|456:221|464:121,1,150,4|8,0:0|0:0,0:0:0:0:
473,53,178950,1,8,0:0:0:0:
390,53,179108,1,8,0:0:0:0:
322,100,179266,5,12,0:0:0:0:
256,192,179345,12,4,181792,0:0:0:0:
