osu file format v14

[General]
AudioFilename: AIS.mp3
AudioLeadIn: 0
PreviewTime: 40871
Countdown: 0
SampleSet: Soft
StackLeniency: 0.7
Mode: 0
LetterboxInBreaks: 0
WidescreenStoryboard: 1

[Editor]
DistanceSpacing: 1
BeatDivisor: 4
GridSize: 4
TimelineZoom: 1.3

[Metadata]
Title:AOI-IRO STEP
TitleUnicode:葵色ステップ
Artist:yuikonnu
ArtistUnicode:ゆいこんぬ
Creator:Fycho
Version:Easy
Source:
Tags:めいこ meiko しぐれうい shigure ui 初音ミク hatsune miku vocaloid ねじまきと置き手紙 nejimaki to oki tegami 魔法のための少女クラブ Mahou no tame no Shoujo Club amamiya yuko skystar xinely
BeatmapID:623273
BeatmapSetID:274645

[Difficulty]
HPDrainRate:2
CircleSize:3
OverallDifficulty:2
ApproachRate:3
SliderMultiplier:0.9
SliderTickRate:1

[Events]
//Background and Video events
0,0,"aisbg.jpg",0,0
//Break Periods
2,13992,19931
2,69571,75510
2,132728,141194
2,154203,160142
//Storyboard Layer 0 (Background)
//Storyboard Layer 1 (Fail)
//Storyboard Layer 2 (Pass)
//Storyboard Layer 3 (Foreground)
//Storyboard Sound Samples

[TimingPoints]
1161,315.789473684211,4,2,1,80,1,0
11582,-100,4,2,1,60,0,0
21371,-100,4,2,1,70,0,0
41582,-100,4,2,1,90,0,1
61792,-100,4,2,1,70,0,1
66845,-100,4,2,1,30,0,0
69371,-100,4,2,1,60,0,0
87055,-100,4,2,1,70,0,0
107266,-100,4,2,1,90,0,1
127476,-100,4,2,1,70,0,1
132529,-100,4,2,1,70,0,0
151318,-100,4,2,1,20,0,0
154003,-100,4,2,1,50,0,0
161582,-100,4,2,1,70,0,1
163792,-100,4,2,1,70,0,0
164108,-100,4,2,1,90,0,1
174213,-100,4,2,1,70,0,1
179266,-100,4,2,1,60,0,0

[Colours]
Combo1 : 32,225,32
Combo2 : 235,109,225
Combo3 : 24,242,248
Combo4 : 234,15,48

[HitObjects]
99,91,1161,6,0,P|59:184|76:224,1,135,4|2,0:0|0:0,0:0:0:0:
97,295,1950,2,0,L|192:285,1,90,2|4,0:0|0:0,0:0:0:0:
319,260,2739,2,0,L|414:280,2,90,8|2|8,0:0|0:0|0:0,0:0:0:0:
241,212,3687,6,0,P|262:120|248:65,1,135,4|2,0:0|0:0,0:0:0:0:
168,53,4476,2,0,L|80:70,1,90,2|4,0:0|0:0,0:0:0:0:
24,193,5266,2,0,L|128:174,1,90,8|2,0:0|0:0,0:0:0:0:
200,158,5897,1,8,0:0:0:0:
288,142,6213,6,0,P|309:216|298:291,1,135,4|2,0:0|0:0,0:0:0:0:
215,294,7003,2,0,L|114:282,1,90,2|4,0:0|0:0,0:0:0:0:
36,181,7792,1,8,0:0:0:0:
89,108,8108,2,0,L|196:117,1,90,2|8,0:0|0:0,0:0:0:0:
255,162,8739,6,0,L|403:153,1,135,4|4,0:0|0:0,0:0:0:0:
446,224,9529,1,2,0:0:0:0:
375,280,9845,2,0,L|240:288,1,135,4|8,0:0|0:0,0:0:0:0:
150,282,10634,2,0,L|126:373,2,90,2|8|4,0:0|0:0|0:0,0:0:0:0:
256,192,11424,12,2,13792,0:0:0:0:
338,57,21371,6,0,L|189:60,1,135,4|2,0:0|0:0,0:0:0:0:
126,107,22161,1,2,0:0:0:0:
59,166,22476,2,0,P|39:210|56:309,1,135,2|8,0:0|0:0,0:0:0:0:
137,302,23266,2,0,L|238:296,1,90,0|8,0:0|0:0,0:0:0:0:
200,210,23897,6,0,L|351:204,1,135,2|2,0:0|0:0,0:0:0:0:
396,270,24687,1,2,0:0:0:0:
478,238,25003,2,0,P|497:179|465:98,1,135,2|8,0:0|0:0,0:0:0:0:
399,63,25792,2,0,L|299:96,1,90,2|8,0:0|0:0,0:0:0:0:
225,112,26424,6,0,L|201:255,1,135,4|2,0:0|0:0,0:0:0:0:
140,310,27213,1,2,0:0:0:0:
50,317,27529,2,0,L|74:185,1,135,2|8,0:0|0:0,0:0:0:0:
100,97,28318,2,0,P|148:89|196:97,1,90,2|8,0:0|0:0,0:0:0:0:
225,177,28950,6,0,L|205:280,1,90,2|8,0:0|0:0,0:0:0:0:
241,349,29582,1,2,0:0:0:0:
375,344,30055,2,0,P|430:278|433:187,1,180,4|4,0:0|0:3,0:0:0:0:
384,112,31003,2,0,L|241:123,1,135,8|4,0:0|0:0,0:0:0:0:
160,128,31792,5,0,0:0:0:0:
88,184,32108,2,0,L|56:337,1,135,8|0,0:0|0:0,0:0:0:0:
148,304,32897,2,0,P|229:289|286:318,1,135,8|8,0:0|0:0,0:0:0:0:
364,304,33687,1,0,0:0:0:0:
435,248,34003,6,0,P|470:194|480:149,1,90
422,98,34634,1,8,0:0:0:0:
296,147,35108,2,0,L|142:151,1,135,0|0,0:0|0:0,0:0:0:0:
99,216,35897,2,0,P|81:300|86:314,1,90,8|4,0:0|0:3,0:0:0:0:
171,304,36529,5,4,0:0:0:0:
258,282,36845,1,0,0:0:0:0:
346,299,37161,2,0,L|491:287,1,135,8|0,0:0|0:0,0:0:0:0:
443,205,37950,2,0,P|445:114|461:67,1,135,8|8,0:0|0:0,0:0:0:0:
369,61,38739,1,12,0:0:0:0:
284,91,39055,6,0,L|144:98,1,135,4|2,0:0|0:0,0:0:0:0:
101,174,39845,2,0,L|97:281,1,90,0|8,0:0|0:0,0:0:0:0:
187,273,40476,2,0,L|241:257,1,45,8|8,0:0|0:0,0:0:0:0:
274,181,40950,2,0,L|366:219,1,90,2|2,0:0|0:0,0:0:0:0:
442,246,41582,6,0,L|453:110,1,135,4|2,0:0|0:0,0:0:0:0:
365,88,42371,1,2,0:0:0:0:
291,139,42687,2,0,P|222:142|171:104,1,135,2|8,0:0|0:0,0:0:0:0:
92,147,43476,2,0,P|64:212|66:236,1,90,0|8,0:0|0:0,0:0:0:0:
105,310,44108,6,0,L|261:306,1,135,2|2,0:0|0:0,0:0:0:0:
328,289,44897,2,0,L|328:194,1,90,0|2,0:0|0:0,0:0:0:0:
414,90,45687,1,12,0:0:0:0:
466,163,46003,2,0,L|470:255,1,90,0|8,0:0|0:0,0:0:0:0:
389,293,46634,6,0,P|276:308|249:330,1,135,4|2,0:0|0:0,0:0:0:0:
172,304,47424,1,2,0:0:0:0:
93,261,47739,2,0,L|101:126,1,135,2|8,0:0|0:0,0:0:0:0:
135,42,48529,2,0,L|243:61,1,90,0|8,0:0|0:0,0:0:0:0:
283,125,49161,6,0,P|398:107|425:105,2,135,4|12|12,0:0|0:0|0:0,0:0:0:0:
106,160,50739,1,12,0:0:0:0:
194,178,51055,2,0,P|202:236|200:271,1,90,2|8,0:0|0:0,0:0:0:0:
151,342,51687,6,0,L|15:353,1,135,4|2,0:0|0:0,0:0:0:0:
10,263,52476,1,2,0:0:0:0:
73,199,52792,2,0,P|142:202|193:164,1,135,2|8,0:0|0:0,0:0:0:0:
278,137,53582,2,0,P|306:202|304:226,1,90,0|8,0:0|0:0,0:0:0:0:
282,307,54213,6,0,L|416:310,1,135,2|2,0:0|0:0,0:0:0:0:
462,232,55003,2,0,L|462:137,1,90,2|2,0:0|0:0,0:0:0:0:
354,60,55792,1,8,0:0:0:0:
355,150,56108,2,0,L|351:242,1,90,2|8,0:0|0:0,0:0:0:0:
293,309,56739,6,0,P|232:280|165:283,1,135,4|2,0:0|0:0,0:0:0:0:
93,229,57529,1,0,0:0:0:0:
168,181,57845,2,0,L|184:45,1,135,2|8,0:0|0:0,0:0:0:0:
274,49,58634,2,0,L|364:71,1,90,0|8,0:0|0:0,0:0:0:0:
429,130,59266,6,0,P|446:185|417:262,1,135,4|12,0:0|0:0,0:0:0:0:
342,297,60055,2,0,L|239:286,1,90,2|4,0:0|0:0,0:0:0:0:
129,232,60845,2,0,L|109:319,1,90,8|8,0:0|0:0,0:0:0:0:
27,282,61476,1,8,0:0:0:0:
14,192,61792,6,0,P|84:116|169:106,1,180,4|8,0:0|0:0,0:0:0:0:
236,144,62739,1,0,0:0:0:0:
318,107,63055,2,0,L|303:11,1,90,0|0,0:0|0:0,0:0:0:0:
394,20,63687,2,0,L|407:108,1,90,8|0,0:0|0:0,0:0:0:0:
482,158,64318,6,0,P|429:196|360:189,1,135,4|2,0:0|0:0,0:0:0:0:
273,205,65108,2,0,L|257:296,2,90,8|4|8,0:0|0:0|0:0,0:0:0:0:
261,115,66055,2,0,P|172:84|94:126,1,180,8|8,0:0|0:0,0:0:0:0:
256,192,66845,12,4,69371,0:0:0:0:
81,87,76950,6,0,P|68:137|54:271,1,180,4|0,0:0|0:0,0:0:0:0:
143,272,77897,1,0,0:0:0:0:
227,241,78213,2,0,P|297:229|320:229,1,90,0|0,0:0|0:0,0:0:0:0:
406,228,78845,2,0,P|423:148|416:131,1,90,0|8,0:0|0:0,0:0:0:0:
384,61,79476,6,0,L|193:89,1,180,2|0,0:0|0:0,0:0:0:0:
118,111,80424,2,0,P|108:55|107:8,2,90,0|0|0,0:0|0:0|0:0,0:0:0:0:
38,153,81371,1,0,0:0:0:0:
8,238,81687,1,8,0:0:0:0:
56,313,82003,6,0,P|130:366|219:339,1,180,2|0,0:0|0:0,0:0:0:0:
271,279,82950,1,0,0:0:0:0:
282,189,83266,2,0,L|290:88,2,90,0|0|2,0:0|0:0|0:0,0:0:0:0:
354,242,84213,1,8,0:0:0:0:
429,192,84529,6,0,P|447:114|452:4,1,180,2|0,0:0|0:0,0:0:0:0:
320,42,85634,2,0,L|138:75,1,180,8|0,0:0|0:0,0:0:0:0:
78,137,86582,2,0,L|67:184,1,45,12|8,0:0|0:0,0:0:0:0:
99,265,87055,6,0,P|151:298|235:280,1,135,4|2,0:0|0:0,0:0:0:0:
309,272,87845,2,0,P|333:196|324:174,1,90,2|2,0:0|0:0,0:0:0:0:
263,73,88634,2,0,L|162:79,2,90,8|0|8,0:0|0:0|0:0,0:0:0:0:
344,35,89582,6,0,L|478:23,1,135,2|2,0:0|0:0,0:0:0:0:
467,112,90371,1,2,0:0:0:0:
411,183,90687,2,0,P|392:242|440:312,1,135,2|8,0:0|0:0,0:0:0:0:
343,340,91476,2,0,L|248:331,1,90,2|8,0:0|0:0,0:0:0:0:
165,311,92108,6,0,L|189:168,1,135,4|2,0:0|0:0,0:0:0:0:
200,88,92897,1,2,0:0:0:0:
292,88,93213,2,0,P|376:84|436:80,1,135,2|8,0:0|0:0,0:0:0:0:
480,152,94003,2,0,P|488:228|488:244,1,90,2|8,0:0|0:0,0:0:0:0:
400,256,94634,6,0,L|310:246,1,90,2|8,0:0|0:0,0:0:0:0:
228,204,95266,1,2,0:0:0:0:
104,152,95739,2,0,P|49:218|46:309,1,180,4|2,0:0|0:0,0:0:0:0:
132,340,96687,2,0,L|275:329,1,135,8|4,0:0|0:0,0:0:0:0:
356,312,97476,5,0,0:0:0:0:
444,320,97792,2,0,L|476:167,1,135,8|0,0:0|0:0,0:0:0:0:
380,196,98582,2,0,P|299:211|242:182,1,135,8|8,0:0|0:0,0:0:0:0:
164,204,99371,1,0,0:0:0:0:
96,144,99687,6,0,P|111:101|138:65,1,90,0|0,0:0|0:0,0:0:0:0:
228,68,100318,1,8,0:0:0:0:
300,184,100792,2,0,L|454:180,1,135,0|0,0:0|0:0,0:0:0:0:
492,252,101582,2,0,P|493:296|474:336,1,90,8|4,0:0|0:3,0:0:0:0:
384,332,102213,5,4,0:0:0:0:
296,328,102529,1,0,0:0:0:0:
212,296,102845,2,0,L|67:308,1,135,8|0,0:0|0:0,0:0:0:0:
72,216,103634,2,0,P|89:151|87:83,1,135,8|8,0:0|0:0,0:0:0:0:
176,72,104424,1,12,0:0:0:0:
236,140,104739,6,0,L|376:133,1,135,4|2,0:0|0:0,0:0:0:0:
460,128,105529,2,0,L|456:217,1,90,0|8,0:0|0:0,0:0:0:0:
388,280,106161,2,0,L|334:296,1,45,8|8,0:0|0:0,0:0:0:0:
260,328,106634,2,0,L|168:290,1,90,2|2,0:0|0:0,0:0:0:0:
88,292,107266,6,0,L|98:157,1,135,4|2,0:0|0:0,0:0:0:0:
187,160,108055,1,2,0:0:0:0:
245,91,108371,2,0,P|314:88|365:126,1,135,2|8,0:0|0:0,0:0:0:0:
424,192,109161,2,0,P|420:236|396:274,1,90,0|8,0:0|0:0,0:0:0:0:
312,300,109792,6,0,L|156:304,1,135,2|2,0:0|0:0,0:0:0:0:
168,212,110582,2,0,L|168:122,1,90,0|2,0:0|0:0,0:0:0:0:
84,15,111371,1,8,0:0:0:0:
32,89,111687,2,0,L|35:178,1,90,0|8,0:0|0:0,0:0:0:0:
48,267,112318,6,0,P|161:252|188:230,1,135,2|2,0:0|0:0,0:0:0:0:
255,199,113108,1,0,0:0:0:0:
332,248,113424,2,0,L|324:383,1,135,2|8,0:0|0:0,0:0:0:0:
412,365,114213,2,0,L|416:265,1,90,0|8,0:0|0:0,0:0:0:0:
412,184,114845,6,0,P|297:202|270:204,2,135,4|4|12,0:0|0:0|0:0,0:0:0:0:
289,315,116424,1,12,0:0:0:0:
199,305,116739,2,0,P|191:247|193:212,1,90,0|8,0:0|0:0,0:0:0:0:
205,126,117371,6,0,L|341:115,1,135,4|2,0:0|0:0,0:0:0:0:
429,113,118161,1,2,0:0:0:0:
452,200,118476,2,0,P|387:243|332:235,1,135,2|8,0:0|0:0,0:0:0:0:
244,225,119266,2,0,P|216:160|218:136,1,90,0|8,0:0|0:0,0:0:0:0:
228,52,119897,6,0,L|93:48,1,135,2|2,0:0|0:0,0:0:0:0:
26,108,120687,2,0,L|26:203,1,90,2|2,0:0|0:0,0:0:0:0:
160,189,121476,1,8,0:0:0:0:
174,277,121792,2,0,L|170:366,1,90,2|8,0:0|0:0,0:0:0:0:
260,362,122424,6,0,P|326:364|386:335,1,135,4|2,0:0|0:0,0:0:0:0:
446,266,123213,1,2,0:0:0:0:
361,235,123529,2,0,L|376:100,1,135,2|8,0:0|0:0,0:0:0:0:
286,110,124318,2,0,L|276:200,1,90,0|8,0:0|0:0,0:0:0:0:
216,267,124950,6,0,P|161:284|84:255,1,135,4|12,0:0|0:0,0:0:0:0:
65,173,125739,2,0,L|92:82,1,90,2|4,0:0|0:0,0:0:0:0:
223,113,126529,2,0,L|242:25,1,90,8|8,0:0|0:0,0:0:0:0:
329,47,127161,1,8,0:0:0:0:
401,100,127476,6,0,P|420:187|387:270,1,180,4|8,0:0|0:0,0:0:0:0:
297,262,128424,1,0,0:0:0:0:
207,274,128739,2,0,L|222:370,1,90,0|0,0:0|0:0,0:0:0:0:
130,354,129371,2,0,L|116:265,1,90,8|0,0:0|0:0,0:0:0:0:
119,174,130003,6,0,P|172:136|241:143,1,135,4|2,0:0|0:0,0:0:0:0:
328,142,130792,2,0,L|312:230,1,90,8|4,0:0|0:0,0:0:0:0:
391,273,131424,2,0,L|408:173,1,90,8|8,0:0|0:0,0:0:0:0:
409,94,132055,2,0,P|356:53|283:58,1,135,8|4,0:0|0:0,0:0:0:0:
179,98,142634,6,0,L|163:200,1,90,4|0,0:0|0:0,0:0:0:0:
139,273,143266,2,0,P|228:281|284:275,2,135,8|2|0,0:0|0:0|0:0,0:0:0:0:
79,205,144529,2,0,L|89:103,1,90,8|0,0:0|0:0,0:0:0:0:
168,74,145161,5,2,0:0:0:0:
258,65,145476,1,0,0:0:0:0:
336,109,145792,2,0,P|353:204|336:258,2,135,8|2|0,0:0|0:0|0:0,0:0:0:0:
258,154,147055,2,0,L|154:145,1,90,8|0,0:0|0:0,0:0:0:0:
95,199,147687,6,0,P|75:286|135:351,1,180,4|8,0:0|0:0,0:0:0:0:
220,340,148634,1,0,0:0:0:0:
283,275,148950,2,0,L|394:278,1,90,0|0,0:0|0:0,0:0:0:0:
379,187,149582,2,0,L|289:184,1,90,8|0,0:0|0:0,0:0:0:0:
198,184,150213,6,0,B|164:186|112:211|112:211|81:120,1,180,2|8,0:0|0:0,0:0:0:0:
159,78,151161,1,0,0:0:0:0:
256,192,151318,12,2,154003,0:0:0:0:
135,107,161582,6,0,P|117:222|115:249,2,135,4|4|12,0:0|0:0|0:0,0:0:0:0:
313,89,163161,1,8,0:0:0:0:
400,108,163476,2,0,P|400:152|393:197,1,90,8|8,0:0|0:0,0:0:0:0:
345,273,164108,6,0,L|209:262,1,135,4|2,0:0|0:0,0:0:0:0:
122,279,164897,1,2,0:0:0:0:
42,236,165213,2,0,P|37:170|77:117,1,135,2|8,0:0|0:0,0:0:0:0:
167,122,166003,2,0,P|195:57|193:33,1,90,0|8,0:0|0:0,0:0:0:0:
284,39,166634,6,0,L|419:35,1,135,2|2,0:0|0:0,0:0:0:0:
482,98,167424,2,0,L|482:193,1,90,2|2,0:0|0:0,0:0:0:0:
349,159,168213,1,8,0:0:0:0:
390,239,168529,2,0,L|393:328,1,90,2|12,0:0|0:0,0:0:0:0:
304,338,169161,6,0,P|237:340|177:311,1,135,4|2,0:0|0:0,0:0:0:0:
87,302,169950,1,2,0:0:0:0:
52,219,170266,2,0,L|89:80,1,135,2|8,0:0|0:0,0:0:0:0:
169,51,171055,2,0,L|179:141,1,90,0|8,0:0|0:0,0:0:0:0:
225,217,171687,6,0,P|280:234|357:205,1,135,4|4,0:0|0:0,0:0:0:0:
441,206,172476,2,0,L|466:292,1,90,2|4,0:0|0:0,0:0:0:0:
356,371,173266,2,0,L|337:283,1,90,8|8,0:0|0:0,0:0:0:0:
249,303,173897,1,8,0:0:0:0:
158,301,174213,6,0,P|125:218|144:131,1,180,4|8,0:0|0:0,0:0:0:0:
220,83,175161,1,0,0:0:0:0:
299,126,175476,2,0,L|284:222,1,90,0|0,0:0|0:0,0:0:0:0:
375,210,176108,2,0,L|389:121,1,90,8|0,0:0|0:0,0:0:0:0:
466,75,176739,6,0,P|413:37|344:44,1,135,4|2,0:0|0:0,0:0:0:0:
266,85,177529,2,0,L|175:101,2,90,8|4|12,0:0|0:0|0:0,0:0:0:0:
282,173,178476,2,0,L|291:271,2,90,4|8|8,0:0|0:0|0:0,0:0:0:0:
256,192,179266,12,4,181792,0:0:0:0:
