osu file format v14

[General]
AudioFilename: nuko.mp3
AudioLeadIn: 0
PreviewTime: 121120
Countdown: 0
SampleSet: Normal
StackLeniency: 0.7
Mode: 0
LetterboxInBreaks: 0
WidescreenStoryboard: 1

[Editor]
DistanceSpacing: 1
BeatDivisor: 4
GridSize: 4
TimelineZoom: 4.999998

[Metadata]
Title:Super Nuko World
TitleUnicode:すーぱーぬこわーるど
Artist:yuikonnu & ayaponzu*
ArtistUnicode:ゆいこんぬ & あやぽんず*
Creator:Saten
Version:Hard
Source:
Tags:Saten-san
BeatmapID:563814
BeatmapSetID:173302

[Difficulty]
HPDrainRate:6
CircleSize:3.3
OverallDifficulty:6
ApproachRate:7.5
SliderMultiplier:1.7
SliderTickRate:2

[Events]
//Background and Video events
Video,0,"nuko.avi"
0,0,"40549137.jpg",0,0
//Break Periods
2,77740,86821
//Storyboard Layer 0 (Background)
//Storyboard Layer 1 (Fail)
//Storyboard Layer 2 (Pass)
//Storyboard Layer 3 (Foreground)
//Storyboard Sound Samples

[TimingPoints]
805.5,315.789473684211,4,2,1,80,1,0
5858,-100,4,1,1,80,0,0
10910,-90.9090909090909,4,1,1,80,0,0
31752,-133.333333333333,4,1,1,80,0,0
32068,315.789473684211,4,1,2,80,1,0
33962,-133.333333333333,4,1,1,80,0,0
34594,-100,4,1,2,80,0,0
36489,-133.333333333333,4,1,2,80,0,0
37120,-100,4,1,2,80,0,0
42173,-133.333333333333,4,1,1,80,0,0
52278,-100,4,1,1,80,0,0
54173,-133.333333333333,4,1,1,80,0,0
54489,-100,4,1,1,80,0,0
54804,-83.3333333333333,4,1,3,80,0,1
74699,-83.3333333333333,4,1,1,80,0,1
76278,-83.3333333333333,4,1,3,80,0,1
76910,-83.3333333333333,4,1,1,80,0,1
77541,-90.9090909090909,4,1,1,80,0,0
98383,-133.333333333333,4,1,1,80,0,0
98699,315.789473684211,4,1,2,80,1,0
100593,-133.333333333333,4,1,2,80,0,0
101225,-100,4,1,2,80,0,0
103120,-133.333333333333,4,1,2,80,0,0
103751,-100,4,1,2,80,0,0
108804,-133.333333333333,4,1,1,80,0,0
118909,-100,4,1,1,80,0,0
120804,-133.333333333333,4,1,2,80,0,0
121120,-90.9090909090909,4,1,2,80,0,0
121435,-83.3333333333333,4,1,3,80,0,1
141330,-83.3333333333333,4,1,3,70,0,1
141646,-100,4,1,1,80,0,0
151751,-83.3333333333333,4,1,1,80,0,1
161856,-133.333333333333,4,1,1,80,0,0
171962,-100,4,1,1,80,0,0
173856,-200,4,2,1,80,0,0
175120,-133.333333333333,4,1,1,80,0,0
175435,-100,4,1,1,80,0,0
175751,-83.3333333333333,4,1,2,80,0,1
185856,-83.3333333333333,4,1,1,80,0,1
197225,-90.9090909090909,4,1,1,80,0,0

[HitObjects]
56,224,805,6,0,P|100:244|136:244,1,85,2|2,0:0|0:0,0:0:0:0:
216,192,1121,2,0,P|252:164|292:160,1,85,0|2,0:0|0:0,0:0:0:0:
408,304,1594,1,2,0:0:0:0:
224,324,1910,1,2,0:0:0:0:
136,160,2226,2,0,L|96:84,1,85,2|0,0:0|0:0,0:0:0:0:
176,36,2542,2,0,L|255:187,1,170,2|2,0:0|0:0,0:0:0:0:
180,244,3016,2,0,P|140:257|100:246,1,85
24,192,3331,6,0,L|24:107,1,85,2|2,0:0|0:0,0:0:0:0:
116,96,3647,2,0,L|176:35,1,85,0|2,0:0|0:0,0:0:0:0:
348,112,4121,1,2,0:0:0:0:
212,240,4437,1,2,0:0:0:0:
256,60,4752,2,0,P|282:30|324:14,1,85,2|0,0:0|0:0,0:0:0:0:
352,104,5068,2,0,P|332:192|372:256,1,170,2|2,0:0|0:0,0:0:0:0:
428,180,5542,2,0,P|436:140|464:104,1,85
400,36,5858,6,0,L|316:16,1,85,12|0,1:2|0:0,0:0:0:0:
324,108,6173,2,0,L|238:117,1,85,8|0,0:0|0:0,0:0:0:0:
277,201,6489,2,0,L|199:239,1,85,8|0,0:0|0:0,0:0:0:0:
264,304,6805,2,0,L|204:366,1,85,8|0,0:0|0:0,0:0:0:0:
112,372,7121,5,8,0:0:0:0:
40,312,7279,2,0,L|16:276,2,42.5,0|0|8,0:0|0:0|0:0,0:0:0:0:
96,236,7594,2,0,L|93:192,2,42.5,0|0|8,0:0|0:0|0:0,0:0:0:0:
182,198,7910,2,0,L|201:159,2,42.5,0|0|8,0:0|0:0|0:0,0:0:0:0:
256,260,8226,1,0,0:0:0:0:
348,236,8384,6,0,P|380:192|384:156,1,85,2|10,1:2|1:2,0:0:0:0:
292,140,8700,2,0,P|260:108|248:68,1,85,2|10,1:2|1:2,0:0:0:0:
432,32,9173,1,0,0:0:0:0:
496,208,9489,6,2,P|426:255|348:236,1,170,2|0,0:0|0:0,0:0:0:0:
316,144,9963,2,0,P|357:138|396:153,1,85,2|0,0:0|0:0,0:0:0:0:
432,276,10279,6,0,L|420:316,2,42.5,8|0|0,0:0|0:0|0:0,0:0:0:0:
308,252,10594,2,0,L|268:276,2,42.5,8|0|0,0:0|0:0|0:0,0:0:0:0:
396,168,10910,6,0,P|396:120|371:81,1,93.5000028533936,6|0,0:0|0:0,0:0:0:0:
284,48,11226,2,0,P|248:80|204:88,1,93.5000028533936,8|0,0:0|0:0,0:0:0:0:
112,84,11542,2,0,P|61:159|80:248,1,187.000005706787,2|10,0:0|0:0,0:0:0:0:
256,316,12173,5,2,0:0:0:0:
156,156,12489,2,0,P|110:153|68:178,1,93.5000028533936,8|2,0:0|0:0,0:0:0:0:
136,244,12805,2,0,P|224:212|240:128,1,187.000005706787,0|10,0:0|0:0,0:0:0:0:
64,64,13437,5,2,0:0:0:0:
24,248,13752,2,0,L|44:292,2,46.7500014266968,10|0|0,0:0|0:0|0:0,0:0:0:0:
84,176,14068,2,0,P|171:162|244:220,1,187.000005706787,0|10,0:0|0:0,0:0:0:0:
236,314,14542,1,0,0:0:0:0:
144,328,14700,6,0,P|132:283|151:241,1,93.5000028533936,2|0,0:0|0:0,0:0:0:0:
244,220,15016,2,0,P|255:175|236:133,1,93.5000028533936,8|2,0:0|0:0,0:0:0:0:
160,80,15331,1,0,0:0:0:0:
332,156,15647,1,10,0:0:0:0:
216,304,15963,6,0,P|176:280|156:236,1,93.5000028533936,6|0,0:0|0:0,0:0:0:0:
200,156,16279,2,0,P|233:120|244:78,1,93.5000028533936,8|0,0:0|0:0,0:0:0:0:
168,24,16594,1,2,0:0:0:0:
96,196,16910,6,0,P|161:259|252:254,1,187.000005706787,10|2,0:0|0:0,0:0:0:0:
316,184,17384,1,0,0:0:0:0:
260,108,17542,2,0,P|219:130|195:170,1,93.5000028533936,8|2,0:0|0:0,0:0:0:0:
164,260,17858,2,0,P|76:284|8:228,1,187.000005706787,0|10,0:0|0:0,0:0:0:0:
120,80,18489,5,2,0:0:0:0:
272,188,18805,2,0,L|256:232,2,46.7500014266968,10|0|0,0:0|0:0|0:0,0:0:0:0:
176,192,19121,2,0,P|180:280|260:324,1,187.000005706787,0|10,0:0|0:0,0:0:0:0:
352,304,19594,1,0,0:0:0:0:
392,220,19752,6,0,L|372:128,1,93.5000028533936,10|8,0:0|0:0,0:0:0:0:
280,140,20068,2,0,L|300:48,1,93.5000028533936,8|10,0:0|0:0,0:0:0:0:
392,32,20384,1,2,0:0:0:0:
492,192,20700,1,2,0:0:0:0:
308,232,21016,6,0,P|261:234|219:215,1,93.5000028533936,6|0,0:0|0:0,0:0:0:0:
132,248,21331,2,0,P|131:296|157:333,1,93.5000028533936,8|0,0:0|0:0,0:0:0:0:
248,308,21647,2,0,P|216:223|264:148,1,187.000005706787,2|10,0:0|0:0,0:0:0:0:
436,80,22279,5,2,0:0:0:0:
392,260,22594,2,0,P|344:257|308:232,1,93.5000028533936,8|2,0:0|0:0,0:0:0:0:
264,148,22910,2,0,P|172:168|128:244,1,187.000005706787,0|10,0:0|0:0,0:0:0:0:
284,348,23542,5,2,0:0:0:0:
388,192,23858,2,0,L|368:148,2,46.7500014266968,10|0|0,0:0|0:0|0:0,0:0:0:0:
308,240,24173,2,0,P|212:232|164:160,1,187.000005706787,0|10,0:0|0:0,0:0:0:0:
192,72,24647,1,0,0:0:0:0:
284,52,24805,6,0,P|304:96|296:140,1,93.5000028533936,2|0,0:0|0:0,0:0:0:0:
228,204,25121,2,0,P|208:248|216:292,1,93.5000028533936,8|2,0:0|0:0,0:0:0:0:
296,336,25437,2,0,L|340:352,2,46.7500014266968
212,296,25752,2,0,L|168:312,2,46.7500014266968,10|0|0,0:0|0:0|0:0,0:0:0:0:
296,252,26068,6,0,P|312:208|300:164,1,93.5000028533936,6|0,0:0|0:0,0:0:0:0:
216,124,26384,2,0,P|224:76|256:48,1,93.5000028533936,8|0,0:0|0:0,0:0:0:0:
348,60,26700,1,2,0:0:0:0:
228,204,27016,1,10,0:0:0:0:
108,60,27331,6,0,P|60:72|28:103,1,93.5000028533936,2|0,0:0|0:0,0:0:0:0:
68,188,27647,2,0,P|116:196|152:224,1,93.5000028533936,8|2,0:0|0:0,0:0:0:0:
144,316,27963,1,0,0:0:0:0:
68,368,28121,2,0,L|20:380,2,46.7500014266968,0|0|10,0:0|0:0|0:0,0:0:0:0:
220,260,28594,6,0,P|232:212|216:172,1,93.5000028533936,2|0,0:0|0:0,0:0:0:0:
128,208,28910,2,0,P|116:160|132:120,1,93.5000028533936,10|0,0:0|0:0,0:0:0:0:
216,76,29226,2,0,L|260:96,2,46.7500014266968
216,172,29542,6,0,P|304:168|344:88,1,187.000005706787,10|2,0:0|0:0,0:0:0:0:
144,40,30173,1,8,0:0:0:0:
28,212,30489,1,0,0:0:0:0:
216,296,30805,1,8,0:0:0:0:
108,120,31121,6,0,L|64:136,8,46.7500014266968
108,120,32068,6,0,P|123:164|152:192,1,85,4|8,1:2|0:0,0:0:0:0:
228,156,32383,2,0,P|252:120|292:104,1,85,0|8,0:0|0:0,0:0:0:0:
348,168,32699,2,0,L|388:244,1,85,0|8,0:0|0:0,0:0:0:0:
460,200,33015,2,0,L|460:116,1,85,0|8,0:0|0:0,0:0:0:0:
404,48,33331,6,0,P|362:28|321:29,1,85
339,113,33646,2,0,P|361:152|364:193,1,85
332,272,33962,2,0,P|440:244|440:116,1,255.000009727478,0|4,0:0|1:2,0:0:0:0:
364,84,34752,5,8,0:0:0:0:
296,136,34910,2,0,P|256:152|216:148,1,85,0|8,0:0|0:0,0:0:0:0:
184,68,35225,2,0,P|224:52|264:56,1,85,0|8,0:0|0:0,0:0:0:0:
300,156,35541,2,0,P|260:172|220:168,1,85,0|8,0:0|0:0,0:0:0:0:
140,136,35857,6,0,L|108:104,7,42.5,8|8|8|8|8|8|8|8,0:0|0:0|0:0|0:0|0:0|0:0|0:0|0:0,0:0:0:0:
76,100,36489,2,0,L|76:228,1,127.500004863739,8|2,0:0|0:0,0:0:0:0:
76,227,37120,6,0,P|160:212|228:256,1,170,4|8,1:2|0:0,0:0:0:0:
215,340,37594,1,0,0:0:0:0:
148,288,37752,2,0,P|177:209|252:176,1,170,0|8,0:0|0:0,0:0:0:0:
336,192,38225,1,0,0:0:0:0:
324,276,38383,6,0,P|278:279|243:260,1,85
252,176,38699,2,0,P|276:138|276:97,1,85,8|0,0:0|0:0,0:0:0:0:
192,116,39015,2,0,L|40:192,1,170,0|8,0:0|0:0,0:0:0:0:
24,276,39489,1,0,0:0:0:0:
96,320,39646,5,4,0:0:0:0:
255,259,39962,2,0,P|261:217|252:176,1,85
172,140,40278,2,0,P|166:182|175:223,1,85
255,259,40594,2,0,L|295:279,2,42.5
172,220,40910,5,8,0:0:0:0:
276,188,41068,1,8,0:0:0:0:
172,156,41225,1,8,0:0:0:0:
276,124,41383,1,8,0:0:0:0:
172,92,41541,1,8,0:0:0:0:
382,24,41857,1,2,0:0:0:0:
336,240,42173,6,0,P|280:267|222:246,1,127.500004863739,4|8,1:2|0:0,0:0:0:0:
158,193,42646,1,0,0:0:0:0:
92,244,42804,2,0,P|104:304|152:348,1,127.500004863739,0|8,0:0|0:0,0:0:0:0:
236,356,43278,1,0,0:0:0:0:
256,276,43436,6,0,P|252:240|240:216,1,63.7500024318696
158,193,43752,2,0,P|162:157|174:133,1,63.7500024318696,8|0,0:0|0:0,0:0:0:0:
256,108,44068,1,0,0:0:0:0:
336,252,44383,1,8,0:0:0:0:
172,276,44699,6,0,P|100:256|76:212,1,127.500004863739,0|8,0:0|0:0,0:0:0:0:
136,56,45331,2,0,P|164:112|144:172,1,127.500004863739
80,222,45804,1,8,0:0:0:0:
92,304,45962,6,0,P|144:356|196:356,1,127.500004863739
257,301,46436,1,8,0:0:0:0:
236,220,46594,2,0,L|216:159,1,63.7500024318696,0|8,0:0|0:0,0:0:0:0:
288,116,46910,2,0,L|307:176,1,63.7500024318696,0|8,0:0|0:0,0:0:0:0:
378,134,47225,6,0,B|356:64|356:64|312:32,1,127.500004863739,4|8,1:2|0:0,0:0:0:0:
228,44,47699,1,0,0:0:0:0:
204,124,47857,1,0,0:0:0:0:
344,212,48173,6,0,P|375:216|407:212,1,63.7500024318696,8|0,0:0|0:0,0:0:0:0:
484,248,48489,2,0,P|440:292|376:296,1,127.500004863739,0|8,0:0|0:0,0:0:0:0:
256,184,49120,2,0,L|276:124,2,63.7500024318696,0|8|0,0:0|0:0|0:0,0:0:0:0:
100,236,49752,6,0,L|40:216,2,63.7500024318696,0|8|0,0:0|0:0|0:0,0:0:0:0:
256,292,50383,2,0,L|316:272,2,63.7500024318696,0|8|0,0:0|0:0|0:0,0:0:0:0:
156,156,51015,1,8,0:0:0:0:
296,64,51331,2,0,L|356:92,2,63.7500024318696,0|8|8,0:0|0:0|0:0,0:0:0:0:
132,80,51962,2,0,L|104:96,3,31.8750012159348
72,132,52278,6,0,P|70:174|88:212,1,85,4|0,1:2|0:0,0:0:0:0:
160,152,52594,2,0,P|202:150|240:168,1,85,8|0,0:0|0:0,0:0:0:0:
180,240,52910,2,0,P|178:282|196:320,1,85,4|0,1:2|0:0,0:0:0:0:
268,260,53225,2,0,P|310:258|348:276,1,85,8|0,0:0|0:0,0:0:0:0:
440,296,53541,6,0,L|472:268,3,42.5,2|2|2|2,1:2|1:2|1:2|1:2,0:0:0:0:
488,224,53857,2,0,L|456:196,3,42.5,2|2|2|2,1:2|1:2|1:2|1:2,0:0:0:0:
420,188,54173,2,0,P|367:217|348:280,1,127.500004863739,0|2,0:0|0:0,0:0:0:0:
148,320,54804,6,0,P|104:296|80:252,1,101.999996887207,4|8,1:2|0:0,0:0:0:0:
176,220,55120,2,0,P|161:171|176:123,1,101.999996887207,0|8,0:0|0:0,0:0:0:0:
266,169,55436,2,0,P|290:123|334:100,1,101.999996887207,0|8,0:0|0:0,0:0:0:0:
365,196,55752,2,0,P|414:180|462:196,1,101.999996887207,0|8,0:0|0:0,0:0:0:0:
500,288,56068,5,0,0:0:0:0:
428,360,56225,1,8,0:0:0:0:
328,332,56383,2,0,P|300:284|300:236,1,101.999996887207,0|8,0:0|0:0,0:0:0:0:
308,136,56699,2,0,P|218:175|199:271,1,203.999993774414
264,352,57173,1,0,0:0:0:0:
356,304,57331,6,0,P|337:257|294:230,1,101.999996887207,4|8,1:2|0:0,0:0:0:0:
212,172,57646,2,0,P|230:125|273:98,1,101.999996887207,0|8,0:0|0:0,0:0:0:0:
372,128,57962,1,0,0:0:0:0:
220,264,58278,1,0,0:0:0:0:
132,80,58594,6,0,P|160:32|200:12,1,101.999996887207,0|8,0:0|0:0,0:0:0:0:
272,88,58910,2,0,P|244:136|204:156,1,101.999996887207,0|8,0:0|0:0,0:0:0:0:
104,172,59225,1,0,0:0:0:0:
48,84,59383,2,0,L|32:32,2,50.9999984436036,8|0|0,0:0|0:0|0:0,0:0:0:0:
108,168,59699,1,8,0:0:0:0:
208,176,59857,6,0,P|256:156|284:116,1,101.999996887207,4|8,1:2|0:0,0:0:0:0:
192,72,60173,2,0,P|144:52|116:12,1,101.999996887207,0|8,0:0|0:0,0:0:0:0:
44,84,60489,2,0,L|20:184,1,101.999996887207,0|8,0:0|0:0,0:0:0:0:
124,184,60804,2,0,L|148:284,1,101.999996887207,0|8,0:0|0:0,0:0:0:0:
64,344,61120,5,0,0:0:0:0:
4,264,61278,1,8,0:0:0:0:
76,192,61436,2,0,P|120:168|170:171,1,101.999996887207,0|8,0:0|0:0,0:0:0:0:
138,268,61752,2,0,P|75:192|99:96,1,203.999993774414
196,64,62225,1,8,0:0:0:0:
288,112,62383,6,0,P|256:201|172:172,1,203.999993774414,4|0,1:2|0:0,0:0:0:0:
112,88,62857,1,8,0:0:0:0:
12,108,63015,2,0,P|8:160|36:200,1,101.999996887207,0|8,0:0|0:0,0:0:0:0:
136,228,63331,2,0,P|184:204|232:208,1,101.999996887207,0|8,0:0|0:0,0:0:0:0:
277,300,63646,6,0,P|181:312|136:228,1,203.999993774414
184,136,64120,1,8,0:0:0:0:
148,40,64278,2,0,P|101:20|51:28,1,101.999996887207,0|8,0:0|0:0,0:0:0:0:
0,116,64594,2,0,L|20:164,3,50.9999984436036,0|0|8|0,0:0|0:0|0:0|0:0,0:0:0:0:
60,192,64910,6,0,L|104:96,1,101.999996887207,4|8,1:2|0:0,0:0:0:0:
172,172,65225,2,0,L|246:96,1,101.999996887207,0|8,0:0|0:0,0:0:0:0:
284,191,65541,2,0,L|379:145,1,101.999996887207,0|8,0:0|0:0,0:0:0:0:
382,247,65857,2,0,L|487:237,1,101.999996887207,0|8,0:0|0:0,0:0:0:0:
488,340,66173,5,0,0:0:0:0:
392,372,66331,1,8,0:0:0:0:
316,304,66489,2,0,P|296:248|304:208,1,101.999996887207,0|8,0:0|0:0,0:0:0:0:
392,260,66804,2,0,P|304:303|223:248,1,203.999993774414
200,148,67278,1,8,0:0:0:0:
276,80,67436,6,0,L|376:108,1,101.999996887207,4|8,1:2|0:0,0:0:0:0:
332,200,67752,2,0,L|232:228,1,101.999996887207,0|8,0:0|0:0,0:0:0:0:
136,200,68068,1,0,0:0:0:0:
256,36,68383,1,0,0:0:0:0:
404,180,68699,6,0,P|402:229|369:267,1,101.999996887207,0|8,0:0|0:0,0:0:0:0:
320,176,69015,2,0,P|334:128|375:100,1,101.999996887207,0|8,0:0|0:0,0:0:0:0:
476,124,69331,1,0,0:0:0:0:
504,224,69489,2,0,L|472:264,2,50.9999984436036,8|0|0,0:0|0:0|0:0,0:0:0:0:
472,128,69804,1,8,0:0:0:0:
376,96,69962,6,0,P|334:124|312:170,1,101.999996887207,4|8,1:2|0:0,0:0:0:0:
208,172,70278,2,0,P|185:126|144:97,1,101.999996887207,0|8,0:0|0:0,0:0:0:0:
80,180,70594,2,0,L|48:280,1,101.999996887207,0|8,0:0|0:0,0:0:0:0:
144,320,70910,2,0,L|225:258,1,101.999996887207,0|8,0:0|0:0,0:0:0:0:
268,164,71225,5,0,0:0:0:0:
200,88,71383,1,8,0:0:0:0:
100,96,71541,2,0,P|75:144|83:190,1,101.999996887207,0|8,0:0|0:0,0:0:0:0:
184,168,71857,2,0,P|261:108|354:138,1,203.999993774414
401,229,72331,1,8,0:0:0:0:
348,316,72489,6,0,P|304:292|276:248,1,101.999996887207
304,48,72962,2,0,L|352:28,2,50.9999984436036,8|0|0,0:0|0:0|0:0,0:0:0:0:
160,192,73436,1,0,0:0:0:0:
364,176,73752,6,0,P|385:221|374:270,1,101.999996887207,0|8,0:0|0:0,0:0:0:0:
280,228,74068,2,0,P|230:236|193:270,1,101.999996887207,0|8,0:0|0:0,0:0:0:0:
164,368,74383,1,0,0:0:0:0:
56,192,74699,1,8,0:0:0:0:
256,148,75015,6,0,P|292:237|226:306,1,203.999993774414,4|8,0:0|0:0,0:0:0:0:
56,192,75646,2,0,P|19:281|85:350,1,203.999993774414,4|8,1:2|0:0,0:0:0:0:
256,236,76278,5,8,0:0:0:0:
152,192,76436,1,8,0:0:0:0:
256,148,76594,1,8,0:0:0:0:
152,104,76752,1,8,0:0:0:0:
256,60,76910,6,0,L|300:36,3,50.9999984436036
356,48,77225,2,0,L|377:94,4,50.9999984436036,0|0|0|0|6,0:0|0:0|0:0|0:0|0:0,0:0:0:0:
63,105,87646,6,0,P|100:132|148:136,1,93.5000028533936,6|0,0:0|0:0,0:0:0:0:
232,176,87962,2,0,P|215:218|176:242,1,93.5000028533936,8|0,0:0|0:0,0:0:0:0:
84,232,88278,1,2,0:0:0:0:
216,100,88594,1,10,0:0:0:0:
348,232,88910,6,0,P|323:273|282:293,1,93.5000028533936,2|0,0:0|0:0,0:0:0:0:
192,272,89225,2,0,P|192:224|168:184,1,93.5000028533936,8|2,0:0|0:0,0:0:0:0:
80,152,89541,1,0,0:0:0:0:
264,192,89857,1,10,0:0:0:0:
116,304,90173,6,0,P|112:256|136:216,1,93.5000028533936,2|0,0:0|0:0,0:0:0:0:
220,252,90489,2,0,L|248:292,2,46.7500014266968,10|0|0,0:0|0:0|0:0,0:0:0:0:
196,160,90804,2,0,P|208:112|240:84,1,93.5000028533936
336,92,91120,5,10,0:0:0:0:
224,240,91436,1,2,0:0:0:0:
68,136,91752,2,0,P|64:88|84:48,1,93.5000028533936,8|2,0:0|0:0,0:0:0:0:
176,28,92068,1,0,0:0:0:0:
292,176,92383,1,10,0:0:0:0:
128,268,92699,6,0,P|88:288|40:284,1,93.5000028533936,6|0,0:0|0:0,0:0:0:0:
16,192,93015,2,0,P|56:164|72:124,1,93.5000028533936,8|0,0:0|0:0,0:0:0:0:
32,40,93331,1,2,0:0:0:0:
168,168,93646,1,10,0:0:0:0:
312,48,93962,6,0,P|360:32|404:40,1,93.5000028533936,2|0,0:0|0:0,0:0:0:0:
368,128,94278,2,0,P|320:152|280:144,1,93.5000028533936,8|2,0:0|0:0,0:0:0:0:
208,88,94594,1,0,0:0:0:0:
312,244,94910,1,10,0:0:0:0:
464,136,95225,6,0,P|460:90|431:54,1,93.5000028533936,2|0,0:0|0:0,0:0:0:0:
340,64,95541,2,0,L|304:96,2,46.7500014266968,10|0|0,0:0|0:0|0:0,0:0:0:0:
380,148,95857,2,0,P|368:196|336:224,1,93.5000028533936
244,244,96173,5,10,0:0:0:0:
144,84,96489,1,2,0:0:0:0:
324,36,96804,1,8,0:0:0:0:
192,168,97120,1,0,0:0:0:0:
56,36,97436,1,8,0:0:0:0:
240,80,97752,6,0,L|276:112,3,46.7500014266968
276,160,98068,2,0,L|241:191,3,46.7500014266968
240,240,98383,2,0,P|296:264|356:240,1,127.500004863739,0|4,0:0|1:2,0:0:0:0:
398,167,98856,5,8,0:0:0:0:
380,84,99014,2,0,P|340:60|300:56,1,85,0|8,0:0|0:0,0:0:0:0:
256,128,99330,2,0,P|216:152|176:156,1,85,0|8,0:0|0:0,0:0:0:0:
112,104,99646,2,0,L|68:32,1,85,0|8,0:0|0:0,0:0:0:0:
12,96,99962,6,0,L|12:180,1,85,0|8,0:0|0:0,0:0:0:0:
64,248,100277,2,0,P|108:252|144:236,1,85,0|8,0:0|0:0,0:0:0:0:
224,204,100593,2,0,P|192:320|72:340,1,255.000009727478,0|4,0:0|1:2,0:0:0:0:
40,260,101383,5,8,0:0:0:0:
68,180,101541,2,0,P|108:160|148:168,1,85,0|8,0:0|0:0,0:0:0:0:
224,204,101856,2,0,P|264:224|304:216,1,85,0|8,0:0|0:0,0:0:0:0:
380,180,102172,2,0,P|420:160|460:168,1,85,0|8,0:0|0:0,0:0:0:0:
504,240,102488,6,0,L|484:280,3,42.5
444,284,102804,2,0,L|424:244,3,42.5
380,252,103120,2,0,P|328:289|312:348,1,127.500004863739,0|2,0:0|0:0,0:0:0:0:
312,348,103751,6,0,P|231:329|196:256,1,170,4|8,1:2|0:0,0:0:0:0:
256,192,104225,1,0,0:0:0:0:
316,128,104383,2,0,P|280:54|200:36,1,170,0|8,0:0|0:0,0:0:0:0:
120,64,104856,1,0,0:0:0:0:
92,144,105014,6,0,P|108:184|140:208,1,85
228,216,105330,2,0,P|267:199|307:204,1,85,8|0,0:0|0:0,0:0:0:0:
268,280,105646,2,0,P|188:282|153:209,1,170,0|8,0:0|0:0,0:0:0:0:
188,132,106120,1,0,0:0:0:0:
272,116,106277,5,4,0:0:0:0:
368,256,106593,2,0,L|344:292,3,42.5,8|0|0|0,0:0|0:0|0:0|0:0,0:0:0:0:
296,288,106909,2,0,P|256:276|232:240,1,85
308,204,107225,2,0,P|291:165|303:124,1,85,8|0,0:0|0:0,0:0:0:0:
380,92,107541,5,8,0:0:0:0:
480,136,107699,1,8,0:0:0:0:
380,180,107856,1,8,0:0:0:0:
480,224,108014,1,8,0:0:0:0:
380,268,108172,1,8,0:0:0:0:
456,52,108488,1,2,0:0:0:0:
300,136,108804,6,0,P|232:124|200:80,1,127.500004863739,4|8,1:2|0:0,0:0:0:0:
112,84,109277,1,0,0:0:0:0:
132,172,109435,2,0,P|194:172|239:126,1,127.500004863739,0|8,0:0|0:0,0:0:0:0:
300,60,109909,1,0,0:0:0:0:
388,60,110067,2,0,P|416:76|436:100,1,63.7500024318696
356,144,110383,2,0,P|364:175|361:206,1,63.7500024318696,8|0,0:0|0:0,0:0:0:0:
273,180,110699,2,0,P|257:207|233:227,1,63.7500024318696
188,146,111014,2,0,P|156:154|125:151,1,63.7500024318696,8|0,0:0|0:0,0:0:0:0:
68,84,111330,5,0,0:0:0:0:
232,16,111646,1,8,0:0:0:0:
256,192,111962,1,0,0:0:0:0:
144,52,112277,2,0,P|124:20|100:8,1,63.7500024318696,0|8,0:0|0:0,0:0:0:0:
52,84,112593,6,0,L|52:212,1,127.500004863739
120,268,113067,2,0,P|144:240|152:212,1,63.7500024318696,8|0,0:0|0:0,0:0:0:0:
212,148,113383,2,0,P|252:152|272:164,2,63.7500024318696,8|0|8,0:0|0:0|0:0,0:0:0:0:
128,116,113856,6,0,P|169:66|232:60,1,127.500004863739,4|8,1:2|0:0,0:0:0:0:
316,84,114330,1,0,0:0:0:0:
324,172,114488,2,0,P|263:183|212:148,1,127.500004863739,0|8,0:0|0:0,0:0:0:0:
128,116,114962,1,0,0:0:0:0:
68,184,115120,6,0,L|48:244,1,63.7500024318696
136,248,115435,2,0,L|164:304,1,63.7500024318696,8|0,0:0|0:0,0:0:0:0:
229,245,115751,2,0,L|289:265,1,63.7500024318696
292,177,116067,2,0,L|348:148,1,63.7500024318696,8|0,0:0|0:0,0:0:0:0:
340,60,116383,6,0,L|300:8,2,63.7500024318696,0|8|0,0:0|0:0|0:0,0:0:0:0:
172,60,117014,2,0,L|212:8,2,63.7500024318696,0|8|0,0:0|0:0|0:0,0:0:0:0:
116,132,117488,1,8,0:0:0:0:
152,212,117646,1,0,0:0:0:0:
256,68,117962,2,0,L|256:4,2,63.7500024318696,8|0|8,0:0|0:0|0:0,0:0:0:0:
360,212,118593,2,0,L|392:232,3,31.8750012159348
428,212,118909,6,0,L|448:128,1,85,4|0,1:2|0:0,0:0:0:0:
372,92,119225,2,0,L|300:136,1,85,8|0,0:0|0:0,0:0:0:0:
212,136,119541,2,0,L|140:92,1,85,4|0,1:2|0:0,0:0:0:0:
64,129,119856,2,0,L|84:212,1,85,8|0,0:0|0:0,0:0:0:0:
148,268,120172,2,0,L|188:248,7,42.5,2|2|2|2|2|2|2|2,1:2|1:2|1:2|1:2|1:2|1:2|1:2|1:2,0:0:0:0:
232,260,120804,2,0,L|256:320,1,63.7500024318696
340,360,121120,2,0,L|376:328,3,46.7500014266968,2|0|0|0,0:0|0:0|0:0|0:0,0:0:0:0:
380,280,121435,6,0,L|328:192,1,101.999996887207,4|8,1:2|0:0,0:0:0:0:
224,188,121751,2,0,L|276:100,1,101.999996887207,0|8,0:0|0:0,0:0:0:0:
380,96,122067,2,0,L|328:8,1,101.999996887207,0|8,0:0|0:0,0:0:0:0:
228,24,122383,2,0,L|176:112,1,101.999996887207,0|8,0:0|0:0,0:0:0:0:
140,208,122699,5,0,0:0:0:0:
228,260,122856,1,8,0:0:0:0:
312,204,123014,2,0,P|328:156|316:108,1,101.999996887207,0|8,0:0|0:0,0:0:0:0:
216,140,123330,2,0,P|135:203|43:179,1,203.999993774414
39,77,123804,1,8,0:0:0:0:
121,16,123962,6,0,P|173:28|205:64,1,101.999996887207,4|8,1:2|0:0,0:0:0:0:
307,63,124277,2,0,P|341:26|390:16,1,101.999996887207,0|8,0:0|0:0,0:0:0:0:
480,64,124593,1,0,0:0:0:0:
452,160,124751,2,0,L|428:208,2,50.9999984436036,8|0|0,0:0|0:0|0:0,0:0:0:0:
352,132,125067,1,8,0:0:0:0:
256,164,125225,6,0,P|228:208|232:256,1,101.999996887207,0|8,0:0|0:0,0:0:0:0:
324,300,125541,2,0,P|352:256|348:208,1,101.999996887207,0|8,0:0|0:0,0:0:0:0:
260,156,125856,1,0,0:0:0:0:
164,192,126014,2,0,L|128:228,2,50.9999984436036,8|0|0,0:0|0:0|0:0,0:0:0:0:
216,280,126330,1,8,0:0:0:0:
120,312,126488,6,0,P|72:296|47:253,1,101.999996887207,4|8,1:2|0:0,0:0:0:0:
48,152,126804,2,0,P|75:107|120:92,1,101.999996887207,0|8,0:0|0:0,0:0:0:0:
188,168,127120,1,0,0:0:0:0:
256,92,127277,1,8,0:0:0:0:
324,168,127435,1,0,0:0:0:0:
392,92,127593,1,8,0:0:0:0:
460,168,127751,6,0,L|424:264,1,101.999996887207,0|8,0:0|0:0,0:0:0:0:
360,344,128067,2,0,L|324:248,1,101.999996887207,0|8,0:0|0:0,0:0:0:0:
256,172,128383,2,0,P|157:173|102:256,1,203.999993774414
144,348,128856,1,8,0:0:0:0:
240,316,129014,6,0,L|192:224,1,101.999996887207,4|8,1:2|0:0,0:0:0:0:
288,192,129330,2,0,L|336:100,1,101.999996887207,0|8,0:0|0:0,0:0:0:0:
436,76,129646,1,0,0:0:0:0:
352,264,129962,1,0,0:0:0:0:
160,192,130277,6,0,P|140:144|144:96,1,101.999996887207,0|8,0:0|0:0,0:0:0:0:
240,132,130593,2,0,P|260:180|256:228,1,101.999996887207,0|8,0:0|0:0,0:0:0:0:
164,280,130909,2,0,P|108:268|80:236,1,101.999996887207,0|8,0:0|0:0,0:0:0:0:
88,132,131225,2,0,L|120:88,3,50.9999984436036,0|0|8|0,0:0|0:0|0:0|0:0,0:0:0:0:
168,80,131541,6,0,L|256:132,1,101.999996887207,4|8,1:2|0:0,0:0:0:0:
256,228,131856,2,0,L|168:280,1,101.999996887207,0|8,0:0|0:0,0:0:0:0:
168,176,132172,2,0,L|256:228,1,101.999996887207,0|8,0:0|0:0,0:0:0:0:
256,324,132488,2,0,L|168:376,1,101.999996887207,0|8,0:0|0:0,0:0:0:0:
68,360,132804,5,0,0:0:0:0:
20,268,132962,1,8,0:0:0:0:
68,174,133120,2,0,P|122:165|170:177,1,101.999996887207,0|8,0:0|0:0,0:0:0:0:
112,260,133435,2,0,P|67:172|116:87,1,203.999993774414
220,84,133909,1,8,0:0:0:0:
284,164,134067,6,0,P|248:204|200:212,1,101.999996887207,4|0,1:2|0:0,0:0:0:0:
112,260,134383,2,0,P|148:300|196:308,1,101.999996887207,0|8,0:0|0:0,0:0:0:0:
292,280,134699,1,0,0:0:0:0:
148,136,135014,1,0,0:0:0:0:
44,312,135330,6,0,P|85:340|137:337,1,101.999996887207,0|8,0:0|0:0,0:0:0:0:
108,240,135646,2,0,P|64:215|43:167,1,101.999996887207,0|8,0:0|0:0,0:0:0:0:
92,80,135962,1,0,0:0:0:0:
192,68,136120,2,0,L|240:84,2,50.9999984436036,8|0|0,0:0|0:0|0:0,0:0:0:0:
92,88,136435,1,8,0:0:0:0:
44,180,136593,6,0,L|104:264,1,101.999996887207,4|8,1:2|0:0,0:0:0:0:
180,192,136909,2,0,L|240:276,1,101.999996887207,0|8,0:0|0:0,0:0:0:0:
300,192,137225,2,0,L|360:108,1,101.999996887207,0|8,0:0|0:0,0:0:0:0:
436,180,137541,2,0,L|496:96,1,101.999996887207,0|8,0:0|0:0,0:0:0:0:
412,40,137856,5,0,0:0:0:0:
312,48,138014,1,8,0:0:0:0:
280,144,138172,2,0,L|324:240,1,101.999996887207,0|8,0:0|0:0,0:0:0:0:
260,320,138488,2,0,L|174:134,1,203.999993774414
76,156,138962,1,0,0:0:0:0:
40,252,139120,2,0,P|84:277|134:275,1,101.999996887207
284,136,139593,2,0,L|256:92,2,50.9999984436036,8|0|0,0:0|0:0|0:0,0:0:0:0:
196,320,140067,1,8,0:0:0:0:
52,172,140383,6,0,P|78:128|124:108,1,101.999996887207,0|8,0:0|0:0,0:0:0:0:
184,192,140699,2,0,P|210:235|256:256,1,101.999996887207,0|8,0:0|0:0,0:0:0:0:
344,208,141014,1,0,0:0:0:0:
212,52,141330,1,8,0:0:0:0:
112,232,141646,6,0,P|140:262|181:272,1,85,6|8,0:0|0:0,0:0:0:0:
228,200,141962,2,0,P|258:228|268:269,1,85,2|8,0:0|0:0,0:0:0:0:
223,344,142277,2,0,P|184:357|142:350,1,85,2|10,0:0|0:0,0:0:0:0:
32,220,142751,6,0,L|64:140,1,85,10|2,0:0|0:0,0:0:0:0:
140,180,143067,2,0,L|219:146,1,85,8|2,0:0|0:0,0:0:0:0:
244,228,143383,2,0,L|324:260,1,85,10|2,0:0|2:2,0:0:0:0:
404,232,143699,2,0,L|440:204,2,42.5,2|2|2,2:2|2:2|2:2,2:2:0:0:
336,180,144014,1,2,2:2:0:0:
348,95,144172,6,0,P|373:62|413:48,1,85,6|8,0:0|0:0,0:0:0:0:
424,132,144488,2,0,P|398:165|359:179,1,85,2|8,0:0|0:0,0:0:0:0:
280,148,144804,2,0,P|261:110|267:68,1,85,2|10,0:0|0:0,0:0:0:0:
96,64,145277,6,0,P|56:79|28:110,1,85,10|2,0:0|0:0,0:0:0:0:
102,150,145593,2,0,P|84:188|86:230,1,85,8|2,0:0|0:0,0:0:0:0:
169,207,145909,2,0,P|184:246|215:274,1,85,10|2,0:0|2:2,0:0:0:0:
300,268,146225,2,0,L|340:248,2,42.5,2|2|2,2:2|2:2|2:2,2:2:0:0:
252,196,146541,1,2,2:2:0:0:
280,116,146699,6,0,L|356:76,1,85,6|8,0:0|0:0,0:0:0:0:
372,160,147014,2,0,L|454:185,1,85,2|8,0:0|0:0,0:0:0:0:
405,256,147330,2,0,L|444:332,1,85,2|10,0:0|0:0,0:0:0:0:
276,308,147804,6,0,L|200:348,1,85,10|2,0:0|0:0,0:0:0:0:
184,264,148120,2,0,L|101:238,1,85,8|2,0:0|0:0,0:0:0:0:
151,168,148435,2,0,L|111:92,1,85,10|0,0:0|0:0,0:0:0:0:
172,32,148751,1,10,0:0:0:0:
332,92,149067,5,10,0:0:0:0:
300,172,149225,2,0,P|268:196|224:200,1,85,6|8,0:0|0:0,0:0:0:0:
164,260,149541,2,0,P|196:284|240:288,1,85,2|8,0:0|0:0,0:0:0:0:
304,344,149856,2,0,P|272:368|228:372,1,85,2|10,0:0|0:0,0:0:0:0:
92,268,150330,5,10,0:0:0:0:
132,192,150488,2,0,L|188:128,1,85,2|8,0:0|0:0,0:0:0:0:
252,184,150804,2,0,L|196:248,1,85,2|10,0:0|0:0,0:0:0:0:
260,304,151120,2,0,L|316:240,1,85,0|10,0:0|0:0,0:0:0:0:
256,80,151593,5,10,0:0:0:0:
156,56,151751,2,0,L|68:108,1,101.999996887207,4|8,1:2|0:0,0:0:0:0:
12,192,152067,2,0,L|36:240,2,50.9999984436036,0|0|8,0:0|0:0|0:0,0:0:0:0:
116,192,152383,2,0,P|168:208|204:240,1,101.999996887207,0|8,0:0|0:0,0:0:0:0:
232,336,152699,2,0,L|192:368,3,50.9999984436036,0|0|8|0,0:0|0:0|0:0|0:0,0:0:0:0:
140,360,153014,6,0,P|96:328|80:284,1,101.999996887207,0|8,0:0|0:0,0:0:0:0:
116,192,153330,2,0,L|148:152,2,50.9999984436036,0|0|8,0:0|0:0|0:0,0:0:0:0:
208,240,153646,2,0,L|304:204,1,101.999996887207,0|8,0:0|0:0,0:0:0:0:
400,244,153962,2,0,L|376:288,2,50.9999984436036,0|0|8,0:0|0:0|0:0,0:0:0:0:
368,148,154277,6,0,L|344:104,3,50.9999984436036,4|0|8|0,1:2|0:0|0:0|0:0,0:0:0:0:
296,84,154593,2,0,L|272:128,3,50.9999984436036,0|0|8|0,0:0|0:0|0:0|0:0,0:0:0:0:
223,108,154909,2,0,L|199:64,3,50.9999984436036,0|0|8|0,0:0|0:0|0:0|0:0,0:0:0:0:
151,44,155225,2,0,L|127:88,3,50.9999984436036,0|0|8|0,0:0|0:0|0:0|0:0,0:0:0:0:
112,140,155541,6,0,L|180:216,1,101.999996887207,0|8,0:0|0:0,0:0:0:0:
264,276,155856,2,0,L|304:244,3,50.9999984436036,0|0|8|0,0:0|0:0|0:0|0:0,0:0:0:0:
356,244,156172,2,0,L|396:276,3,50.9999984436036,0|0|8|0,0:0|0:0|0:0|0:0,0:0:0:0:
440,248,156488,2,0,L|404:152,1,101.999996887207,0|8,0:0|0:0,0:0:0:0:
328,84,156804,6,0,L|284:52,4,50.9999984436036,4|0|8|0|0,1:2|0:0|0:0|0:0|0:0,0:0:0:0:
328,188,157277,2,0,L|322:242,4,50.9999984436036,8|0|0|0|8,0:0|0:0|0:0|0:0|0:0,0:0:0:0:
416,136,157751,2,0,L|465:113,3,50.9999984436036,0|0|8|0,0:0|0:0|0:0|0:0,0:0:0:0:
492,160,158067,6,0,L|456:256,1,101.999996887207,0|8,0:0|0:0,0:0:0:0:
388,332,158383,2,0,L|340:352,3,50.9999984436036,0|0|8|0,0:0|0:0|0:0|0:0,0:0:0:0:
292,332,158699,2,0,L|256:236,1,101.999996887207,0|8,0:0|0:0,0:0:0:0:
184,164,159014,2,0,L|148:200,2,50.9999984436036,0|0|8,0:0|0:0|0:0,0:0:0:0:
256,92,159330,5,8,0:0:0:0:
352,128,159488,1,8,0:0:0:0:
204,268,159804,5,8,0:0:0:0:
108,304,159962,2,0,P|64:276|44:232,1,101.999996887207,8|8,0:0|0:0,0:0:0:0:
108,152,160277,2,0,P|152:124|172:80,1,101.999996887207,0|8,0:0|0:0,0:0:0:0:
256,20,160593,1,0,0:0:0:0:
348,68,160751,1,8,0:0:0:0:
328,167,160909,2,0,P|285:194|235:191,1,101.999996887207,8|8,0:0|0:0,0:0:0:0:
140,228,161225,1,8,0:0:0:0:
76,308,161383,2,0,L|48:352,2,50.9999984436036,8|0|0,0:0|0:0|0:0,0:0:0:0:
256,192,161856,6,0,P|311:219|335:277,1,127.500004863739,4|8,1:2|0:0,0:0:0:0:
236,360,162488,1,0,0:0:0:0:
144,272,162804,1,8,0:0:0:0:
200,156,163120,2,0,L|312:96,1,127.500004863739,0|8,0:0|0:0,0:0:0:0:
424,160,163751,2,0,L|397:284,1,127.500004863739,0|8,0:0|0:0,0:0:0:0:
288,352,164383,5,0,0:0:0:0:
180,280,164699,1,8,0:0:0:0:
216,156,165014,2,0,P|258:109|319:99,1,127.500004863739,0|8,0:0|0:0,0:0:0:0:
408,192,165646,1,0,0:0:0:0:
104,192,166909,6,0,P|76:136|92:75,1,127.500004863739,4|8,1:2|0:0,0:0:0:0:
220,76,167541,2,0,P|247:131|231:192,1,127.500004863739,0|8,0:0|0:0,0:0:0:0:
136,280,168172,1,0,0:0:0:0:
256,328,168488,1,8,0:0:0:0:
376,280,168804,2,0,L|428:164,1,127.500004863739,0|8,0:0|0:0,0:0:0:0:
332,80,169435,6,0,L|272:60,2,63.7500024318696,0|0|8,0:0|0:0|0:0,0:0:0:0:
256,184,170067,2,0,L|196:208,2,63.7500024318696,0|0|8,0:0|0:0|0:0,0:0:0:0:
344,276,170699,1,0,0:0:0:0:
240,348,171014,1,8,0:0:0:0:
162,360,171172,1,8,0:0:0:0:
100,310,171330,1,8,0:0:0:0:
56,164,171646,2,0,L|80:140,3,31.8750012159348
116,120,171962,6,0,L|196:148,1,85,4|0,1:2|0:0,0:0:0:0:
396,120,172277,2,0,L|316:148,1,85,8|0,1:2|0:0,0:0:0:0:
116,156,172593,2,0,L|196:184,1,85,4|0,1:2|0:0,0:0:0:0:
396,156,172908,2,0,L|316:184,1,85,8|0,1:2|0:0,0:0:0:0:
228,104,173225,6,0,L|236:60,3,42.5,2|2|2|2,1:2|1:2|1:2|1:2,0:0:0:0:
284,104,173541,2,0,L|276:60,3,42.5,2|2|2|2,1:2|1:2|1:2|1:2,0:0:0:0:
256,44,173856,6,0,L|256:216,1,170,0|0,1:2|0:0,0:0:0:0:
256,214,175120,6,0,L|248:184,3,31.8750012159348,8|0|0|0,1:0|0:0|1:0|0:0,0:0:0:0:
204,180,175435,2,0,L|180:216,3,42.5,10|0|0|0,1:0|0:0|1:0|0:0,0:0:0:0:
132,204,175751,6,0,P|112:157|120:107,1,101.999996887207,4|8,1:2|0:0,0:0:0:0:
220,132,176067,2,0,P|239:178|231:228,1,101.999996887207,0|8,0:0|0:0,0:0:0:0:
120,212,176383,2,0,P|97:166|96:115,1,101.999996887207,0|8,0:0|0:0,0:0:0:0:
231,121,176699,2,0,P|253:166|254:217,1,101.999996887207,0|8,0:0|0:0,0:0:0:0:
236,316,177014,5,4,1:2:0:0:
328,364,177172,1,8,0:0:0:0:
416,307,177330,2,0,P|440:263|440:213,1,101.999996887207,8|8,0:0|0:0,0:0:0:0:
352,160,177646,2,0,B|304:168|304:168|256:144|256:144|208:168|208:168|160:160,1,203.999993774414
64,120,178120,1,8,0:0:0:0:
132,44,178277,6,0,L|232:72,1,101.999996887207,4|8,1:2|0:0,0:0:0:0:
256,172,178593,2,0,L|156:200,1,101.999996887207,0|8,0:0|0:0,0:0:0:0:
120,296,178909,1,0,0:0:0:0:
200,360,179067,1,8,0:0:0:0:
200,360,179146,1,0,0:0:0:0:
200,360,179225,2,0,P|249:349|283:313,1,101.999996887207,0|8,0:0|0:0,0:0:0:0:
328,220,179541,6,0,P|286:192|236:193,1,101.999996887207,4|8,1:2|0:0,0:0:0:0:
152,252,179856,2,0,L|192:288,2,50.9999984436036,0|0|8,0:0|0:0|0:0,0:0:0:0:
176,152,180172,1,0,0:0:0:0:
272,124,180330,2,0,L|320:140,2,50.9999984436036,8|0|0,0:0|0:0|0:0,0:0:0:0:
172,144,180646,1,8,0:0:0:0:
116,232,180804,6,0,L|208:280,1,101.999996887207,4|8,1:2|0:0,0:0:0:0:
256,192,181120,2,0,L|348:144,1,101.999996887207,0|8,0:0|0:0,0:0:0:0:
396,236,181435,2,0,L|304:284,1,101.999996887207,8|8,0:0|0:0,0:0:0:0:
256,196,181751,2,0,L|164:148,1,101.999996887207,8|8,0:0|0:0,0:0:0:0:
64,156,182067,5,4,1:2:0:0:
21,248,182225,1,8,0:0:0:0:
77,332,182383,2,0,P|127:331|171:305,1,101.999996887207,0|8,0:0|0:0,0:0:0:0:
273,316,182699,2,0,P|176:309|136:220,1,203.999993774414
168,124,183172,1,8,0:0:0:0:
252,184,183330,6,0,P|161:224|72:181,1,203.999993774414,4|0,1:2|0:0,0:0:0:0:
88,80,183804,1,8,0:0:0:0:
180,36,183962,1,0,0:0:0:0:
272,76,184120,1,8,0:0:0:0:
272,76,184199,1,0,0:0:0:0:
272,76,184277,2,0,L|332:160,1,101.999996887207,0|8,0:0|0:0,0:0:0:0:
292,256,184593,5,4,1:2:0:0:
196,284,184751,2,0,L|144:296,2,50.9999984436036,8|0|0,0:0|0:0|0:0,0:0:0:0:
288,238,185067,1,8,0:0:0:0:
336,148,185225,2,0,P|304:108|257:92,1,101.999996887207,0|8,0:0|0:0,0:0:0:0:
168,140,185541,2,0,L|144:188,3,50.9999984436036,0|0|8|0,0:0|0:0|0:0|0:0,0:0:0:0:
116,192,185856,6,0,L|56:108,1,101.999996887207,4|8,1:2|0:0,0:0:0:0:
144,60,186172,2,0,L|204:144,1,101.999996887207,0|8,0:0|0:0,0:0:0:0:
308,143,186488,2,0,L|368:60,1,101.999996887207,0|8,0:0|0:0,0:0:0:0:
455,108,186804,2,0,L|396:192,1,101.999996887207,0|8,0:0|0:0,0:0:0:0:
320,260,187120,5,4,1:2:0:0:
220,244,187277,1,8,0:0:0:0:
184,148,187435,2,0,P|210:105|255:84,1,101.999996887207,8|8,0:0|0:0,0:0:0:0:
316,168,187751,2,0,B|335:232|335:232|305:296|305:296|324:360,1,203.999993774414
428,352,188225,1,8,0:0:0:0:
476,260,188383,6,0,L|436:164,1,101.999996887207,4|8,1:2|0:0,0:0:0:0:
380,252,188699,2,0,L|309:175,1,101.999996887207,0|8,0:0|0:0,0:0:0:0:
212,148,189014,1,0,0:0:0:0:
132,212,189172,1,8,0:0:0:0:
132,212,189251,1,0,0:0:0:0:
132,212,189330,2,0,L|96:308,1,101.999996887207,0|8,0:0|0:0,0:0:0:0:
188,348,189646,6,0,P|240:336|268:296,1,101.999996887207,4|8,1:2|0:0,0:0:0:0:
248,196,189962,2,0,L|216:152,2,50.9999984436036,0|0|8,0:0|0:0|0:0,0:0:0:0:
352,192,190277,1,0,0:0:0:0:
408,104,190435,2,0,L|424:56,2,50.9999984436036,8|0|0,0:0|0:0|0:0,0:0:0:0:
344,184,190751,1,8,0:0:0:0:
244,188,190909,6,0,P|192:168|168:128,1,101.999996887207,4|8,1:2|0:0,0:0:0:0:
68,144,191225,2,0,P|58:193|80:238,1,101.999996887207,0|8,0:0|0:0,0:0:0:0:
180,268,191541,2,0,L|244:188,1,101.999996887207,8|8,0:0|0:0,0:0:0:0:
344,176,191856,2,0,L|408:256,1,101.999996887207,8|8,0:0|0:0,0:0:0:0:
364,348,192172,5,4,1:2:0:0:
264,368,192330,1,8,0:0:0:0:
264,368,192409,1,0,0:0:0:0:
264,368,192488,2,0,P|248:316|256:268,1,101.999996887207,0|8,0:0|0:0,0:0:0:0:
240,168,192804,2,0,P|184:184|156:216,1,101.999996887207,0|8,0:0|0:0,0:0:0:0:
104,304,193120,6,0,P|56:284|28:244,1,101.999996887207,0|8,0:0|0:0,0:0:0:0:
48,144,193435,1,8,0:0:0:0:
144,112,193593,1,8,0:0:0:0:
256,284,193909,1,0,0:0:0:0:
256,284,193988,1,0,0:0:0:0:
256,284,194067,2,0,P|300:312|348:304,1,101.999996887207,8|8,0:0|0:0,0:0:0:0:
320,204,194383,2,0,P|288:160|284:112,1,101.999996887207
200,52,194699,5,0,0:0:0:0:
108,96,194856,1,8,0:0:0:0:
200,140,195014,1,8,0:0:0:0:
108,184,195172,1,8,0:0:0:0:
200,228,195330,1,8,0:0:0:0:
16,140,195646,1,8,0:0:0:0:
200,52,195962,6,0,P|256:72|280:108,1,101.999996887207,8|0,0:0|0:0,0:0:0:0:
187,152,196277,2,0,P|152:243|207:323,1,203.999993774414
364,192,196909,1,0,0:0:0:0:
244,48,197225,6,0,L|156:80,1,93.5000028533936,6|0,0:0|0:0,0:0:0:0:
192,168,197541,2,0,L|280:200,1,93.5000028533936,8|0,0:0|0:0,0:0:0:0:
256,292,197856,2,0,P|169:319|95:267,1,187.000005706787,2|10,0:0|0:0,0:0:0:0:
116,80,198488,5,2,0:0:0:0:
300,40,198804,1,8,0:0:0:0:
324,128,198962,1,2,0:0:0:0:
256,192,199120,2,0,P|179:238|168:328,1,187.000005706787,0|10,0:0|0:0,0:0:0:0:
348,372,199751,5,2,0:0:0:0:
472,232,200067,2,0,L|492:140,1,93.5000028533936,10|0,0:0|0:0,0:0:0:0:
420,80,200383,2,0,L|379:264,1,187.000005706787,0|10,0:0|0:0,0:0:0:0:
216,352,201014,5,2,0:0:0:0:
116,192,201330,2,0,L|168:112,1,93.5000028533936,8|2,0:0|0:0,0:0:0:0:
256,68,201646,2,0,L|296:92,3,46.7500014266968
296,140,201962,2,0,L|256:164,3,46.7500014266968,10|0|0|0,0:0|0:0|0:0|0:0,0:0:0:0:
256,212,202277,6,0,P|296:244|336:248,1,93.5000028533936,6|0,0:0|0:0,0:0:0:0:
412,192,202593,2,0,L|384:152,2,46.7500014266968,8|0|0,0:0|0:0|0:0,0:0:0:0:
432,284,202909,2,0,P|336:352|272:336,1,187.000005706787,2|10,0:0|0:0,0:0:0:0:
156,192,203541,1,2,0:0:0:0:
308,84,203856,2,0,P|332:128|332:176,1,93.5000028533936,8|2,0:0|0:0,0:0:0:0:
244,144,204172,2,0,P|309:80|400:81,1,187.000005706787,0|10,0:0|0:0,0:0:0:0:
484,247,204804,6,0,P|450:279|404:284,1,93.5000028533936,2|0,0:0|0:0,0:0:0:0:
320,240,205120,2,0,L|296:200,2,46.7500014266968,10|0|0,0:0|0:0|0:0,0:0:0:0:
268,316,205435,2,0,P|220:328|176:312,1,93.5000028533936
120,240,205751,1,2,0:0:0:0:
256,112,206067,6,0,P|304:104|344:120,1,93.5000028533936,10|8,0:0|0:0,0:0:0:0:
320,212,206383,2,0,P|274:220|231:203,1,93.5000028533936,8|10,0:0|0:0,0:0:0:0:
220,108,206699,2,0,P|316:92|388:140,1,187.000005706787,2|2,0:0|0:0,0:0:0:0:
304,308,207330,6,0,L|212:296,1,93.5000028533936,6|0,0:0|0:0,0:0:0:0:
144,228,207646,2,0,L|116:184,2,46.7500014266968,8|0|0,0:0|0:0|0:0,0:0:0:0:
236,204,207962,1,2,0:0:0:0:
80,104,208277,1,10,0:0:0:0:
68,292,208593,6,0,P|104:320|150:325,1,93.5000028533936,2|0,0:0|0:0,0:0:0:0:
236,288,208909,2,0,P|281:293|318:321,1,93.5000028533936,8|2,0:0|0:0,0:0:0:0:
412,335,209225,2,0,P|450:253|414:170,1,187.000005706787,0|10,0:0|0:0,0:0:0:0:
256,72,209856,6,0,L|220:160,1,93.5000028533936,2|0,0:0|0:0,0:0:0:0:
132,196,210172,1,10,0:0:0:0:
132,196,210251,1,0,0:0:0:0:
132,196,210330,2,0,P|100:156|96:116,1,93.5000028533936
156,40,210646,2,0,L|196:16,2,46.7500014266968,0|0|2,0:0|0:0|0:0,0:0:0:0:
24,172,211120,5,2,0:0:0:0:
144,316,211435,2,0,L|228:276,1,93.5000028533936,8|2,0:0|0:0,0:0:0:0:
236,184,211751,2,0,L|204:148,3,46.7500014266968
232,112,212067,2,0,L|272:88,3,46.7500014266968,10|0|0|0,0:0|0:0|0:0|0:0,0:0:0:0:
316,108,212383,6,0,L|316:204,1,93.5000028533936,6|0,0:0|0:0,0:0:0:0:
400,240,212699,2,0,L|428:200,2,46.7500014266968,8|0|0,0:0|0:0|0:0,0:0:0:0:
320,288,213014,1,2,0:0:0:0:
232,260,213172,1,0,0:0:0:0:
232,260,213251,1,0,0:0:0:0:
232,260,213330,2,0,P|198:228|184:183,1,93.5000028533936,10|0,0:0|0:0,0:0:0:0:
276,164,213646,6,0,P|273:117|294:76,1,93.5000028533936,2|0,0:0|0:0,0:0:0:0:
372,126,213962,2,0,P|403:91|447:77,1,93.5000028533936,8|2,0:0|0:0,0:0:0:0:
504,152,214277,1,0,0:0:0:0:
392,300,214593,1,10,0:0:0:0:
256,172,214909,6,0,P|210:182|175:212,1,93.5000028533936,2|0,0:0|0:0,0:0:0:0:
132,296,215225,2,0,L|160:336,2,46.7500014266968,10|0|0,0:0|0:0|0:0,0:0:0:0:
88,212,215541,1,0,0:0:0:0:
120,124,215699,1,0,0:0:0:0:
120,124,215777,1,0,0:0:0:0:
120,124,215856,2,0,P|157:98|203:89,1,93.5000028533936,10|0,0:0|0:0,0:0:0:0:
296,100,216172,6,0,L|336:124,3,46.7500014266968,2|0|0|0,0:0|0:0|0:0|0:0,0:0:0:0:
336,172,216488,2,0,L|296:196,3,46.7500014266968,8|0|2|0,0:0|0:0|0:0|0:0,0:0:0:0:
296,244,216804,2,0,L|336:268,3,46.7500014266968
336,316,217120,2,0,L|296:340,3,46.7500014266968,10|0|0|0,0:0|0:0|0:0|0:0,0:0:0:0:
256,192,217435,12,2,218383,2:2:0:0:
