osu file format v14

[General]
AudioFilename: nuko.mp3
AudioLeadIn: 0
PreviewTime: 121120
Countdown: 0
SampleSet: Normal
StackLeniency: 0.7
Mode: 0
LetterboxInBreaks: 0
WidescreenStoryboard: 1

[Editor]
DistanceSpacing: 1.5
BeatDivisor: 4
GridSize: 4
TimelineZoom: 3.999998

[Metadata]
Title:Super Nuko World
TitleUnicode:すーぱーぬこわーるど
Artist:yuikonnu & ayaponzu*
ArtistUnicode:ゆいこんぬ & あやぽんず*
Creator:Saten
Version:Extra
Source:
Tags:Saten-san
BeatmapID:418761
BeatmapSetID:173302

[Difficulty]
HPDrainRate:6
CircleSize:4
OverallDifficulty:8
ApproachRate:9.2
SliderMultiplier:2
SliderTickRate:2

[Events]
//Background and Video events
Video,0,"nuko.avi"
0,0,"40549137.jpg",0,0
//Break Periods
2,77741,87076
//Storyboard Layer 0 (Background)
//Storyboard Layer 1 (Fail)
//Storyboard Layer 2 (Pass)
//Storyboard Layer 3 (Foreground)
//Storyboard Sound Samples

[TimingPoints]
805.5,315.789473684211,4,2,1,80,1,0
5858,-100,4,1,1,80,0,0
10910,-90.9090909090909,4,1,1,80,0,0
31752,-133.333333333333,4,1,1,80,0,0
32068,315.789473684211,4,1,2,80,1,0
33962,-133.333333333333,4,1,1,80,0,0
34594,-100,4,1,2,80,0,0
36489,-133.333333333333,4,1,2,80,0,0
37120,-100,4,1,2,80,0,0
42173,-133.333333333333,4,1,1,80,0,0
52278,-100,4,1,1,80,0,0
54173,-133.333333333333,4,1,1,80,0,0
54489,-100,4,1,1,80,0,0
54804,-83.3333333333333,4,1,3,80,0,1
74699,-83.3333333333333,4,1,1,80,0,1
76278,-83.3333333333333,4,1,3,80,0,1
76910,-83.3333333333333,4,1,1,80,0,1
77541,-90.9090909090909,4,1,1,80,0,0
98383,-133.333333333333,4,1,1,80,0,0
98699,315.789473684211,4,1,2,80,1,0
100593,-133.333333333333,4,1,2,80,0,0
101225,-100,4,1,2,80,0,0
103120,-133.333333333333,4,1,2,80,0,0
103751,-100,4,1,2,80,0,0
108804,-133.333333333333,4,1,1,80,0,0
118909,-100,4,1,2,80,0,0
120804,-133.333333333333,4,1,2,80,0,0
121120,-90.9090909090909,4,1,2,80,0,0
121435,-83.3333333333333,4,1,3,80,0,1
141330,-83.3333333333333,4,1,3,70,0,1
141646,-100,4,1,1,80,0,0
151751,-83.3333333333333,4,1,1,80,0,1
161856,-133.333333333333,4,1,1,80,0,0
171962,-100,4,1,1,80,0,0
173856,-200,4,2,1,80,0,0
175120,-133.333333333333,4,1,1,80,0,0
175435,-100,4,1,1,80,0,0
175751,-83.3333333333333,4,1,2,80,0,1
185856,-83.3333333333333,4,1,1,80,0,1
197225,-100,4,1,1,80,0,0

[HitObjects]
256,352,805,6,0,P|214:328|184:288,1,100,2|2,0:0|0:0,0:0:0:0:
183,287,1042,1,0,0:0:0:0:
183,287,1121,1,0,0:0:0:0:
216,192,1279,1,2,0:0:0:0:
232,184,1594,1,2,0:0:0:0:
248,176,1910,1,2,0:0:0:0:
264,168,2226,6,0,P|272:112|256:72,1,100,2|0,0:0|0:0,0:0:0:0:
168,124,2542,2,0,P|72:136|20:56,1,200,2|2,0:0|0:0,0:0:0:0:
20,58,2937,1,0,0:0:0:0:
20,58,3016,1,2,0:0:0:0:
128,40,3173,1,0,0:0:0:0:
92,144,3331,6,0,P|108:192|148:220,1,100,2|2,0:0|0:0,0:0:0:0:
146,219,3568,1,0,0:0:0:0:
146,219,3647,1,0,0:0:0:0:
256,192,3805,1,2,0:0:0:0:
264,172,4121,1,2,0:0:0:0:
272,152,4437,1,2,0:0:0:0:
280,132,4752,6,0,P|328:144|360:180,1,100,2|0,0:0|0:0,0:0:0:0:
392,288,5068,2,0,P|468:228|464:132,1,200,2|2,0:0|0:0,0:0:0:0:
444,116,5463,1,2,0:0:0:0:
424,100,5542,1,2,0:0:0:0:
404,84,5621,1,0,0:0:0:0:
384,68,5700,1,2,0:0:0:0:
276,40,5858,6,0,L|216:120,1,100,12|0,1:2|0:0,0:0:0:0:
216,120,6094,1,0,0:0:0:0:
216,120,6173,1,8,0:0:0:0:
256,224,6331,1,0,0:0:0:0:
180,303,6489,2,0,P|130:305|83:287,1,100,8|0,0:0|0:0,0:0:0:0:
135,191,6805,2,0,P|185:193|232:175,1,100,8|0,0:0|0:0,0:0:0:0:
180,79,7121,6,0,P|130:81|83:63,1,100,8|0,0:0|0:0,0:0:0:0:
84,64,7358,1,0,0:0:0:0:
84,64,7437,1,8,0:0:0:0:
20,152,7594,2,0,L|32:200,2,50,0|0|8,0:0|0:0|0:0,0:0:0:0:
132,140,7910,2,0,L|120:188,2,50,0|0|8,0:0|0:0|0:0,0:0:0:0:
236,100,8226,5,0,0:0:0:0:
236,100,8305,1,0,0:0:0:0:
236,100,8384,1,10,1:2:0:0:
272,104,8463,1,2,1:2:0:0:
300,128,8542,1,2,1:2:0:0:
308,160,8621,1,2,1:2:0:0:
300,196,8700,1,10,1:2:0:0:
276,220,8779,1,2,1:2:0:0:
248,240,8858,1,2,1:2:0:0:
232,272,8937,1,2,1:2:0:0:
228,308,9016,1,8,0:0:0:0:
248,336,9094,1,0,0:0:0:0:
280,352,9173,1,0,0:0:0:0:
316,348,9252,1,0,0:0:0:0:
344,324,9331,1,8,0:0:0:0:
371,215,9489,6,2,P|291:161|200:191,1,200,2|0,0:0|0:0,0:0:0:0:
180,220,9884,1,0,0:0:0:0:
152,240,9963,1,2,0:0:0:0:
116,248,10042,1,0,0:0:0:0:
84,240,10121,1,0,0:0:0:0:
56,220,10200,1,0,0:0:0:0:
40,188,10279,2,0,L|16:144,2,50,8|0|0,0:0|0:0|0:0,0:0:0:0:
136,136,10594,2,0,L|160:92,2,50,8|0|0,0:0|0:0|0:0,0:0:0:0:
256,192,10910,6,0,P|308:176|344:136,1,110.000003356934,6|0,0:0|0:0,0:0:0:0:
256,52,11226,1,8,0:0:0:0:
256,52,11305,1,0,0:0:0:0:
256,52,11384,2,0,P|204:80|152:80,1,110.000003356934,0|2,0:0|0:0,0:0:0:0:
36,48,11700,1,0,0:0:0:0:
36,48,11779,1,0,0:0:0:0:
36,48,11858,2,0,P|24:104|44:152,1,110.000003356934,10|0,0:0|0:0,0:0:0:0:
204,192,12173,5,2,0:0:0:0:
132,44,12331,1,0,0:0:0:0:
112,208,12489,2,0,L|104:264,2,55.0000016784668,8|0|2,0:0|0:0|0:0,0:0:0:0:
228,88,12805,2,0,P|280:72|336:76,1,110.000003356934
334,75,13042,1,0,0:0:0:0:
334,75,13121,1,10,0:0:0:0:
336,240,13279,5,0,0:0:0:0:
336,240,13358,1,0,0:0:0:0:
336,240,13437,2,0,P|300:192|292:144,1,110.000003356934,2|0,0:0|0:0,0:0:0:0:
452,108,13752,1,10,0:0:0:0:
292,144,13910,1,0,0:0:0:0:
292,144,13989,1,0,0:0:0:0:
292,144,14068,2,0,P|251:182|234:233,1,110.000003356934
332,364,14384,5,10,0:0:0:0:
180,296,14542,2,0,L|128:324,2,55.0000016784668,0|0|2,0:0|0:0|0:0,0:0:0:0:
256,148,14858,2,0,L|308:176,2,55.0000016784668,0|0|8,0:0|0:0|0:0,0:0:0:0:
96,192,15173,1,2,0:0:0:0:
256,240,15331,5,0,0:0:0:0:
296,244,15410,1,0,0:0:0:0:
332,236,15489,1,0,0:0:0:0:
360,208,15568,1,0,0:0:0:0:
372,172,15647,1,10,0:0:0:0:
364,132,15726,1,0,0:0:0:0:
340,104,15805,1,0,0:0:0:0:
304,92,15884,1,0,0:0:0:0:
264,96,15963,6,0,L|208:192,1,110.000003356934,6|0,0:0|0:0,0:0:0:0:
96,232,16279,1,8,0:0:0:0:
96,232,16358,1,0,0:0:0:0:
96,232,16437,2,0,L|112:124,1,110.000003356934,0|2,0:0|0:0,0:0:0:0:
28,36,16752,1,0,0:0:0:0:
28,36,16831,1,0,0:0:0:0:
28,35,16910,2,0,P|6:85|13:139,1,110.000003356934,10|0,0:0|0:0,0:0:0:0:
132,116,17226,5,2,0:0:0:0:
84,228,17384,1,0,0:0:0:0:
200,192,17542,2,0,L|252:208,2,55.0000016784668,8|0|2,0:0|0:0|0:0,0:0:0:0:
80,160,17858,1,0,0:0:0:0:
108,40,18016,1,0,0:0:0:0:
108,40,18094,1,0,0:0:0:0:
108,40,18173,2,0,L|216:24,1,110.000003356934,10|0,0:0|0:0,0:0:0:0:
404,40,18489,6,0,L|296:24,1,110.000003356934,2|0,0:0|0:0,0:0:0:0:
256,140,18805,1,10,0:0:0:0:
276,172,18884,1,0,0:0:0:0:
296,204,18963,1,0,0:0:0:0:
316,236,19042,1,0,0:0:0:0:
336,268,19121,2,0,P|390:239|416:200,1,110.000003356934
415,200,19358,1,0,0:0:0:0:
415,200,19437,1,10,0:0:0:0:
360,92,19594,5,0,0:0:0:0:
360,92,19673,1,0,0:0:0:0:
360,92,19752,2,0,L|256:56,1,110.000003356934,10|8,0:0|0:0,0:0:0:0:
152,176,20068,2,0,L|256:140,1,110.000003356934,8|10,0:0|0:0,0:0:0:0:
256,260,20384,1,2,0:0:0:0:
256,268,20700,1,2,0:0:0:0:
255,276,21016,6,0,P|211:307|157:312,1,110.000003356934,6|0,0:0|0:0,0:0:0:0:
80,220,21331,1,8,0:0:0:0:
80,220,21410,1,0,0:0:0:0:
80,220,21489,2,0,P|108:168|108:116,1,110.000003356934,0|2,0:0|0:0,0:0:0:0:
20,32,21805,1,0,0:0:0:0:
20,32,21884,1,0,0:0:0:0:
20,32,21963,2,0,L|20:144,1,110.000003356934,10|0,0:0|0:0,0:0:0:0:
136,176,22279,5,2,0:0:0:0:
216,84,22437,1,0,0:0:0:0:
96,108,22594,1,8,0:0:0:0:
96,108,22673,1,0,0:0:0:0:
96,108,22752,2,0,P|64:156|64:208,1,110.000003356934,2|0,0:0|0:0,0:0:0:0:
180,240,23068,2,0,L|228:212,2,55.0000016784668,0|0|10,0:0|0:0|0:0,0:0:0:0:
232,128,23384,5,0,0:0:0:0:
232,128,23463,1,0,0:0:0:0:
232,128,23542,2,0,P|284:152|312:196,1,110.000003356934,2|0,0:0|0:0,0:0:0:0:
256,304,23858,1,10,0:0:0:0:
220,312,23937,1,0,0:0:0:0:
184,324,24016,1,0,0:0:0:0:
148,332,24094,1,0,0:0:0:0:
112,344,24173,2,0,L|48:252,1,110.000003356934
49,253,24410,1,0,0:0:0:0:
49,253,24489,1,10,0:0:0:0:
128,160,24647,5,0,0:0:0:0:
160,276,24805,2,0,P|206:309|256:304,1,110.000003356934,2|0,0:0|0:0,0:0:0:0:
300,172,25121,2,0,P|272:221|224:237,1,110.000003356934,8|2,0:0|0:0,0:0:0:0:
128,160,25437,5,0,0:0:0:0:
104,128,25516,1,0,0:0:0:0:
104,88,25594,1,0,0:0:0:0:
124,56,25673,1,0,0:0:0:0:
156,36,25752,1,10,0:0:0:0:
196,36,25831,1,0,0:0:0:0:
232,48,25910,1,0,0:0:0:0:
256,80,25989,1,0,0:0:0:0:
256,120,26068,6,0,L|256:232,1,110.000003356934,6|0,0:0|0:0,0:0:0:0:
412,284,26384,2,0,L|460:256,2,55.0000016784668,8|0|0,0:0|0:0|0:0,0:0:0:0:
256,340,26700,2,0,L|256:228,1,110.000003356934,2|0,0:0|0:0,0:0:0:0:
256,230,26937,1,0,0:0:0:0:
256,230,27016,1,10,0:0:0:0:
156,100,27173,5,0,0:0:0:0:
156,100,27252,1,0,0:0:0:0:
156,100,27331,2,0,L|48:120,1,110.000003356934,2|0,0:0|0:0,0:0:0:0:
84,280,27647,2,0,L|136:300,2,55.0000016784668,8|0|2,0:0|0:0|0:0,0:0:0:0:
204,164,27963,1,0,0:0:0:0:
44,120,28121,2,0,L|28:172,2,55.0000016784668,0|0|10,0:0|0:0|0:0,0:0:0:0:
196,52,28437,5,0,0:0:0:0:
196,52,28516,1,0,0:0:0:0:
196,52,28594,2,0,L|276:128,1,110.000003356934,2|0,0:0|0:0,0:0:0:0:
184,268,28910,2,0,L|104:192,1,110.000003356934,10|0,0:0|0:0,0:0:0:0:
12,328,29226,2,0,L|56:364,2,55.0000016784668,0|0|0,0:0|0:0|0:0,0:0:0:0:
104,192,29542,5,10,0:0:0:0:
148,352,29700,1,0,0:0:0:0:
28,236,29858,2,0,P|16:180|40:132,1,110.000003356934,2|0,0:0|0:0,0:0:0:0:
180,236,30173,2,0,P|192:180|168:132,1,110.000003356934,8|2,0:0|0:0,0:0:0:0:
44,24,30489,2,0,L|8:68,2,55.0000016784668,0|0|0,0:0|0:0|0:0,0:0:0:0:
188,108,30805,2,0,L|224:152,2,55.0000016784668,10|0|0,0:0|0:0|0:0,0:0:0:0:
104,252,31121,5,0,0:0:0:0:
108,292,31200,1,0,0:0:0:0:
132,324,31279,1,0,0:0:0:0:
168,336,31358,1,0,0:0:0:0:
208,332,31437,1,0,0:0:0:0:
240,308,31516,1,0,0:0:0:0:
252,272,31594,1,0,0:0:0:0:
244,232,31673,1,0,0:0:0:0:
220,204,31752,2,0,L|92:204,1,125.000004768372,0|0,0:0|2:0,0:0:0:0:
60,204,32068,6,0,P|40:160|52:112,1,100,4|8,1:2|0:0,0:0:0:0:
52,111,32304,1,0,0:0:0:0:
52,111,32383,1,0,0:0:0:0:
172,64,32541,1,8,0:0:0:0:
148,192,32699,1,0,0:0:0:0:
252,272,32857,1,8,0:0:0:0:
252,272,32936,1,0,0:0:0:0:
252,272,33015,2,0,P|292:240|312:196,1,100,0|8,0:0|0:0,0:0:0:0:
192,144,33331,6,0,L|96:112,1,100,0|8,0:0|0:0,0:0:0:0:
320,108,33646,2,0,L|416:76,1,100,0|8,0:0|0:0,0:0:0:0:
256,32,33962,2,0,L|256:184,1,150.000005722046,0|0,0:0|2:0,0:0:0:0:
256,182,34594,5,4,1:2:0:0:
198,361,34751,1,8,0:0:0:0:
351,250,34910,1,0,0:0:0:0:
161,250,35067,1,8,0:0:0:0:
314,361,35225,1,0,0:0:0:0:
256,182,35383,1,8,0:0:0:0:
198,361,35541,1,0,0:0:0:0:
351,250,35699,1,8,0:0:0:0:
161,250,35856,5,8,0:0:0:0:
135,227,35936,1,8,0:0:0:0:
120,194,36015,1,8,0:0:0:0:
118,158,36094,1,8,0:0:0:0:
131,126,36173,1,8,0:0:0:0:
156,103,36252,1,8,0:0:0:0:
188,92,36331,1,8,0:0:0:0:
224,94,36410,1,8,0:0:0:0:
256,108,36489,6,0,L|256:260,1,150.000005722046,0|2,0:0|0:0,0:0:0:0:
256,288,37120,6,0,P|352:276|396:192,1,200,4|8,1:2|0:0,0:0:0:0:
396,191,37515,1,0,0:0:0:0:
396,191,37594,1,0,0:0:0:0:
264,148,37752,2,0,P|276:52|360:7,1,200,0|8,0:0|0:0,0:0:0:0:
360,7,38146,1,0,0:0:0:0:
360,7,38225,1,0,0:0:0:0:
464,100,38383,6,0,P|416:120|368:116,1,100
284,228,38699,2,0,P|332:248|380:244,1,100,8|0,0:0|0:0,0:0:0:0:
323,115,39015,2,0,P|227:124|169:202,1,200,0|8,0:0|0:0,0:0:0:0:
228,328,39489,1,0,0:0:0:0:
256,192,39646,5,4,0:0:0:0:
256,192,39962,1,8,0:0:0:0:
144,136,40120,1,0,0:0:0:0:
368,248,40278,2,0,P|392:204|392:156,1,100
288,60,40594,5,8,0:0:0:0:
288,60,40673,1,0,0:0:0:0:
288,60,40752,2,0,P|233:59|192:44,1,100,0|8,0:0|0:0,0:0:0:0:
184,48,41068,1,8,0:0:0:0:
176,52,41225,1,8,0:0:0:0:
168,56,41383,1,8,0:0:0:0:
160,60,41541,5,8,0:0:0:0:
160,68,41857,1,2,0:0:0:0:
160,80,42173,6,0,P|188:148|256:168,1,150.000005722046,4|8,1:2|0:0,0:0:0:0:
356,136,42646,1,0,0:0:0:0:
444,192,42804,2,0,P|416:264|352:296,1,150.000005722046,0|8,0:0|0:0,0:0:0:0:
256,256,43278,1,0,0:0:0:0:
172,192,43436,6,0,L|140:124,1,75.0000028610231
340,192,43752,2,0,L|372:124,1,75.0000028610231,8|0,0:0|0:0,0:0:0:0:
256,106,44068,2,0,L|256:256,1,150.000005722046,0|8,0:0|0:0,0:0:0:0:
52,308,44699,5,0,0:0:0:0:
76,100,45015,1,8,0:0:0:0:
256,208,45331,2,0,P|328:180|352:116,1,150.000005722046
272,48,45804,1,8,0:0:0:0:
176,92,45962,6,0,L|176:244,1,150.000005722046
96,312,46436,2,0,P|72:272|68:240,1,75.0000028610231,8|0,0:0|0:0,0:0:0:0:
148,176,46752,2,0,P|172:136|176:104,1,75.0000028610231,8|0,0:0|0:0,0:0:0:0:
88,48,47068,1,8,0:0:0:0:
8,116,47225,6,0,L|8:268,1,150.000005722046,4|8,1:2|0:0,0:0:0:0:
100,316,47699,1,0,0:0:0:0:
196,271,47857,2,0,P|210:237|212:200,1,75.0000028610231
216,100,48173,2,0,P|238:130|270:149,1,75.0000028610231,8|0,0:0|0:0,0:0:0:0:
355,203,48489,2,0,P|318:208|285:225,1,75.0000028610231
300,332,48804,1,8,0:0:0:0:
112,160,49120,1,0,0:0:0:0:
355,83,49436,1,8,0:0:0:0:
256,192,49752,6,0,L|200:248,2,75.0000028610231,0|0|8,0:0|0:0|0:0,0:0:0:0:
256,192,50383,2,0,L|312:248,2,75.0000028610231,0|0|8,0:0|0:0|0:0,0:0:0:0:
160,148,50857,1,0,0:0:0:0:
63,192,51015,2,0,P|75:264|131:311,1,150.000005722046,0|8,0:0|0:0,0:0:0:0:
236,296,51489,1,8,0:0:0:0:
256,192,51646,1,0,0:0:0:0:
256,188,51962,5,0,0:0:0:0:
284,164,52041,1,0,0:0:0:0:
320,156,52120,1,0,0:0:0:0:
356,160,52199,1,0,0:0:0:0:
388,176,52278,2,0,L|416:272,1,100,4|0,1:2|0:0,0:0:0:0:
292,340,52594,2,0,L|320:244,1,100
124,176,52910,2,0,L|96:272,1,100,4|0,1:2|0:0,0:0:0:0:
220,340,53226,2,0,L|192:244,1,100
256,120,53541,5,2,1:2:0:0:
252,128,53620,1,2,1:2:0:0:
260,132,53699,1,2,1:2:0:0:
252,136,53778,1,2,1:2:0:0:
260,140,53857,1,2,1:2:0:0:
252,144,53936,1,2,1:2:0:0:
260,148,54015,1,2,1:2:0:0:
252,152,54094,1,2,1:2:0:0:
256,159,54173,6,0,P|193:197|123:175,1,150.000005722046,0|2,0:0|0:0,0:0:0:0:
123,176,54804,6,0,P|92:225|96:284,1,119.999996337891,4|8,1:2|0:0,0:0:0:0:
256,232,55120,2,0,P|314:228|364:259,1,119.999996337891,0|8,0:0|0:0,0:0:0:0:
223,351,55436,2,0,P|183:309|179:250,1,119.999996337891,0|8,0:0|0:0,0:0:0:0:
316,152,55752,2,0,P|356:109|360:50,1,119.999996337891,0|8,0:0|0:0,0:0:0:0:
192,24,56068,5,0,0:0:0:0:
124,176,56225,1,8,0:0:0:0:
148,196,56304,1,0,0:0:0:0:
172,216,56383,1,0,0:0:0:0:
196,236,56462,1,0,0:0:0:0:
220,256,56541,1,8,0:0:0:0:
244,276,56620,1,0,0:0:0:0:
268,296,56699,2,0,L|268:176,1,119.999996337891,0|8,0:0|0:0,0:0:0:0:
128,84,57015,1,0,0:0:0:0:
64,240,57173,5,8,0:0:0:0:
64,240,57252,1,0,0:0:0:0:
64,240,57331,2,0,P|124:248|172:216,1,119.999996337891,4|8,1:2|0:0,0:0:0:0:
256,72,57646,1,0,0:0:0:0:
284,68,57725,1,0,0:0:0:0:
312,76,57804,1,8,0:0:0:0:
336,92,57883,1,0,0:0:0:0:
352,116,57962,1,0,0:0:0:0:
256,256,58120,2,0,L|196:256,2,59.9999981689454,8|0|0,0:0|0:0|0:0,0:0:0:0:
412,192,58436,5,8,0:0:0:0:
412,192,58515,1,0,0:0:0:0:
412,192,58594,2,0,P|446:144|444:85,1,119.999996337891,0|8,0:0|0:0,0:0:0:0:
300,176,58910,2,0,P|297:234|331:283,1,119.999996337891,0|8,0:0|0:0,0:0:0:0:
500,284,59225,1,0,0:0:0:0:
352,364,59383,1,8,0:0:0:0:
352,364,59462,1,0,0:0:0:0:
352,364,59541,2,0,L|236:336,1,119.999996337891,0|8,0:0|0:0,0:0:0:0:
164,184,59857,5,4,1:2:0:0:
256,44,60015,1,8,0:0:0:0:
348,184,60173,2,0,P|392:140|400:84,1,119.999996337891,0|8,0:0|0:0,0:0:0:0:
164,184,60489,2,0,P|120:140|112:84,1,119.999996337891,0|8,0:0|0:0,0:0:0:0:
320,104,60804,1,0,0:0:0:0:
192,104,60962,1,8,0:0:0:0:
256,216,61120,6,0,P|291:265|348:280,1,119.999996337891,0|8,0:0|0:0,0:0:0:0:
346,280,61357,1,0,0:0:0:0:
347,280,61436,1,0,0:0:0:0:
424,128,61594,1,8,0:0:0:0:
424,128,61673,1,0,0:0:0:0:
424,128,61752,2,0,L|348:36,1,119.999996337891,0|8,0:0|0:0,0:0:0:0:
192,104,62068,1,0,0:0:0:0:
332,192,62225,5,8,0:0:0:0:
332,192,62304,1,0,0:0:0:0:
332,191,62383,2,0,P|328:132|295:83,1,119.999996337891,4|8,1:2|0:0,0:0:0:0:
168,192,62699,2,0,P|116:224|60:220,1,119.999996337891,0|8,0:0|0:0,0:0:0:0:
88,52,63015,1,0,0:0:0:0:
256,76,63173,1,8,0:0:0:0:
256,76,63252,1,0,0:0:0:0:
256,76,63331,2,0,L|256:196,1,119.999996337891,0|8,0:0|0:0,0:0:0:0:
396,292,63646,5,0,0:0:0:0:
392,124,63804,1,8,0:0:0:0:
296,260,63962,1,0,0:0:0:0:
296,260,64041,1,0,0:0:0:0:
296,260,64120,2,0,P|236:280|184:264,1,119.999996337891,8|0,0:0|0:0,0:0:0:0:
84,128,64436,1,8,0:0:0:0:
236,196,64594,1,0,0:0:0:0:
264,188,64673,1,0,0:0:0:0:
288,172,64752,1,8,0:0:0:0:
308,148,64831,1,0,0:0:0:0:
320,120,64910,6,0,P|328:60|368:16,1,119.999996337891,4|8,1:2|0:0,0:0:0:0:
192,120,65225,2,0,P|184:60|144:16,1,119.999996337891,0|8,0:0|0:0,0:0:0:0:
319,120,65541,2,0,P|368:83|427:80,1,119.999996337891,0|8,0:0|0:0,0:0:0:0:
192,120,65857,2,0,P|143:83|84:80,1,119.999996337891,0|8,0:0|0:0,0:0:0:0:
28,240,66173,5,0,0:0:0:0:
192,208,66331,1,8,0:0:0:0:
192,208,66410,1,0,0:0:0:0:
192,208,66489,2,0,P|240:164|256:112,1,119.999996337891,0|8,0:0|0:0,0:0:0:0:
108,36,66804,1,0,0:0:0:0:
104,204,66962,1,8,0:0:0:0:
104,204,67041,1,0,0:0:0:0:
104,204,67120,2,0,P|128:264|176:292,1,119.999996337891,0|8,0:0|0:0,0:0:0:0:
312,192,67436,6,0,P|336:136|384:100,1,119.999996337891,4|8,1:2|0:0,0:0:0:0:
488,232,67752,1,0,0:0:0:0:
464,252,67831,1,0,0:0:0:0:
440,272,67910,1,8,0:0:0:0:
416,292,67989,1,0,0:0:0:0:
392,312,68068,2,0,P|379:249|400:200,1,119.999996337891,0|8,0:0|0:0,0:0:0:0:
500,332,68383,1,0,0:0:0:0:
400,200,68541,1,8,0:0:0:0:
320,348,68699,5,0,0:0:0:0:
256,192,68857,1,8,0:0:0:0:
256,192,68936,1,0,0:0:0:0:
256,192,69015,2,0,P|280:128|320:96,1,119.999996337891,0|8,0:0|0:0,0:0:0:0:
472,168,69331,1,0,0:0:0:0:
332,260,69489,2,0,L|288:300,2,59.9999981689454,8|0|0,0:0|0:0|0:0,0:0:0:0:
408,108,69804,1,8,0:0:0:0:
416,276,69962,6,0,P|392:332|344:364,1,119.999996337891,4|8,1:2|0:0,0:0:0:0:
96,276,70278,2,0,P|120:332|168:364,1,119.999996337891,0|8,0:0|0:0,0:0:0:0:
332,260,70594,2,0,P|340:200|320:144,1,119.999996337891,0|8,0:0|0:0,0:0:0:0:
180,260,70910,2,0,P|172:200|192:144,1,119.999996337891,0|8,0:0|0:0,0:0:0:0:
352,200,71225,5,0,0:0:0:0:
160,200,71383,1,8,0:0:0:0:
256,368,71541,1,0,0:0:0:0:
284,356,71620,1,0,0:0:0:0:
312,344,71699,1,8,0:0:0:0:
340,332,71778,1,0,0:0:0:0:
368,320,71857,2,0,L|288:228,1,119.999996337891,0|8,0:0|0:0,0:0:0:0:
172,352,72173,1,0,0:0:0:0:
76,216,72331,5,8,0:0:0:0:
76,216,72410,1,0,0:0:0:0:
76,216,72489,2,0,P|104:156|148:128,1,119.999996337891
436,216,72962,1,8,0:0:0:0:
436,216,73041,1,0,0:0:0:0:
436,216,73120,2,0,P|408:156|364:128,1,119.999996337891
256,256,73436,1,8,0:0:0:0:
256,88,73594,5,0,0:0:0:0:
256,88,73673,1,0,0:0:0:0:
256,88,73752,2,0,P|300:40|352:32,1,119.999996337891,0|8,0:0|0:0,0:0:0:0:
488,132,74068,1,8,0:0:0:0:
456,144,74225,1,8,0:0:0:0:
424,156,74383,1,8,0:0:0:0:
108,40,74699,1,8,0:0:0:0:
256,340,75015,5,4,0:0:0:0:
304,328,75331,1,8,0:0:0:0:
352,316,75646,1,4,1:2:0:0:
400,304,75962,1,8,0:0:0:0:
448,292,76278,5,8,0:0:0:0:
460,252,76357,1,0,0:0:0:0:
452,212,76436,1,8,0:0:0:0:
428,176,76515,1,0,0:0:0:0:
388,160,76594,1,8,0:0:0:0:
344,160,76673,1,0,0:0:0:0:
304,176,76752,1,8,0:0:0:0:
276,208,76831,1,0,0:0:0:0:
264,248,76910,6,0,L|280:308,3,59.9999981689454,0|0|0|0,0:0|0:0|0:0|0:0,0:0:0:0:
256,344,77225,1,0,0:0:0:0:
216,360,77304,1,0,0:0:0:0:
176,360,77383,1,0,0:0:0:0:
136,344,77462,1,0,0:0:0:0:
120,304,77541,1,6,0:0:0:0:
120,304,87646,6,0,P|128:252|164:208,1,110.000003356934,6|0,0:0|0:0,0:0:0:0:
304,236,87962,2,0,L|340:280,2,55.0000016784668,8|0|0,0:0|0:0|0:0,0:0:0:0:
256,100,88278,1,2,0:0:0:0:
388,40,88436,1,0,0:0:0:0:
388,40,88515,1,0,0:0:0:0:
388,40,88594,2,0,P|428:80|440:132,1,110.000003356934,10|0,0:0|0:0,0:0:0:0:
300,164,88910,5,2,0:0:0:0:
256,28,89068,1,0,0:0:0:0:
364,120,89225,2,0,L|376:176,2,55.0000016784668,8|0|2,0:0|0:0|0:0,0:0:0:0:
220,120,89541,1,0,0:0:0:0:
256,260,89699,1,0,0:0:0:0:
256,260,89778,1,0,0:0:0:0:
255,259,89857,2,0,P|307:276|360:263,1,110.000003356934,10|0,0:0|0:0,0:0:0:0:
448,148,90173,5,2,0:0:0:0:
312,104,90331,1,0,0:0:0:0:
356,240,90489,2,0,L|404:268,2,55.0000016784668,10|0|0,0:0|0:0|0:0,0:0:0:0:
236,164,90804,1,0,0:0:0:0:
288,32,90962,5,0,0:0:0:0:
288,32,91041,1,0,0:0:0:0:
288,31,91120,2,0,P|341:39|383:74,1,110.000003356934,10|0,0:0|0:0,0:0:0:0:
304,196,91436,1,2,0:0:0:0:
220,80,91594,1,0,0:0:0:0:
347,139,91752,2,0,P|375:185|361:237,1,110.000003356934,8|2,0:0|0:0,0:0:0:0:
216,240,92068,5,0,0:0:0:0:
184,224,92146,1,0,0:0:0:0:
160,192,92225,1,0,0:0:0:0:
152,156,92304,1,0,0:0:0:0:
160,120,92383,1,10,0:0:0:0:
180,88,92462,1,0,0:0:0:0:
216,72,92541,1,0,0:0:0:0:
256,72,92620,1,0,0:0:0:0:
292,88,92699,6,0,L|292:200,1,110.000003356934,6|0,0:0|0:0,0:0:0:0:
412,276,93015,1,8,0:0:0:0:
412,276,93094,1,0,0:0:0:0:
411,275,93173,2,0,P|439:230|432:176,1,110.000003356934,0|2,0:0|0:0,0:0:0:0:
356,52,93489,2,0,L|312:20,2,55.0000016784668,0|0|10,0:0|0:0|0:0,0:0:0:0:
480,124,93804,1,0,0:0:0:0:
356,192,93962,6,0,P|300:216|256:200,1,110.000003356934,2|0,0:0|0:0,0:0:0:0:
168,84,94278,1,8,0:0:0:0:
168,84,94357,1,0,0:0:0:0:
168,84,94436,2,0,P|205:43|256:24,1,110.000003356934,2|0,0:0|0:0,0:0:0:0:
368,112,94752,1,0,0:0:0:0:
368,112,94831,1,0,0:0:0:0:
368,112,94910,2,0,L|258:112,1,110.000003356934,10|0,0:0|0:0,0:0:0:0:
204,244,95225,5,2,0:0:0:0:
336,293,95383,1,0,0:0:0:0:
311,153,95541,1,10,0:0:0:0:
311,153,95620,1,0,0:0:0:0:
311,153,95699,2,0,L|256:56,1,110.000003356934
140,144,96015,2,0,L|113:192,2,55.0000016784668,0|0|10,0:0|0:0|0:0,0:0:0:0:
256,228,96331,1,0,0:0:0:0:
156,332,96489,6,0,P|98:312|72:273,1,110.000003356934,2|0,0:0|0:0,0:0:0:0:
140,144,96804,2,0,L|144:253,1,110.000003356934,8|2,0:0|0:0,0:0:0:0:
280,308,97120,2,0,L|332:288,2,55.0000016784668,0|0|0,0:0|0:0|0:0,0:0:0:0:
232,172,97436,2,0,L|180:152,2,55.0000016784668,10|0|0,0:0|0:0|0:0,0:0:0:0:
372,136,97752,5,0,0:0:0:0:
400,108,97831,1,0,0:0:0:0:
404,68,97910,1,0,0:0:0:0:
384,36,97989,1,0,0:0:0:0:
348,20,98068,1,0,0:0:0:0:
312,28,98146,1,0,0:0:0:0:
280,52,98225,1,0,0:0:0:0:
268,88,98304,1,0,0:0:0:0:
276,124,98383,2,0,L|380:192,1,125.000004768372,0|0,0:0|2:0,0:0:0:0:
403,216,98699,6,0,P|382:260|340:286,1,100,4|8,1:2|0:0,0:0:0:0:
340,286,98935,1,0,0:0:0:0:
340,286,99014,1,0,0:0:0:0:
224,228,99172,1,8,0:0:0:0:
256,104,99330,1,0,0:0:0:0:
328,212,99488,1,8,0:0:0:0:
328,212,99567,1,0,0:0:0:0:
328,212,99646,2,0,L|264:288,1,100,0|8,0:0|0:0,0:0:0:0:
136,260,99962,5,0,0:0:0:0:
232,172,100120,2,0,L|280:156,2,50,8|0|0,0:0|0:0|0:0,0:0:0:0:
100,172,100435,1,8,0:0:0:0:
208,96,100593,2,0,L|208:248,1,150.000005722046,0|0,0:0|2:0,0:0:0:0:
208,246,101225,5,4,1:2:0:0:
360,152,101383,1,8,0:0:0:0:
188,104,101541,1,0,0:0:0:0:
324,220,101699,1,8,0:0:0:0:
384,52,101856,1,0,0:0:0:0:
256,180,102014,1,8,0:0:0:0:
404,280,102172,1,0,0:0:0:0:
312,124,102330,1,8,0:0:0:0:
144,192,102488,5,8,0:0:0:0:
128,228,102567,1,8,0:0:0:0:
128,268,102646,1,8,0:0:0:0:
148,300,102725,1,8,0:0:0:0:
184,320,102804,1,8,0:0:0:0:
224,324,102883,1,8,0:0:0:0:
264,312,102962,1,8,0:0:0:0:
292,284,103041,1,8,0:0:0:0:
304,240,103120,2,0,L|304:89,1,150.000005722046,0|2,0:0|0:0,0:0:0:0:
308,59,103751,6,0,P|400:45|464:120,1,200,4|8,1:2|0:0,0:0:0:0:
464,120,104146,1,0,0:0:0:0:
464,120,104225,1,0,0:0:0:0:
344,192,104383,1,0,0:0:0:0:
240,100,104541,1,0,0:0:0:0:
240,100,104620,1,0,0:0:0:0:
240,100,104699,2,0,P|192:112|163:152,1,100,8|0,0:0|0:0,0:0:0:0:
256,260,105014,5,0,0:0:0:0:
312,132,105172,1,0,0:0:0:0:
172,156,105330,2,0,P|120:136|92:104,1,100,8|0,0:0|0:0,0:0:0:0:
212,28,105646,2,0,L|412:28,1,200,0|8,0:0|0:0,0:0:0:0:
472,156,106120,1,0,0:0:0:0:
384,264,106277,5,4,0:0:0:0:
384,264,106593,1,8,0:0:0:0:
352,244,106672,1,0,0:0:0:0:
320,224,106751,1,0,0:0:0:0:
288,204,106830,1,0,0:0:0:0:
255,179,106909,2,0,P|247:131|263:84,1,100
132,40,107225,2,0,P|89:76|75:119,1,100,8|0,0:0|0:0,0:0:0:0:
164,228,107541,5,8,0:0:0:0:
348,156,107699,1,8,0:0:0:0:
241,289,107856,1,8,0:0:0:0:
270,94,108014,1,8,0:0:0:0:
333,253,108172,5,8,0:0:0:0:
178,130,108488,1,2,0:0:0:0:
256,191,108804,6,0,P|323:162|351:95,1,150.000005722046,4|8,1:2|0:0,0:0:0:0:
256,36,109277,1,0,0:0:0:0:
160,96,109435,2,0,L|160:248,1,150.000005722046,0|8,0:0|0:0,0:0:0:0:
256,308,109909,1,0,0:0:0:0:
356,260,110067,6,0,L|396:196,1,75.0000028610231
336,100,110383,2,0,L|256:227,1,150.000005722046,8|0,0:0|0:0,0:0:0:0:
36,192,111014,1,8,0:0:0:0:
204,44,111330,6,0,L|276:24,1,75.0000028610231
256,136,111646,2,0,L|184:116,1,75.0000028610231,8|0,0:0|0:0,0:0:0:0:
223,223,111962,2,0,P|297:221|347:168,1,150.000005722046
364,56,112435,1,8,0:0:0:0:
256,24,112593,6,0,L|256:176,1,150.000005722046
200,272,113067,1,8,0:0:0:0:
88,252,113225,2,0,P|56:232|36:200,1,75.0000028610231,0|8,0:0|0:0,0:0:0:0:
136,148,113541,2,0,P|168:128|188:96,1,75.0000028610231,0|8,0:0|0:0,0:0:0:0:
300,116,113856,6,0,L|300:268,1,150.000005722046,4|8,1:2|0:0,0:0:0:0:
392,332,114330,1,0,0:0:0:0:
484,263,114488,2,0,P|478:227|461:193,1,75.0000028610231
376,120,114804,2,0,P|401:92|434:75,1,75.0000028610231,8|0,0:0|0:0,0:0:0:0:
460,188,115120,5,0,0:0:0:0:
256,280,115435,1,8,0:0:0:0:
52,188,115751,2,0,L|28:116,1,75.0000028610231,0|8,0:0|0:0,0:0:0:0:
140,104,116067,2,0,L|164:32,1,75.0000028610231,0|8,0:0|0:0,0:0:0:0:
256,96,116383,6,0,P|288:161|355:191,1,150.000005722046,0|8,0:0|0:0,0:0:0:0:
464,164,116856,1,0,0:0:0:0:
484,52,117014,2,0,L|410:36,1,75.0000028610231,0|8,0:0|0:0,0:0:0:0:
364,140,117330,2,0,L|290:155,1,75.0000028610231,0|8,0:0|0:0,0:0:0:0:
255,263,117646,6,0,P|322:295|392:275,1,150.000005722046,0|8,0:0|0:0,0:0:0:0:
432,168,118120,1,8,0:0:0:0:
376,72,118277,1,0,0:0:0:0:
368,68,118593,5,0,0:0:0:0:
344,80,118672,1,0,0:0:0:0:
320,92,118751,1,0,0:0:0:0:
296,104,118830,1,0,0:0:0:0:
272,116,118909,2,0,P|252:168|256:212,1,100,4|0,1:2|0:0,0:0:0:0:
256,364,119225,2,0,P|200:352|168:324,1,100
104,188,119541,1,4,1:2:0:0:
200,72,119699,1,0,0:0:0:0:
200,220,119856,1,0,0:0:0:0:
112,96,120014,1,0,0:0:0:0:
256,144,120172,6,0,L|304:160,1,50,2|2,1:2|1:2,0:0:0:0:
468,192,120330,2,0,L|420:208,1,50,2|2,1:2|1:2,0:0:0:0:
256,240,120488,2,0,L|304:256,1,50,2|2,1:2|1:2,0:0:0:0:
468,288,120646,2,0,L|420:304,1,50,2|2,1:2|1:2,0:0:0:0:
256,336,120804,6,0,L|256:186,1,150.000005722046,0|2,0:0|0:0,0:0:0:0:
220,200,121199,1,0,0:0:0:0:
184,216,121277,1,0,0:0:0:0:
148,232,121356,1,0,0:0:0:0:
111,247,121435,6,0,P|68:208|63:150,1,119.999996337891,4|8,1:2|0:0,0:0:0:0:
196,48,121751,2,0,L|316:48,1,119.999996337891,0|8,0:0|0:0,0:0:0:0:
408,192,122067,2,0,P|380:248|328:272,1,119.999996337891,0|8,0:0|0:0,0:0:0:0:
188,176,122383,2,0,L|308:176,1,119.999996337891,0|8,0:0|0:0,0:0:0:0:
408,40,122699,5,0,0:0:0:0:
256,108,122856,1,8,0:0:0:0:
256,108,122935,1,0,0:0:0:0:
256,108,123014,2,0,P|192:96|152:60,1,119.999996337891,0|8,0:0|0:0,0:0:0:0:
44,192,123330,1,0,0:0:0:0:
168,304,123488,1,8,0:0:0:0:
168,304,123567,1,0,0:0:0:0:
168,304,123646,2,0,P|220:272|240:216,1,119.999996337891,0|8,0:0|0:0,0:0:0:0:
144,80,123962,6,0,P|120:134|131:192,1,119.999996337891,4|8,1:2|0:0,0:0:0:0:
131,192,124199,1,0,0:0:0:0:
131,192,124277,1,0,0:0:0:0:
296,152,124435,1,8,0:0:0:0:
192,20,124593,1,0,0:0:0:0:
216,188,124751,2,0,L|248:240,2,59.9999981689454,8|0|0,0:0|0:0|0:0,0:0:0:0:
324,56,125067,1,8,0:0:0:0:
424,192,125225,5,0,0:0:0:0:
272,116,125383,1,8,0:0:0:0:
232,104,125462,1,0,0:0:0:0:
192,112,125541,1,0,0:0:0:0:
164,140,125620,1,0,0:0:0:0:
152,180,125699,1,8,0:0:0:0:
168,220,125777,1,0,0:0:0:0:
200,244,125856,1,0,0:0:0:0:
344,156,126014,2,0,L|384:112,2,59.9999981689454,8|0|0,0:0|0:0|0:0,0:0:0:0:
176,140,126330,1,8,0:0:0:0:
308,35,126488,6,0,P|366:27|422:47,1,119.999996337891,4|8,1:2|0:0,0:0:0:0:
203,35,126804,2,0,P|145:27|89:47,1,119.999996337891,0|8,0:0|0:0,0:0:0:0:
136,212,127120,1,0,0:0:0:0:
256,96,127277,1,8,0:0:0:0:
376,212,127435,1,0,0:0:0:0:
256,104,127593,5,8,0:0:0:0:
256,112,127672,1,0,0:0:0:0:
256,120,127751,2,0,P|204:92|192:35,1,119.999996337891,0|8,0:0|0:0,0:0:0:0:
360,28,128067,1,0,0:0:0:0:
392,56,128146,1,0,0:0:0:0:
408,96,128225,1,8,0:0:0:0:
404,136,128304,1,0,0:0:0:0:
384,172,128383,2,0,P|328:192|272:176,1,119.999996337891,0|8,0:0|0:0,0:0:0:0:
256,92,128620,2,0,L|288:40,1,59.9999981689454
120,32,128856,5,8,0:0:0:0:
120,32,128935,1,0,0:0:0:0:
120,32,129014,2,0,L|164:144,1,119.999996337891,4|8,1:2|0:0,0:0:0:0:
80,292,129330,1,0,0:0:0:0:
48,264,129409,1,0,0:0:0:0:
32,224,129488,1,8,0:0:0:0:
40,184,129567,1,0,0:0:0:0:
64,152,129646,1,0,0:0:0:0:
228,192,129804,2,0,L|256:244,2,59.9999981689454,8|0|0,0:0|0:0|0:0,0:0:0:0:
292,36,130120,5,8,0:0:0:0:
292,36,130199,1,0,0:0:0:0:
292,36,130277,2,0,L|404:80,1,119.999996337891,0|8,0:0|0:0,0:0:0:0:
476,232,130593,1,0,0:0:0:0:
312,192,130751,1,8,0:0:0:0:
472,140,130909,1,0,0:0:0:0:
448,308,131067,1,8,0:0:0:0:
388,152,131225,1,0,0:0:0:0:
364,120,131304,1,0,0:0:0:0:
324,104,131383,1,8,0:0:0:0:
280,104,131462,1,0,0:0:0:0:
243,128,131541,6,0,P|185:122|140:84,1,119.999996337891,4|8,1:2|0:0,0:0:0:0:
208,236,131856,2,0,P|266:230|311:192,1,119.999996337891,0|8,0:0|0:0,0:0:0:0:
428,68,132172,2,0,P|480:95|507:147,1,119.999996337891,0|8,0:0|0:0,0:0:0:0:
404,280,132488,2,0,L|404:160,1,119.999996337891,0|8,0:0|0:0,0:0:0:0:
288,36,132804,5,0,0:0:0:0:
160,144,132962,1,8,0:0:0:0:
160,144,133041,1,0,0:0:0:0:
160,144,133120,2,0,P|199:189|256:192,1,119.999996337891,0|8,0:0|0:0,0:0:0:0:
376,72,133435,1,0,0:0:0:0:
336,64,133514,1,0,0:0:0:0:
296,56,133593,1,8,0:0:0:0:
256,48,133672,1,0,0:0:0:0:
216,40,133751,2,0,L|268:148,1,119.999996337891,0|8,0:0|0:0,0:0:0:0:
160,280,134067,5,4,1:2:0:0:
84,132,134225,1,8,0:0:0:0:
120,108,134304,1,0,0:0:0:0:
160,100,134383,1,0,0:0:0:0:
200,108,134462,1,0,0:0:0:0:
236,128,134541,1,8,0:0:0:0:
256,164,134620,1,0,0:0:0:0:
256,208,134699,2,0,L|136:192,1,119.999996337891,0|8,0:0|0:0,0:0:0:0:
216,40,135014,1,0,0:0:0:0:
328,168,135172,5,8,0:0:0:0:
328,168,135251,1,0,0:0:0:0:
328,168,135330,2,0,P|396:160|436:128,1,119.999996337891,0|8,0:0|0:0,0:0:0:0:
296,32,135646,2,0,L|276:88,2,59.9999981689454,0|0|8,0:0|0:0|0:0,0:0:0:0:
436,128,135962,1,0,0:0:0:0:
446,167,136041,1,0,0:0:0:0:
434,210,136120,1,8,0:0:0:0:
405,240,136199,1,0,0:0:0:0:
368,254,136277,1,0,0:0:0:0:
256,128,136435,1,8,0:0:0:0:
144,254,136593,6,0,P|176:308|228:332,1,119.999996337891,4|8,1:2|0:0,0:0:0:0:
332,200,136909,2,0,P|273:206|228:244,1,119.999996337891,0|8,0:0|0:0,0:0:0:0:
348,368,137225,1,0,0:0:0:0:
416,216,137383,1,8,0:0:0:0:
248,232,137541,1,0,0:0:0:0:
400,300,137699,1,8,0:0:0:0:
324,148,137856,5,0,0:0:0:0:
300,316,138014,1,8,0:0:0:0:
260,328,138093,1,0,0:0:0:0:
220,324,138172,1,0,0:0:0:0:
184,304,138251,1,0,0:0:0:0:
164,268,138330,1,8,0:0:0:0:
164,228,138409,1,0,0:0:0:0:
184,192,138488,2,0,L|304:192,1,119.999996337891,0|8,0:0|0:0,0:0:0:0:
352,124,138725,2,0,L|304:84,1,59.9999981689454
144,32,138962,5,8,0:0:0:0:
144,32,139041,1,0,0:0:0:0:
143,32,139120,2,0,P|99:69|88:128,1,119.999996337891
144,352,139593,1,8,0:0:0:0:
144,352,139672,1,0,0:0:0:0:
144,352,139751,2,0,P|100:315|88:256,1,119.999996337891
244,192,140067,5,0,0:0:0:0:
256,360,140225,1,0,0:0:0:0:
256,360,140304,1,0,0:0:0:0:
256,360,140383,2,0,L|168:276,1,119.999996337891,0|8,0:0|0:0,0:0:0:0:
216,116,140699,5,8,0:0:0:0:
256,112,140777,1,0,0:0:0:0:
296,124,140856,1,0,0:0:0:0:
328,152,140935,1,0,0:0:0:0:
340,192,141014,2,0,L|312:244,3,59.9999981689454,8|0|0|0,0:0|0:0|0:0|0:0,0:0:0:0:
328,284,141330,2,0,L|360:284,7,29.9999990844727,0|0|0|0|0|0|0|0,0:0|0:0|0:0|0:0|0:0|0:0|0:0|0:0,0:0:0:0:
396,268,141646,6,0,P|428:228|432:180,1,100,6|8,0:0|0:0,0:0:0:0:
292,124,141962,2,0,P|260:84|256:36,1,100,2|8,0:0|0:0,0:0:0:0:
104,32,142277,1,2,0:0:0:0:
116,180,142435,1,10,0:0:0:0:
116,180,142514,1,0,0:0:0:0:
116,180,142593,2,0,P|168:152|188:116,1,100,0|10,0:0|0:0,0:0:0:0:
324,56,142909,5,2,0:0:0:0:
360,200,143067,1,8,0:0:0:0:
360,200,143146,1,0,0:0:0:0:
360,200,143225,2,0,P|304:208|264:196,1,100,2|2,0:0|0:0,0:0:0:0:
236,48,143541,5,2,2:0:0:0:
368,120,143699,2,0,L|412:148,2,50,2|2|2,2:0|2:0|2:0,2:0:0:0:
220,136,144014,1,2,2:0:0:0:
256,284,144172,6,0,P|301:303|350:296,1,100,6|8,0:0|0:0,0:0:0:0:
392,152,144488,2,0,P|346:170|317:209,1,100,2|8,0:0|0:0,0:0:0:0:
420,324,144804,1,2,0:0:0:0:
492,192,144962,1,10,0:0:0:0:
492,192,145041,1,0,0:0:0:0:
492,192,145120,2,0,L|464:96,1,100,0|10,0:0|0:0,0:0:0:0:
324,36,145435,6,0,L|324:136,1,100,2|8,0:0|0:0,0:0:0:0:
264,184,145672,2,0,L|224:152,1,50,0|2,0:0|0:0,0:0:0:0:
96,72,145909,1,2,0:0:0:0:
32,208,146067,5,2,2:0:0:0:
156,124,146225,2,0,L|176:76,2,50,2|2|2,2:0|2:0|2:0,2:0:0:0:
204,268,146541,1,2,2:0:0:0:
95,163,146699,6,0,P|78:118|96:72,1,100,6|8,0:0|0:0,0:0:0:0:
244,100,147014,2,0,P|243:149|212:187,1,100,2|8,0:0|0:0,0:0:0:0:
72,240,147330,1,2,0:0:0:0:
164,124,147488,1,10,0:0:0:0:
164,124,147567,1,0,0:0:0:0:
164,124,147646,2,0,L|256:164,1,100,0|10,0:0|0:0,0:0:0:0:
404,136,147962,5,2,0:0:0:0:
300,28,148120,1,8,0:0:0:0:
300,28,148199,1,0,0:0:0:0:
300,28,148277,2,0,L|204:56,1,100,2|10,0:0|0:0,0:0:0:0:
188,208,148593,1,0,0:0:0:0:
220,220,148672,1,0,0:0:0:0:
256,224,148751,1,10,0:0:0:0:
292,216,148830,1,0,0:0:0:0:
320,192,148909,2,0,L|352:96,1,100,0|10,0:0|0:0,0:0:0:0:
424,72,149146,2,0,L|452:116,1,50,0|6,0:0|0:0,0:0:0:0:
444,264,149383,5,8,0:0:0:0:
444,264,149462,1,0,0:0:0:0:
444,264,149541,2,0,P|396:288|352:280,1,100,2|8,0:0|0:0,0:0:0:0:
256,164,149856,1,2,0:0:0:0:
404,148,150014,1,10,0:0:0:0:
404,148,150093,1,0,0:0:0:0:
404,148,150172,2,0,P|432:104|432:56,1,100,0|10,0:0|0:0,0:0:0:0:
284,28,150488,5,2,0:0:0:0:
332,172,150646,1,8,0:0:0:0:
324,208,150725,1,0,0:0:0:0:
304,236,150804,1,2,0:0:0:0:
272,248,150883,1,0,0:0:0:0:
236,252,150962,1,10,0:0:0:0:
204,240,151041,1,0,0:0:0:0:
180,216,151120,1,0,0:0:0:0:
140,72,151277,6,0,L|192:80,1,50,10|0,0:0|0:0,0:0:0:0:
360,104,151435,2,0,L|308:96,1,50
160,154,151593,2,0,L|203:123,1,50,10|0,0:0|0:0,0:0:0:0:
339,21,151751,6,0,P|284:45|256:96,1,119.999996337891,4|8,1:2|0:0,0:0:0:0:
396,192,152067,1,0,0:0:0:0:
416,156,152146,1,0,0:0:0:0:
436,120,152225,1,8,0:0:0:0:
460,84,152304,1,0,0:0:0:0:
480,48,152383,2,0,L|360:32,1,119.999996337891,0|8,0:0|0:0,0:0:0:0:
256,164,152699,5,0,0:0:0:0:
416,112,152856,1,8,0:0:0:0:
400,72,152935,1,0,0:0:0:0:
372,40,153014,1,0,0:0:0:0:
332,28,153093,1,0,0:0:0:0:
288,28,153172,1,8,0:0:0:0:
248,44,153251,1,0,0:0:0:0:
216,72,153330,6,0,L|196:128,3,59.9999981689454,0|0|8|0,0:0|0:0|0:0|0:0,0:0:0:0:
164,156,153646,1,0,0:0:0:0:
124,172,153725,1,0,0:0:0:0:
84,168,153804,1,8,0:0:0:0:
48,144,153883,1,0,0:0:0:0:
28,104,153962,2,0,L|64:56,1,59.9999981689454
180,24,154120,5,8,0:0:0:0:
180,24,154199,1,0,0:0:0:0:
180,24,154277,2,0,L|216:72,3,59.9999981689454,4|0|8|0,1:2|0:0|0:0|0:0,0:0:0:0:
64,56,154593,2,0,L|28:104,3,59.9999981689454,4|0|8|0,0:0|0:0|0:0|0:0,0:0:0:0:
180,88,154909,2,0,L|216:136,3,59.9999981689454,0|0|8|0,0:0|0:0|0:0|0:0,0:0:0:0:
64,120,155225,2,0,L|28:168,3,59.9999981689454,0|0|8|0,0:0|0:0|0:0|0:0,0:0:0:0:
132,164,155541,5,0,0:0:0:0:
152,200,155620,1,0,0:0:0:0:
152,244,155699,1,8,0:0:0:0:
136,284,155777,1,0,0:0:0:0:
104,312,155856,1,0,0:0:0:0:
64,320,155935,1,0,0:0:0:0:
24,308,156014,6,0,L|16:248,1,59.9999981689454,8|0,0:0|0:0,0:0:0:0:
64,120,156172,2,0,L|72:180,1,59.9999981689454,0|0,0:0|0:0,0:0:0:0:
160,284,156330,2,0,L|152:224,1,59.9999981689454,8|0,0:0|0:0,0:0:0:0:
200,96,156488,2,0,L|208:156,1,59.9999981689454,0|0,0:0|0:0,0:0:0:0:
296,260,156646,2,0,L|288:200,1,59.9999981689454,8|0,0:0|0:0,0:0:0:0:
336,72,156804,6,0,P|385:104|407:159,1,119.999996337891,4|8,1:2|0:0,0:0:0:0:
328,192,157041,2,0,L|268:176,1,59.9999981689454
148,292,157277,1,8,0:0:0:0:
172,328,157356,1,0,0:0:0:0:
204,352,157435,1,0,0:0:0:0:
244,368,157514,1,0,0:0:0:0:
284,364,157593,1,8,0:0:0:0:
320,344,157672,1,0,0:0:0:0:
344,308,157751,2,0,L|312:256,3,59.9999981689454,0|0|8|0,0:0|0:0|0:0|0:0,0:0:0:0:
308,216,158067,5,0,0:0:0:0:
324,176,158146,1,0,0:0:0:0:
356,148,158225,1,8,0:0:0:0:
396,144,158304,1,0,0:0:0:0:
436,156,158383,1,0,0:0:0:0:
468,184,158462,1,0,0:0:0:0:
484,224,158541,1,8,0:0:0:0:
480,264,158620,1,0,0:0:0:0:
456,300,158699,2,0,P|404:268|388:212,1,119.999996337891,0|8,0:0|0:0,0:0:0:0:
412,48,159014,1,0,0:0:0:0:
372,32,159093,1,0,0:0:0:0:
332,28,159172,1,8,0:0:0:0:
292,36,159251,1,0,0:0:0:0:
256,60,159330,5,8,0:0:0:0:
244,68,159409,1,0,0:0:0:0:
268,76,159488,1,8,0:0:0:0:
244,84,159567,1,0,0:0:0:0:
268,92,159646,1,0,0:0:0:0:
244,100,159725,1,0,0:0:0:0:
268,108,159804,1,8,0:0:0:0:
244,116,159883,1,0,0:0:0:0:
268,124,159962,1,8,0:0:0:0:
244,132,160041,1,0,0:0:0:0:
268,140,160120,1,8,0:0:0:0:
244,148,160199,1,0,0:0:0:0:
268,156,160277,1,0,0:0:0:0:
244,164,160356,1,0,0:0:0:0:
268,172,160435,1,8,0:0:0:0:
244,180,160514,1,0,0:0:0:0:
256,188,160593,1,8,0:0:0:0:
156,324,160751,5,8,0:0:0:0:
32,208,160909,1,8,0:0:0:0:
172,112,161067,1,8,0:0:0:0:
104,268,161225,1,8,0:0:0:0:
92,100,161383,2,0,L|116:44,2,59.9999981689454,0|0|0,0:0|0:0|0:0,0:0:0:0:
76,140,161856,6,0,P|118:199|190:208,1,150.000005722046,4|8,1:2|0:0,0:0:0:0:
256,116,162330,1,0,0:0:0:0:
320,24,162488,2,0,P|392:32|434:91,1,150.000005722046,0|8,0:0|0:0,0:0:0:0:
384,192,162962,1,0,0:0:0:0:
276,228,163120,6,0,P|232:212|212:188,1,75.0000028610231
104,164,163435,2,0,P|148:148|168:124,1,75.0000028610231,8|0,0:0|0:0,0:0:0:0:
68,72,163751,2,0,P|12:120|12:192,1,150.000005722046,0|8,0:0|0:0,0:0:0:0:
216,288,164383,5,0,0:0:0:0:
256,68,164699,1,8,0:0:0:0:
80,208,165014,1,0,0:0:0:0:
300,167,165330,2,0,P|337:166|373:175,1,75.0000028610231,0|8,0:0|0:0,0:0:0:0:
292,256,165646,6,0,P|228:224|212:152,1,150.000005722046
292,72,166120,1,8,0:0:0:0:
388,128,166277,2,0,L|408:200,1,75.0000028610231,0|8,0:0|0:0,0:0:0:0:
300,168,166593,2,0,L|280:240,1,75.0000028610231,0|8,0:0|0:0,0:0:0:0:
172,280,166909,6,0,L|176:128,1,150.000005722046,4|8,1:2|0:0,0:0:0:0:
116,36,167383,1,0,0:0:0:0:
36,116,167541,2,0,P|48:152|76:176,1,75.0000028610231
176,124,167856,2,0,P|209:107|246:109,1,75.0000028610231,8|0,0:0|0:0,0:0:0:0:
324,192,168172,5,0,0:0:0:0:
168,352,168488,1,8,0:0:0:0:
92,140,168804,2,0,L|112:68,1,75.0000028610231,0|8,0:0|0:0,0:0:0:0:
216,28,169120,2,0,L|236:100,1,75.0000028610231,0|8,0:0|0:0,0:0:0:0:
256,212,169435,6,0,P|192:256|125:244,1,150.000005722046,0|8,0:0|0:0,0:0:0:0:
40,36,170067,2,0,L|116:24,1,75.0000028610231,0|8,0:0|0:0,0:0:0:0:
164,128,170383,2,0,L|88:116,1,75.0000028610231,0|8,0:0|0:0,0:0:0:0:
32,212,170699,2,0,P|80:272|148:272,1,150.000005722046,0|8,0:0|0:0,0:0:0:0:
252,228,171172,1,0,0:0:0:0:
256,116,171330,1,0,0:0:0:0:
256,108,171646,5,0,0:0:0:0:
280,120,171725,1,0,0:0:0:0:
304,132,171804,1,0,0:0:0:0:
328,144,171883,1,0,0:0:0:0:
352,156,171962,2,0,L|380:252,1,100,4|0,1:2|0:0,0:0:0:0:
228,288,172277,2,0,L|256:192,1,100,0|0,0:0|0:0,0:0:0:0:
104,228,172593,2,0,L|132:324,1,100,4|0,1:2|0:0,0:0:0:0:
284,340,172909,1,0,0:0:0:0:
184,228,173067,1,0,0:0:0:0:
312,148,173225,6,0,L|360:124,1,50,2|2,1:2|1:2,2:0:0:0:
200,200,173383,2,0,L|155:222,1,50,2|2,1:2|1:2,2:0:0:0:
312,200,173541,2,0,L|360:224,1,50,2|2,1:2|1:2,2:0:0:0:
200,148,173699,2,0,L|155:125,1,50,2|2,1:2|1:2,2:0:0:0:
256,76,173856,6,0,L|256:276,1,200,0|0,1:0|0:0,0:0:0:0:
256,276,175120,5,8,0:0:0:0:
256,164,175277,1,0,0:0:0:0:
231,150,175356,1,0,0:0:0:0:
200,132,175435,1,10,0:0:0:0:
169,114,175514,1,0,0:0:0:0:
138,96,175593,1,0,0:0:0:0:
107,78,175672,1,0,0:0:0:0:
68,55,175751,6,0,P|32:108|32:164,1,119.999996337891,4|8,1:2|0:0,0:0:0:0:
152,280,176067,2,0,P|116:227|116:171,1,119.999996337891,0|8,0:0|0:0,0:0:0:0:
224,43,176383,2,0,P|281:27|338:43,1,119.999996337891,0|8,0:0|0:0,0:0:0:0:
368,208,176699,2,0,P|316:178|286:127,1,119.999996337891,0|8,0:0|0:0,0:0:0:0:
420,48,177014,5,4,1:2:0:0:
480,192,177172,1,8,0:0:0:0:
472,232,177251,1,0,0:0:0:0:
448,264,177330,1,8,0:0:0:0:
408,280,177409,1,0,0:0:0:0:
368,276,177488,1,8,0:0:0:0:
256,168,177646,2,0,P|296:120|352:104,1,119.999996337891,0|8,0:0|0:0,0:0:0:0:
400,168,177883,2,0,L|352:204,1,59.9999981689454
204,256,178120,5,8,0:0:0:0:
204,256,178199,1,0,0:0:0:0:
204,256,178277,2,0,L|160:144,1,119.999996337891,4|8,1:2|0:0,0:0:0:0:
280,40,178593,1,0,0:0:0:0:
328,188,178751,1,8,0:0:0:0:
212,84,178909,2,0,P|148:68|100:88,1,119.999996337891,0|8,0:0|0:0,0:0:0:0:
84,164,179146,2,0,L|128:204,1,59.9999981689454
272,136,179383,1,8,0:0:0:0:
124,80,179541,5,4,1:2:0:0:
220,204,179699,2,0,L|260:248,2,59.9999981689454,8|0|0,0:0|0:0|0:0,0:0:0:0:
256,52,180014,1,8,0:0:0:0:
356,171,180172,2,0,P|356:231|328:283,1,119.999996337891,0|8,0:0|0:0,0:0:0:0:
328,283,180409,1,0,0:0:0:0:
328,283,180488,1,0,0:0:0:0:
172,260,180646,1,8,0:0:0:0:
200,108,180804,6,0,P|264:96|316:108,1,119.999996337891,4|8,1:2|0:0,0:0:0:0:
312,276,181120,2,0,P|248:288|196:276,1,119.999996337891,0|8,0:0|0:0,0:0:0:0:
64,192,181435,1,8,0:0:0:0:
144,56,181593,1,8,0:0:0:0:
228,188,181751,1,8,0:0:0:0:
88,116,181909,1,8,0:0:0:0:
239,87,182067,6,0,L|351:131,1,119.999996337891,4|8,1:2|0:0,0:0:0:0:
351,131,182304,1,0,0:0:0:0:
351,131,182383,1,0,0:0:0:0:
400,280,182541,1,8,0:0:0:0:
244,260,182699,2,0,P|200:216|192:160,1,119.999996337891,0|8,0:0|0:0,0:0:0:0:
268,172,182935,2,0,L|324:200,1,59.9999981689454
356,352,183172,1,8,0:0:0:0:
200,332,183330,6,0,P|164:280|168:224,1,119.999996337891,4|8,1:2|0:0,0:0:0:0:
280,116,183646,1,0,0:0:0:0:
336,264,183804,1,8,0:0:0:0:
336,264,183883,1,0,0:0:0:0:
336,264,183962,2,0,P|280:244|256:192,1,119.999996337891,0|8,0:0|0:0,0:0:0:0:
344,64,184277,1,0,0:0:0:0:
476,144,184435,6,0,L|496:200,2,59.9999981689454,8|0|4,0:0|0:0|1:2,0:0:0:0:
324,192,184751,1,8,0:0:0:0:
404,328,184909,1,0,0:0:0:0:
436,304,184988,1,0,0:0:0:0:
456,268,185067,1,8,0:0:0:0:
456,224,185146,1,0,0:0:0:0:
440,184,185225,2,0,L|392:148,1,59.9999981689454
208,108,185383,2,0,L|256:144,1,59.9999981689454,8|0,0:0|0:0,0:0:0:0:
380,252,185541,2,0,L|332:216,1,59.9999981689454
148,176,185699,2,0,L|196:212,1,59.9999981689454,8|0,0:0|0:0,0:0:0:0:
319,319,185856,6,0,L|264:213,1,119.999996337891,4|8,1:2|0:0,0:0:0:0:
136,104,186172,2,0,L|80:210,1,119.999996337891,0|8,0:0|0:0,0:0:0:0:
219,306,186488,2,0,L|256:192,1,119.999996337891,0|8,0:0|0:0,0:0:0:0:
242,22,186804,2,0,L|128:59,1,119.999996337891,0|8,0:0|0:0,0:0:0:0:
92,228,187120,5,4,1:2:0:0:
256,192,187277,1,8,0:0:0:0:
292,208,187356,1,0,0:0:0:0:
320,240,187435,1,8,0:0:0:0:
328,280,187514,1,0,0:0:0:0:
320,320,187593,1,8,0:0:0:0:
288,348,187672,1,0,0:0:0:0:
248,356,187751,2,0,L|164:268,1,119.999996337891,0|8,0:0|0:0,0:0:0:0:
92,228,187988,2,0,L|92:288,1,59.9999981689454
260,276,188225,1,8,0:0:0:0:
328,124,188383,5,4,1:2:0:0:
172,60,188541,1,8,0:0:0:0:
152,96,188620,1,0,0:0:0:0:
148,136,188699,1,0,0:0:0:0:
156,176,188777,1,0,0:0:0:0:
184,204,188856,1,8,0:0:0:0:
220,224,188935,1,0,0:0:0:0:
264,224,189014,2,0,L|377:184,1,119.999996337891,0|8,0:0|0:0,0:0:0:0:
288,44,189330,1,0,0:0:0:0:
148,136,189488,1,8,0:0:0:0:
304,200,189646,6,0,P|348:156|360:100,1,119.999996337891,4|8,1:2|0:0,0:0:0:0:
360,101,189883,1,0,0:0:0:0:
360,101,189962,1,0,0:0:0:0:
200,44,190120,1,8,0:0:0:0:
220,208,190277,2,0,P|248:264|300:284,1,119.999996337891,0|8,0:0|0:0,0:0:0:0:
372,240,190514,2,0,L|408:192,1,59.9999981689454
260,112,190751,1,8,0:0:0:0:
148,240,190909,6,0,P|148:300|184:344,1,119.999996337891,4|8,1:2|0:0,0:0:0:0:
364,240,191225,2,0,P|364:300|328:344,1,119.999996337891,0|8,0:0|0:0,0:0:0:0:
224,212,191541,1,8,0:0:0:0:
324,76,191699,1,8,0:0:0:0:
448,188,191856,1,8,0:0:0:0:
284,152,192014,1,8,0:0:0:0:
396,28,192172,6,0,P|446:58|467:113,1,119.999996337891,4|8,1:2|0:0,0:0:0:0:
467,113,192409,1,0,0:0:0:0:
467,113,192488,1,0,0:0:0:0:
344,228,192646,1,8,0:0:0:0:
256,84,192804,1,0,0:0:0:0:
404,168,192962,5,8,0:0:0:0:
404,168,193041,1,0,0:0:0:0:
404,168,193120,2,0,P|428:222|410:280,1,119.999996337891,0|8,0:0|0:0,0:0:0:0:
256,344,193435,1,8,0:0:0:0:
332,192,193593,1,8,0:0:0:0:
36,32,193909,5,8,0:0:0:0:
36,32,193988,1,8,0:0:0:0:
36,32,194067,2,0,P|31:91|67:140,1,119.999996337891,8|0,0:0|0:0,0:0:0:0:
232,164,194383,1,0,0:0:0:0:
128,32,194541,1,8,0:0:0:0:
124,200,194699,2,0,P|156:256|208:276,1,119.999996337891,0|8,0:0|0:0,0:0:0:0:
312,148,195014,2,0,P|262:189|207:190,1,119.999996337891,8|8,0:0|0:0,0:0:0:0:
80,84,195330,1,0,0:0:0:0:
364,264,195646,1,8,0:0:0:0:
32,316,195962,5,8,0:0:0:0:
104,164,196120,1,8,0:0:0:0:
256,232,196277,1,0,0:0:0:0:
256,232,196593,6,0,L|232:288,3,59.9999981689454,8|0|0|0,0:0|0:0|0:0|0:0,0:0:0:0:
196,312,196909,1,8,0:0:0:0:
152,312,196988,1,0,0:0:0:0:
112,296,197067,1,0,0:0:0:0:
92,260,197146,1,0,0:0:0:0:
88,220,197225,6,0,L|160:152,1,100,6|0,0:0|0:0,0:0:0:0:
292,164,197541,1,8,0:0:0:0:
292,164,197620,1,0,0:0:0:0:
292,164,197699,2,0,P|328:204|328:248,1,100,0|2,0:0|0:0,0:0:0:0:
200,260,198014,2,0,L|152:240,2,50,0|0|10,0:0|0:0|0:0,0:0:0:0:
228,132,198330,1,0,0:0:0:0:
108,76,198488,6,0,L|20:124,1,100,2|0,0:0|0:0,0:0:0:0:
44,252,198804,2,0,L|80:288,2,50,8|0|2,0:0|0:0|0:0,0:0:0:0:
144,168,199120,1,0,0:0:0:0:
256,228,199277,1,0,0:0:0:0:
256,228,199356,1,0,0:0:0:0:
256,228,199435,2,0,P|248:284|220:316,1,100,10|0,0:0|0:0,0:0:0:0:
116,236,199751,6,0,L|88:140,1,100,2|0,0:0|0:0,0:0:0:0:
188,56,200067,2,0,L|224:20,2,50,10|0|0,0:0|0:0|0:0,0:0:0:0:
272,156,200383,1,0,0:0:0:0:
396,112,200541,1,0,0:0:0:0:
396,112,200620,1,0,0:0:0:0:
396,112,200699,2,0,P|404:60|388:16,1,100,10|0,0:0|0:0,0:0:0:0:
316,20,200935,2,0,L|280:56,1,50,0|2,0:0|0:0,0:0:0:0:
344,172,201172,1,0,0:0:0:0:
464,216,201330,1,8,0:0:0:0:
504,92,201488,1,2,0:0:0:0:
408,180,201646,5,0,0:0:0:0:
376,188,201725,1,0,0:0:0:0:
344,196,201804,1,0,0:0:0:0:
312,204,201883,1,0,0:0:0:0:
280,212,201962,1,10,0:0:0:0:
248,224,202041,1,0,0:0:0:0:
216,232,202120,1,0,0:0:0:0:
184,240,202199,1,0,0:0:0:0:
152,248,202277,6,0,P|108:220|88:176,1,100,6|0,0:0|0:0,0:0:0:0:
164,72,202593,1,8,0:0:0:0:
164,72,202672,1,0,0:0:0:0:
164,72,202751,2,0,L|164:172,1,100,0|2,0:0|0:0,0:0:0:0:
256,268,203067,1,0,0:0:0:0:
256,268,203146,1,0,0:0:0:0:
256,268,203225,2,0,P|304:244|324:204,1,100,10|0,0:0|0:0,0:0:0:0:
300,136,203462,2,0,L|256:160,1,50,0|2,0:0|0:0,0:0:0:0:
176,276,203699,5,0,0:0:0:0:
300,340,203856,2,0,L|348:328,2,50,8|0|2,0:0|0:0|0:0,0:0:0:0:
176,276,204172,2,0,L|140:180,1,100
140,182,204409,1,0,0:0:0:0:
140,182,204488,1,10,0:0:0:0:
256,104,204646,1,0,0:0:0:0:
372,182,204804,6,0,P|348:228|304:252,1,100,2|0,0:0|0:0,0:0:0:0:
204,156,205120,2,0,L|176:112,2,50,10|0|0,0:0|0:0|0:0,0:0:0:0:
336,112,205435,1,0,0:0:0:0:
452,192,205593,5,0,0:0:0:0:
452,192,205672,1,0,0:0:0:0:
452,192,205751,2,0,P|448:244|420:280,1,100,10|0,0:0|0:0,0:0:0:0:
280,256,206067,1,10,0:0:0:0:
260,108,206225,1,8,0:0:0:0:
380,196,206383,1,8,0:0:0:0:
232,188,206541,1,10,0:0:0:0:
324,68,206699,5,2,0:0:0:0:
464,332,207014,1,2,0:0:0:0:
163,319,207330,6,0,P|137:278|139:229,1,100,6|0,0:0|0:0,0:0:0:0:
292,228,207646,2,0,L|328:264,2,50,8|0|0,0:0|0:0|0:0,0:0:0:0:
340,83,207962,2,0,P|389:78|435:95,1,100,2|0,0:0|0:0,0:0:0:0:
444,172,208199,2,0,L|408:208,1,50,0|10,0:0|0:0,0:0:0:0:
268,152,208435,5,0,0:0:0:0:
268,152,208514,1,0,0:0:0:0:
268,152,208593,2,0,L|240:56,1,100,2|0,0:0|0:0,0:0:0:0:
108,128,208909,1,8,0:0:0:0:
108,128,208988,1,0,0:0:0:0:
108,128,209067,2,0,L|68:220,1,100,2|0,0:0|0:0,0:0:0:0:
188,312,209383,2,0,L|236:336,2,50,0|0|10,0:0|0:0|0:0,0:0:0:0:
184,160,209699,5,0,0:0:0:0:
184,160,209777,1,0,0:0:0:0:
184,159,209856,2,0,P|228:137|277:139,1,100,2|0,0:0|0:0,0:0:0:0:
380,248,210172,1,10,0:0:0:0:
356,272,210251,1,0,0:0:0:0:
332,296,210330,1,0,0:0:0:0:
308,320,210409,1,0,0:0:0:0:
284,344,210488,2,0,L|189:311,1,100
184,236,210725,2,0,L|232:224,1,50,0|10,0:0|0:0,0:0:0:0:
332,108,210962,5,0,0:0:0:0:
332,108,211041,1,0,0:0:0:0:
332,108,211120,2,0,P|288:76|244:68,1,100,2|0,0:0|0:0,0:0:0:0:
128,160,211435,1,8,0:0:0:0:
256,236,211593,1,2,0:0:0:0:
184,104,211751,5,0,0:0:0:0:
156,84,211830,1,0,0:0:0:0:
120,80,211909,1,0,0:0:0:0:
84,88,211988,1,0,0:0:0:0:
56,108,212067,1,10,0:0:0:0:
40,140,212146,1,0,0:0:0:0:
32,176,212225,1,0,0:0:0:0:
40,208,212304,1,0,0:0:0:0:
64,232,212383,6,0,L|164:232,1,100,6|0,0:0|0:0,0:0:0:0:
280,136,212699,2,0,L|304:88,2,50,8|0|0,0:0|0:0|0:0,0:0:0:0:
376,252,213014,1,2,0:0:0:0:
488,148,213172,1,0,0:0:0:0:
488,148,213251,1,0,0:0:0:0:
488,147,213330,2,0,P|484:98|457:57,1,100,10|0,0:0|0:0,0:0:0:0:
308,84,213646,5,2,0:0:0:0:
416,192,213804,1,0,0:0:0:0:
380,48,213962,1,8,0:0:0:0:
380,48,214041,1,0,0:0:0:0:
379,47,214120,2,0,P|342:15|294:7,1,100,2|0,0:0|0:0,0:0:0:0:
204,128,214435,2,0,L|176:172,2,50,0|0|10,0:0|0:0|0:0,0:0:0:0:
356,128,214751,5,0,0:0:0:0:
356,128,214830,1,0,0:0:0:0:
356,128,214909,2,0,L|424:200,1,100,2|0,0:0|0:0,0:0:0:0:
348,332,215225,1,10,0:0:0:0:
316,317,215304,1,0,0:0:0:0:
285,302,215383,1,0,0:0:0:0:
254,287,215462,1,0,0:0:0:0:
223,272,215541,2,0,P|213:220|230:177,1,100
304,168,215777,2,0,L|342:201,1,50,0|10,0:0|0:0,0:0:0:0:
484,156,216014,5,0,0:0:0:0:
400,32,216172,1,2,0:0:0:0:
264,92,216330,1,0,0:0:0:0:
412,112,216488,2,0,L|456:84,2,50,8|0|2,0:0|0:0|0:0,0:0:0:0:
320,232,216804,2,0,L|322:284,2,50,0|0|0,0:0|0:0|0:0,0:0:0:0:
264,92,217120,2,0,L|217:67,2,50,10|0|0,0:0|0:0|0:0,0:0:0:0:
256,192,217435,12,2,218383,2:0:0:0:
