osu file format v14

[General]
AudioFilename: nuko.mp3
AudioLeadIn: 0
PreviewTime: 121120
Countdown: 0
SampleSet: Normal
StackLeniency: 0.7
Mode: 0
LetterboxInBreaks: 0
WidescreenStoryboard: 1

[Editor]
DistanceSpacing: 1
BeatDivisor: 4
GridSize: 4
TimelineZoom: 4.599998

[Metadata]
Title:Super Nuko World
TitleUnicode:すーぱーぬこわーるど
Artist:yuikonnu & ayaponzu*
ArtistUnicode:ゆいこんぬ & あやぽんず*
Creator:Saten
Version:Insane
Source:
Tags:Saten-san
BeatmapID:526292
BeatmapSetID:173302

[Difficulty]
HPDrainRate:6
CircleSize:4
OverallDifficulty:7.5
ApproachRate:9
SliderMultiplier:2
SliderTickRate:2

[Events]
//Background and Video events
Video,0,"nuko.avi"
0,0,"40549137.jpg",0,0
//Break Periods
2,77740,87046
//Storyboard Layer 0 (Background)
//Storyboard Layer 1 (Fail)
//Storyboard Layer 2 (Pass)
//Storyboard Layer 3 (Foreground)
//Storyboard Sound Samples

[TimingPoints]
805.5,315.789473684211,4,2,1,80,1,0
5858,-100,4,1,1,80,0,0
10910,-90.9090909090909,4,1,1,80,0,0
31752,-133.333333333333,4,1,1,80,0,0
32068,315.789473684211,4,1,2,80,1,0
33962,-133.333333333333,4,1,1,80,0,0
34594,-100,4,1,2,80,0,0
36489,-133.333333333333,4,1,2,80,0,0
37120,-100,4,1,2,80,0,0
42173,-133.333333333333,4,1,1,80,0,0
52278,-100,4,1,1,80,0,0
54173,-133.333333333333,4,1,1,80,0,0
54489,-100,4,1,1,80,0,0
54804,-83.3333333333333,4,1,3,80,0,1
74699,-83.3333333333333,4,1,1,80,0,1
76278,-83.3333333333333,4,1,3,80,0,1
76910,-83.3333333333333,4,1,1,80,0,1
77541,-90.9090909090909,4,1,1,80,0,0
98383,-133.333333333333,4,1,1,80,0,0
98699,315.789473684211,4,1,2,80,1,0
100593,-133.333333333333,4,1,2,80,0,0
101225,-100,4,1,2,80,0,0
103120,-133.333333333333,4,1,2,80,0,0
103751,-100,4,1,2,80,0,0
108804,-133.333333333333,4,1,1,80,0,0
118909,-100,4,1,2,80,0,0
120804,-133.333333333333,4,1,2,80,0,0
121120,-90.9090909090909,4,1,2,80,0,0
121435,-83.3333333333333,4,1,3,80,0,1
141330,-83.3333333333333,4,1,3,70,0,1
141646,-100,4,1,1,80,0,0
151751,-83.3333333333333,4,1,1,80,0,1
161856,-133.333333333333,4,1,1,80,0,0
171962,-100,4,1,1,80,0,0
173856,-200,4,2,1,80,0,0
175120,-133.333333333333,4,1,1,80,0,0
175435,-100,4,1,1,80,0,0
175751,-83.3333333333333,4,1,2,80,0,1
185856,-83.3333333333333,4,1,1,80,0,1
197225,-100,4,1,1,80,0,0

[HitObjects]
44,264,805,6,0,P|92:288|140:284,1,100,2|2,0:0|0:0,0:0:0:0:
204,208,1121,1,0,0:0:0:0:
184,112,1279,1,2,0:0:0:0:
176,108,1594,1,2,0:0:0:0:
168,104,1910,1,2,0:0:0:0:
160,100,2226,2,0,P|192:56|236:40,1,100,2|0,0:0|0:0,0:0:0:0:
256,140,2542,2,0,L|256:340,1,200,2|0,0:0|0:0,0:0:0:0:
160,372,3016,2,0,P|112:352|88:312,1,100,2|0,0:0|0:0,0:0:0:0:
156,240,3331,6,0,L|256:240,1,100,2|2,0:0|0:0,0:0:0:0:
344,192,3647,1,0,0:0:0:0:
364,96,3805,1,2,0:0:0:0:
356,92,4121,1,2,0:0:0:0:
348,88,4437,1,2,0:0:0:0:
340,84,4752,2,0,P|296:93|256:128,1,100,2|2,0:0|0:0,0:0:0:0:
336,192,5068,2,0,P|424:176|464:80,1,200,2|2,0:0|0:0,0:0:0:0:
372,40,5542,2,0,L|280:80,1,100,2|0,0:0|0:0,0:0:0:0:
256,176,5858,6,0,P|260:228|292:260,1,100,12|0,1:2|0:0,0:0:0:0:
244,348,6173,2,0,P|192:352|152:328,1,100,8|0,0:0|0:0,0:0:0:0:
108,236,6489,2,0,L|80:140,1,100,8|0,0:0|0:0,0:0:0:0:
180,160,6805,2,0,L|196:60,1,100,8|0,0:0|0:0,0:0:0:0:
292,36,7121,5,8,0:0:0:0:
384,80,7279,2,0,L|424:112,2,50,0|0|8,0:0|0:0|0:0,0:0:0:0:
312,148,7594,2,0,L|328:196,2,50,0|0|8,0:0|0:0|0:0,0:0:0:0:
220,192,7910,2,0,L|200:240,2,50,0|0|8,0:0|0:0|0:0,0:0:0:0:
120,184,8226,2,0,L|76:208,2,50,0|0|10,0:0|0:0|1:2,0:0:0:0:
188,84,8542,5,0,0:0:0:0:
288,152,8700,1,8,0:0:0:0:
256,268,8858,1,8,0:0:0:0:
256,268,8937,1,0,0:0:0:0:
256,268,9016,2,0,L|232:312,2,50,0|0|8,0:0|0:0|0:0,0:0:0:0:
156,192,9331,1,0,0:0:0:0:
32,224,9489,5,2,0:0:0:0:
180,36,9805,1,0,0:0:0:0:
180,36,9884,1,0,0:0:0:0:
180,36,9963,2,0,L|224:60,3,50,2|0|0|0,0:0|0:0|0:0|0:0,0:0:0:0:
256,100,10279,2,0,L|232:144,3,50,8|0|0|0,0:0|0:0|0:0|0:0,0:0:0:0:
232,180,10594,1,8,0:0:0:0:
252,208,10673,1,0,0:0:0:0:
284,220,10752,1,0,0:0:0:0:
320,220,10831,1,0,0:0:0:0:
356,204,10910,6,0,L|400:104,1,110.000003356934,6|0,0:0|0:0,0:0:0:0:
276,28,11226,1,8,0:0:0:0:
168,120,11384,1,0,0:0:0:0:
312,112,11542,2,0,P|350:150|356:203,1,110.000003356934,2|0,0:0|0:0,0:0:0:0:
256,308,11858,5,10,0:0:0:0:
124,256,12016,1,0,0:0:0:0:
240,172,12173,1,2,0:0:0:0:
332,284,12331,1,0,0:0:0:0:
196,236,12489,2,0,L|164:192,2,55.0000016784668,8|0|2,0:0|0:0|0:0,0:0:0:0:
335,200,12805,2,0,P|365:154|367:99,1,110.000003356934
228,72,13121,2,0,P|198:117|196:172,1,110.000003356934,10|0,0:0|0:0,0:0:0:0:
304,268,13437,5,2,0:0:0:0:
424,192,13594,1,0,0:0:0:0:
308,108,13752,2,0,P|247:116|206:140,1,110.000003356934,10|0,0:0|0:0,0:0:0:0:
88,224,14068,2,0,P|32:200|8:160,1,110.000003356934
76,32,14384,5,10,0:0:0:0:
192,116,14542,1,0,0:0:0:0:
156,252,14700,1,2,0:0:0:0:
88,128,14858,1,0,0:0:0:0:
204,44,15016,2,0,P|260:48|304:76,1,110.000003356934,8|2,0:0|0:0,0:0:0:0:
220,192,15331,2,0,P|164:196|120:224,1,110.000003356934,0|0,0:0|0:0,0:0:0:0:
232,312,15647,2,0,L|344:312,1,110.000003356934,10|0,0:0|0:0,0:0:0:0:
424,192,15963,5,6,0:0:0:0:
288,152,16121,1,0,0:0:0:0:
188,251,16279,2,0,P|145:285|90:288,1,110.000003356934,8|0,0:0|0:0,0:0:0:0:
32,156,16594,2,0,L|80:56,1,110.000003356934,2|0,0:0|0:0,0:0:0:0:
220,24,16910,5,10,0:0:0:0:
288,152,17068,1,0,0:0:0:0:
142,147,17226,2,0,L|80:57,1,110.000003356934,2|0,0:0|0:0,0:0:0:0:
24,192,17542,2,0,L|4:244,2,55.0000016784668,8|0|2,0:0|0:0|0:0,0:0:0:0:
168,212,17858,1,0,0:0:0:0:
180,356,18016,1,0,0:0:0:0:
96,244,18173,2,0,P|96:188|124:144,1,110.000003356934,10|0,0:0|0:0,0:0:0:0:
256,88,18489,5,2,0:0:0:0:
356,192,18647,1,0,0:0:0:0:
228,256,18805,2,0,P|192:208|192:160,1,110.000003356934,10|0,0:0|0:0,0:0:0:0:
332,120,19121,2,0,P|387:128|426:163,1,110.000003356934
396,304,19437,5,10,0:0:0:0:
288,212,19594,1,0,0:0:0:0:
360,88,19752,2,0,L|464:52,1,110.000003356934,10|8,0:0|0:0,0:0:0:0:
256,88,20068,2,0,L|152:52,1,110.000003356934,8|10,0:0|0:0,0:0:0:0:
36,136,20384,1,2,0:0:0:0:
256,320,20700,1,2,0:0:0:0:
312,40,21016,6,0,P|256:20|208:28,1,110.000003356934,6|0,0:0|0:0,0:0:0:0:
176,168,21331,2,0,L|204:216,2,55.0000016784668,8|0|0,0:0|0:0|0:0,0:0:0:0:
36,136,21647,1,2,0:0:0:0:
172,92,21805,1,0,0:0:0:0:
276,192,21963,6,0,P|264:248|224:280,1,110.000003356934,10|0,0:0|0:0,0:0:0:0:
120,180,22279,2,0,P|132:124|172:92,1,110.000003356934,2|0,0:0|0:0,0:0:0:0:
312,120,22594,2,0,L|360:148,2,55.0000016784668,8|0|2,0:0|0:0|0:0,0:0:0:0:
196,204,22910,1,0,0:0:0:0:
288,312,23068,1,0,0:0:0:0:
288,312,23147,1,0,0:0:0:0:
288,312,23226,2,0,P|344:304|384:272,1,110.000003356934,10|0,0:0|0:0,0:0:0:0:
384,128,23542,5,2,0:0:0:0:
240,144,23700,1,0,0:0:0:0:
212,284,23858,2,0,L|220:340,2,55.0000016784668,10|0|0,0:0|0:0|0:0,0:0:0:0:
316,184,24173,1,0,0:0:0:0:
404,296,24331,1,0,0:0:0:0:
272,240,24489,6,0,P|238:197|240:143,1,110.000003356934,10|0,0:0|0:0,0:0:0:0:
384,128,24805,2,0,P|417:85|415:31,1,110.000003356934,2|0,0:0|0:0,0:0:0:0:
272,32,25121,2,0,L|172:76,1,110.000003356934,8|2,0:0|0:0,0:0:0:0:
188,220,25437,1,0,0:0:0:0:
328,188,25594,1,0,0:0:0:0:
192,144,25752,1,10,0:0:0:0:
112,264,25910,1,0,0:0:0:0:
255,268,26068,6,0,P|273:216|263:163,1,110.000003356934,6|0,0:0|0:0,0:0:0:0:
132,104,26384,1,8,0:0:0:0:
132,104,26463,1,0,0:0:0:0:
132,104,26542,2,0,P|88:136|64:184,1,110.000003356934,0|2,0:0|0:0,0:0:0:0:
152,300,26858,1,0,0:0:0:0:
208,168,27016,6,0,P|228:112|216:64,1,110.000003356934,10|0,0:0|0:0,0:0:0:0:
72,64,27331,2,0,P|60:117|80:167,1,110.000003356934,2|0,0:0|0:0,0:0:0:0:
200,244,27647,2,0,L|252:260,2,55.0000016784668,8|0|2,0:0|0:0|0:0,0:0:0:0:
164,104,27963,1,0,0:0:0:0:
288,32,28121,1,0,0:0:0:0:
288,32,28200,1,0,0:0:0:0:
288,32,28279,2,0,P|344:48|380:84,1,110.000003356934,10|0,0:0|0:0,0:0:0:0:
332,220,28594,5,2,0:0:0:0:
192,196,28752,1,0,0:0:0:0:
308,112,28910,2,0,L|400:172,1,110.000003356934,10|0,0:0|0:0,0:0:0:0:
412,316,29226,2,0,P|360:348|312:348,1,110.000003356934
196,264,29542,5,10,0:0:0:0:
332,220,29700,1,0,0:0:0:0:
236,324,29858,2,0,P|188:352|136:348,1,110.000003356934,2|0,0:0|0:0,0:0:0:0:
120,204,30173,2,0,P|168:232|220:228,1,110.000003356934,8|2,0:0|0:0,0:0:0:0:
340,148,30489,2,0,L|368:100,2,55.0000016784668,0|0|0,0:0|0:0|0:0,0:0:0:0:
216,76,30805,2,0,L|188:28,2,55.0000016784668,10|0|0,0:0|0:0|0:0,0:0:0:0:
256,216,31121,6,0,L|224:260,3,55.0000016784668,0|0|0|0,0:0|0:0|0:0|0:0,0:0:0:0:
144,252,31437,2,0,L|128:200,3,55.0000016784668,0|0|0|0,0:0|0:0|0:0|0:0,0:0:0:0:
190,148,31752,6,0,L|316:148,1,125.000004768372,0|0,0:0|2:2,0:0:0:0:
340,148,32068,6,0,L|384:240,1,100,4|8,1:2|0:0,0:0:0:0:
304,340,32383,1,0,0:0:0:0:
224,240,32541,1,8,0:0:0:0:
352,208,32699,2,0,L|448:180,1,100,0|8,0:0|0:0,0:0:0:0:
352,92,33015,2,0,L|256:64,1,100,0|8,0:0|0:0,0:0:0:0:
148,136,33331,5,0,0:0:0:0:
224,240,33489,1,8,0:0:0:0:
328,164,33646,2,0,L|392:84,1,100,0|8,0:0|0:0,0:0:0:0:
468,180,33962,2,0,L|468:332,1,150.000005722046,0|0,0:0|2:0,0:0:0:0:
468,330,34594,5,4,1:2:0:0:
324,292,34752,1,8,0:0:0:0:
332,144,34910,1,0,0:0:0:0:
400,276,35068,1,8,0:0:0:0:
272,352,35225,1,0,0:0:0:0:
192,224,35383,1,8,0:0:0:0:
344,220,35541,1,0,0:0:0:0:
348,372,35699,1,8,0:0:0:0:
220,296,35857,5,8,0:0:0:0:
224,260,35936,1,8,0:0:0:0:
228,224,36015,1,8,0:0:0:0:
232,188,36094,1,8,0:0:0:0:
236,152,36173,2,0,B|268:112,3,50,8|8|8|8,0:0|0:0|0:0|0:0,0:0:0:0:
299,91,36489,2,0,P|347:149|344:220,1,150.000005722046,0|2,0:0|0:0,0:0:0:0:
344,220,37120,6,0,P|249:200|201:116,1,200,4|8,1:2|0:0,0:0:0:0:
300,32,37594,1,0,0:0:0:0:
412,100,37752,2,0,L|480:288,1,200,0|8,0:0|0:0,0:0:0:0:
372,360,38225,1,0,0:0:0:0:
256,304,38383,6,0,P|264:248|292:216,1,100
340,96,38699,2,0,P|292:80|244:92,1,100,8|0,0:0|0:0,0:0:0:0:
159,192,39015,2,0,P|66:173|32:83,1,200,0|8,0:0|0:0,0:0:0:0:
148,24,39489,1,0,0:0:0:0:
256,96,39646,5,4,0:0:0:0:
256,96,39962,1,8,0:0:0:0:
168,192,40120,1,0,0:0:0:0:
256,288,40278,1,0,0:0:0:0:
228,160,40436,1,0,0:0:0:0:
100,140,40594,2,0,L|60:180,2,50,8|0|0,0:0|0:0|0:0,0:0:0:0:
196,52,40910,5,8,0:0:0:0:
324,132,41068,1,8,0:0:0:0:
196,52,41225,1,8,0:0:0:0:
324,132,41383,1,8,0:0:0:0:
196,52,41541,2,0,P|138:130|160:224,1,200,8|2,0:0|0:0,0:0:0:0:
160,224,42173,6,0,P|228:195|298:215,1,150.000005722046,4|8,1:2|0:0,0:0:0:0:
344,320,42646,1,0,0:0:0:0:
244,267,42804,2,0,P|231:194|264:128,1,150.000005722046,0|8,0:0|0:0,0:0:0:0:
372,88,43278,1,0,0:0:0:0:
476,132,43436,6,0,L|496:204,1,75.0000028610231
384,192,43752,2,0,L|376:268,1,75.0000028610231,8|0,0:0|0:0,0:0:0:0:
272,228,44068,2,0,L|228:292,1,75.0000028610231
156,204,44383,2,0,L|84:224,1,75.0000028610231,8|0,0:0|0:0,0:0:0:0:
32,124,44699,6,0,P|80:60|144:40,1,150.000005722046,0|8,0:0|0:0,0:0:0:0:
312,192,45331,1,0,0:0:0:0:
152,348,45646,1,0,0:0:0:0:
52,292,45804,1,8,0:0:0:0:
76,180,45962,2,0,P|144:144|208:168,1,150.000005722046
256,272,46436,1,8,0:0:0:0:
160,216,46594,2,0,L|128:148,1,75.0000028610231,0|8,0:0|0:0,0:0:0:0:
224,88,46910,2,0,L|256:20,1,75.0000028610231,0|8,0:0|0:0,0:0:0:0:
352,80,47225,6,0,L|352:232,1,150.000005722046,4|8,1:2|0:0,0:0:0:0:
300,332,47699,1,0,0:0:0:0:
191,355,47857,2,0,P|164:331|145:298,1,75.0000028610231
220,212,48173,2,0,P|222:174|212:138,1,75.0000028610231,8|0,0:0|0:0,0:0:0:0:
124,72,48489,5,0,0:0:0:0:
196,284,48804,1,8,0:0:0:0:
404,191,49120,2,0,P|418:157|420:120,1,75.0000028610231,0|8,0:0|0:0,0:0:0:0:
312,91,49436,2,0,P|276:103|239:103,1,75.0000028610231,0|8,0:0|0:0,0:0:0:0:
132,72,49752,5,0,0:0:0:0:
320,192,50068,1,8,0:0:0:0:
160,348,50383,1,0,0:0:0:0:
60,292,50541,1,8,0:0:0:0:
64,180,50699,2,0,L|112:116,1,75.0000028610231,0|8,0:0|0:0,0:0:0:0:
196,196,51015,2,0,P|236:256|308:272,1,150.000005722046,0|8,0:0|0:0,0:0:0:0:
412,224,51489,1,8,0:0:0:0:
440,116,51646,1,8,0:0:0:0:
432,112,51962,5,0,0:0:0:0:
408,100,52041,1,0,0:0:0:0:
384,88,52120,1,0,0:0:0:0:
360,76,52199,1,0,0:0:0:0:
336,64,52278,2,0,L|256:124,1,100,4|0,1:2|0:0,0:0:0:0:
313,243,52594,2,0,L|412:224,1,100,0|0,0:0|0:0,0:0:0:0:
496,120,52910,1,4,1:2:0:0:
404,28,53068,1,0,0:0:0:0:
288,88,53225,2,0,L|256:184,1,100
148,256,53541,6,0,L|100:236,3,50,2|2|2|2,1:2|1:2|1:2|1:2,0:0:0:0:
120,160,53857,2,0,L|160:124,3,50,2|2|2|2,1:2|1:2|1:2|1:2,0:0:0:0:
96,72,54173,2,0,P|36:121|16:188,1,150.000005722046,0|2,0:0|0:0,0:0:0:0:
16,188,54804,6,0,L|122:243,1,119.999996337891,4|8,1:2|0:0,0:0:0:0:
256,160,55120,2,0,L|150:105,1,119.999996337891,0|8,0:0|0:0,0:0:0:0:
16,188,55436,2,0,L|72:296,1,119.999996337891,0|8,0:0|0:0,0:0:0:0:
216,236,55752,2,0,L|271:129,1,119.999996337891,0|8,0:0|0:0,0:0:0:0:
400,40,56068,5,0,0:0:0:0:
472,176,56225,1,8,0:0:0:0:
328,232,56383,1,0,0:0:0:0:
324,76,56541,1,8,0:0:0:0:
476,112,56699,2,0,P|488:170|469:226,1,119.999996337891,0|8,0:0|0:0,0:0:0:0:
320,276,57015,2,0,L|256:175,1,119.999996337891,0|8,0:0|0:0,0:0:0:0:
112,108,57331,5,4,1:2:0:0:
64,256,57489,1,8,0:0:0:0:
176,148,57646,2,0,P|224:108|280:100,1,119.999996337891,0|8,0:0|0:0,0:0:0:0:
408,192,57962,2,0,L|288:192,1,119.999996337891,0|8,0:0|0:0,0:0:0:0:
168,292,58278,1,0,0:0:0:0:
308,364,58436,1,8,0:0:0:0:
220,232,58594,6,0,P|168:196|112:188,1,119.999996337891,0|8,0:0|0:0,0:0:0:0:
184,48,58910,2,0,P|245:31|300:43,1,119.999996337891,0|8,0:0|0:0,0:0:0:0:
352,192,59225,1,0,0:0:0:0:
244,304,59383,1,8,0:0:0:0:
244,304,59462,1,0,0:0:0:0:
244,304,59541,2,0,P|201:265|188:207,1,119.999996337891,0|8,0:0|0:0,0:0:0:0:
316,116,59857,5,4,1:2:0:0:
408,240,60015,1,8,0:0:0:0:
256,196,60173,1,0,0:0:0:0:
404,152,60331,1,8,0:0:0:0:
316,280,60489,2,0,L|200:320,1,119.999996337891,0|8,0:0|0:0,0:0:0:0:
144,176,60804,2,0,L|257:215,1,119.999996337891,0|8,0:0|0:0,0:0:0:0:
128,308,61120,5,0,0:0:0:0:
24,192,61278,1,8,0:0:0:0:
128,76,61436,2,0,P|192:64|244:76,1,119.999996337891,0|8,0:0|0:0,0:0:0:0:
268,232,61752,2,0,P|208:200|184:156,1,119.999996337891,0|8,0:0|0:0,0:0:0:0:
284,32,62068,1,0,0:0:0:0:
392,144,62225,5,8,0:0:0:0:
392,144,62304,1,0,0:0:0:0:
392,144,62383,2,0,L|344:256,1,119.999996337891,4|8,1:2|0:0,0:0:0:0:
196,308,62699,1,0,0:0:0:0:
128,168,62857,1,8,0:0:0:0:
256,80,63015,2,0,P|296:128|300:184,1,119.999996337891,0|8,0:0|0:0,0:0:0:0:
156,240,63331,2,0,P|112:280|96:336,1,119.999996337891,0|8,0:0|0:0,0:0:0:0:
252,360,63646,5,0,0:0:0:0:
352,240,63804,1,8,0:0:0:0:
223,151,63962,2,0,P|169:128|112:139,1,119.999996337891,0|8,0:0|0:0,0:0:0:0:
64,288,64278,2,0,P|132:264|160:224,1,119.999996337891,0|8,0:0|0:0,0:0:0:0:
224,84,64594,1,0,0:0:0:0:
192,72,64673,1,0,0:0:0:0:
160,60,64752,1,8,0:0:0:0:
128,48,64831,1,0,0:0:0:0:
96,36,64910,6,0,P|64:92|76:144,1,119.999996337891,4|8,1:2|0:0,0:0:0:0:
232,164,65225,2,0,P|280:208|292:260,1,119.999996337891,0|8,0:0|0:0,0:0:0:0:
168,352,65541,2,0,P|168:292|204:248,1,119.999996337891,0|8,0:0|0:0,0:0:0:0:
352,192,65857,2,0,P|384:140|376:84,1,119.999996337891,0|8,0:0|0:0,0:0:0:0:
228,32,66173,5,0,0:0:0:0:
120,148,66331,1,8,0:0:0:0:
272,192,66489,1,0,0:0:0:0:
164,80,66646,1,8,0:0:0:0:
40,172,66804,2,0,P|32:232|60:284,1,119.999996337891,0|8,0:0|0:0,0:0:0:0:
192,196,67120,2,0,P|214:141|266:112,1,119.999996337891,0|8,0:0|0:0,0:0:0:0:
404,192,67436,5,4,1:2:0:0:
348,336,67594,1,8,0:0:0:0:
204,280,67752,2,0,L|104:212,1,119.999996337891,0|8,0:0|0:0,0:0:0:0:
208,96,68068,2,0,L|308:28,1,119.999996337891,0|8,0:0|0:0,0:0:0:0:
436,116,68383,1,0,0:0:0:0:
332,232,68541,1,8,0:0:0:0:
184,184,68699,6,0,P|132:144|120:92,1,119.999996337891,0|8,0:0|0:0,0:0:0:0:
268,36,69015,2,0,L|388:36,1,119.999996337891,0|8,0:0|0:0,0:0:0:0:
404,192,69331,1,0,0:0:0:0:
292,300,69489,1,8,0:0:0:0:
292,300,69568,1,0,0:0:0:0:
292,300,69646,2,0,P|256:244|256:192,1,119.999996337891,0|8,0:0|0:0,0:0:0:0:
316,48,69962,6,0,L|436:28,1,119.999996337891,4|8,1:2|0:0,0:0:0:0:
316,132,70278,2,0,L|197:112,1,119.999996337891,0|8,0:0|0:0,0:0:0:0:
96,232,70594,1,0,0:0:0:0:
204,348,70752,1,8,0:0:0:0:
248,200,70910,1,0,0:0:0:0:
132,308,71068,1,8,0:0:0:0:
284,328,71225,6,0,P|336:292|360:240,1,119.999996337891,0|8,0:0|0:0,0:0:0:0:
212,192,71541,2,0,P|180:136|192:84,1,119.999996337891,0|8,0:0|0:0,0:0:0:0:
344,48,71857,2,0,P|313:104|263:125,1,119.999996337891,0|8,0:0|0:0,0:0:0:0:
112,80,72173,1,0,0:0:0:0:
4,192,72331,5,8,0:0:0:0:
4,192,72410,1,0,0:0:0:0:
4,192,72489,2,0,P|16:256|56:292,1,119.999996337891
320,128,72962,1,8,0:0:0:0:
320,128,73041,1,0,0:0:0:0:
320,128,73120,2,0,P|371:158|392:212,1,119.999996337891
256,292,73436,1,8,0:0:0:0:
136,192,73594,1,0,0:0:0:0:
228,68,73752,6,0,L|348:52,1,119.999996337891,0|8,0:0|0:0,0:0:0:0:
376,208,74068,2,0,L|257:192,1,119.999996337891,8|8,0:0|0:0,0:0:0:0:
132,284,74383,1,8,0:0:0:0:
404,132,74699,1,8,0:0:0:0:
108,32,75015,5,4,0:0:0:0:
96,52,75331,1,8,0:0:0:0:
84,72,75646,1,4,1:2:0:0:
72,92,75962,1,8,0:0:0:0:
60,112,76278,5,8,0:0:0:0:
116,260,76436,1,8,0:0:0:0:
256,192,76594,1,8,0:0:0:0:
100,180,76752,1,8,0:0:0:0:
32,320,76910,5,0,0:0:0:0:
60,340,76989,1,0,0:0:0:0:
96,352,77068,1,0,0:0:0:0:
132,352,77146,1,0,0:0:0:0:
168,340,77225,2,0,L|200:288,4,59.9999981689454,0|0|0|0|6,0:0|0:0|0:0|0:0|0:0,0:0:0:0:
168,340,87646,6,0,P|116:316|92:272,1,110.000003356934,6|0,0:0|0:0,0:0:0:0:
152,140,87962,1,8,0:0:0:0:
256,240,88120,1,0,0:0:0:0:
116,204,88278,2,0,P|82:157|88:105,1,110.000003356934,2|0,0:0|0:0,0:0:0:0:
216,40,88594,5,10,0:0:0:0:
336,120,88752,1,0,0:0:0:0:
200,172,88910,2,0,P|144:172|96:148,1,110.000003356934,2|0,0:0|0:0,0:0:0:0:
152,280,89225,2,0,P|208:280|256:256,1,110.000003356934,8|2,0:0|0:0,0:0:0:0:
256,112,89541,1,0,0:0:0:0:
132,40,89699,1,0,0:0:0:0:
132,40,89778,1,0,0:0:0:0:
132,40,89857,2,0,P|88:80|76:128,1,110.000003356934,10|0,0:0|0:0,0:0:0:0:
192,212,90173,5,2,0:0:0:0:
324,160,90331,1,0,0:0:0:0:
256,36,90489,2,0,L|172:108,1,110.000003356934,10|0,0:0|0:0,0:0:0:0:
104,232,90804,2,0,L|188:304,1,110.000003356934,0|0,0:0|0:0,0:0:0:0:
320,356,91120,5,10,0:0:0:0:
424,256,91278,1,0,0:0:0:0:
292,204,91436,2,0,L|188:240,1,110.000003356934,2|0,0:0|0:0,0:0:0:0:
84,340,91752,2,0,L|188:376,1,110.000003356934,8|2,0:0|0:0,0:0:0:0:
276,260,92068,1,0,0:0:0:0:
172,160,92225,1,0,0:0:0:0:
188,304,92383,1,10,0:0:0:0:
252,176,92541,1,0,0:0:0:0:
148,76,92699,6,0,P|103:106|84:156,1,110.000003356934,6|0,0:0|0:0,0:0:0:0:
112,300,93015,1,8,0:0:0:0:
244,244,93173,1,0,0:0:0:0:
256,100,93331,2,0,L|148:76,1,110.000003356934,2|0,0:0|0:0,0:0:0:0:
92,208,93646,6,0,L|200:184,1,110.000003356934,10|0,0:0|0:0,0:0:0:0:
332,240,93962,1,2,0:0:0:0:
256,364,94120,1,0,0:0:0:0:
168,252,94278,2,0,P|152:200|168:148,1,110.000003356934,8|2,0:0|0:0,0:0:0:0:
312,160,94594,2,0,P|360:128|372:80,1,110.000003356934
308,44,94831,2,0,L|256:60,1,55.0000016784668,0|10,0:0|0:0,0:0:0:0:
240,204,95068,1,0,0:0:0:0:
375,248,95225,6,0,P|418:214|432:162,1,110.000003356934,2|0,0:0|0:0,0:0:0:0:
332,60,95541,2,0,P|304:108|312:160,1,110.000003356934,10|0,0:0|0:0,0:0:0:0:
412,264,95857,1,0,0:0:0:0:
392,124,96015,1,0,0:0:0:0:
300,232,96173,6,0,P|246:241|194:225,1,110.000003356934,10|0,0:0|0:0,0:0:0:0:
140,92,96489,2,0,P|193:101|245:85,1,110.000003356934,2|0,0:0|0:0,0:0:0:0:
388,76,96804,2,0,L|436:108,2,55.0000016784668,8|0|2,0:0|0:0|0:0,0:0:0:0:
272,160,97120,2,0,L|284:216,2,55.0000016784668,0|0|0,0:0|0:0|0:0,0:0:0:0:
132,132,97436,2,0,L|100:176,2,55.0000016784668,10|0|0,0:0|0:0|0:0,0:0:0:0:
256,60,97752,6,0,L|304:88,3,55.0000016784668,0|0|0|0,0:0|0:0|0:0|0:0,0:0:0:0:
256,152,98068,2,0,L|200:168,3,55.0000016784668,0|0|0|0,0:0|0:0|0:0|0:0,0:0:0:0:
156,232,98383,2,0,P|210:260|272:256,1,125.000004768372,0|0,0:0|2:0,0:0:0:0:
296,244,98699,6,0,L|256:152,1,100,4|8,1:2|0:0,0:0:0:0:
132,108,99014,1,0,0:0:0:0:
68,220,99172,1,8,0:0:0:0:
200,220,99330,2,0,P|220:168|216:124,1,100,0|8,0:0|0:0,0:0:0:0:
312,32,99646,2,0,P|362:54|391:88,1,100,0|8,0:0|0:0,0:0:0:0:
372,216,99962,5,0,0:0:0:0:
256,156,100120,1,8,0:0:0:0:
344,60,100277,2,0,L|440:28,1,100,0|8,0:0|0:0,0:0:0:0:
496,136,100593,2,0,L|432:272,1,150.000005722046,0|0,0:0|2:0,0:0:0:0:
432,272,101225,5,4,1:2:0:0:
288,224,101383,1,8,0:0:0:0:
400,124,101541,1,0,0:0:0:0:
352,268,101699,1,8,0:0:0:0:
252,156,101856,1,0,0:0:0:0:
396,204,102014,1,8,0:0:0:0:
284,304,102172,1,0,0:0:0:0:
332,160,102330,1,8,0:0:0:0:
432,272,102488,5,8,0:0:0:0:
400,288,102567,1,8,0:0:0:0:
368,304,102646,1,8,0:0:0:0:
336,320,102725,1,8,0:0:0:0:
304,336,102804,2,0,L|256:320,3,50,8|8|8|8,0:0|0:0|0:0|0:0,0:0:0:0:
226,296,103120,2,0,P|257:228|320:192,1,150.000005722046,0|2,0:0|0:0,0:0:0:0:
320,192,103751,6,0,P|250:126|153:132,1,200,4|8,1:2|0:0,0:0:0:0:
68,232,104225,1,0,0:0:0:0:
120,352,104383,2,0,P|207:313|220:218,1,200,0|8,0:0|0:0,0:0:0:0:
120,136,104856,1,0,0:0:0:0:
44,244,105014,6,0,P|88:260|140:252,1,100
256,192,105330,2,0,P|212:176|160:184,1,100,8|0,0:0|0:0,0:0:0:0:
204,308,105646,2,0,P|301:309|368:239,1,200,0|8,0:0|0:0,0:0:0:0:
320,116,106120,1,0,0:0:0:0:
192,120,106277,5,4,0:0:0:0:
192,120,106593,1,8,0:0:0:0:
216,144,106672,1,0,0:0:0:0:
240,168,106751,1,0,0:0:0:0:
264,192,106830,1,0,0:0:0:0:
288,216,106909,2,0,P|340:216|380:192,1,100
284,104,107225,2,0,P|252:64|248:16,1,100,8|0,0:0|0:0,0:0:0:0:
380,28,107541,5,8,0:0:0:0:
484,108,107699,1,8,0:0:0:0:
356,104,107856,1,8,0:0:0:0:
460,28,108014,1,8,0:0:0:0:
412,151,108172,2,0,P|330:202|240:168,1,200,8|2,0:0|0:0,0:0:0:0:
240,168,108804,6,0,P|187:218|184:292,1,150.000005722046,4|8,1:2|0:0,0:0:0:0:
292,324,109277,1,0,0:0:0:0:
371,243,109435,2,0,L|376:92,1,150.000005722046,0|8,0:0|0:0,0:0:0:0:
280,36,109909,1,0,0:0:0:0:
171,68,110067,6,0,P|160:103|163:140,1,75.0000028610231
268,180,110383,2,0,P|279:144|276:107,1,75.0000028610231,8|0,0:0|0:0,0:0:0:0:
161,56,110699,2,0,P|149:91|147:128,1,75.0000028610231
278,191,111015,2,0,P|290:156|292:119,1,75.0000028610231,8|0,0:0|0:0,0:0:0:0:
196,60,111330,5,0,0:0:0:0:
52,232,111646,1,8,0:0:0:0:
256,328,111962,2,0,P|332:308|368:248,1,150.000005722046,0|0,0:0|0:0,0:0:0:0:
312,152,112435,1,8,0:0:0:0:
200,152,112593,6,0,L|148:296,1,150.000005722046
52,232,113067,1,8,0:0:0:0:
56,120,113225,2,0,P|80:88|112:72,1,75.0000028610231,0|8,0:0|0:0,0:0:0:0:
196,192,113541,2,0,P|172:160|140:144,1,75.0000028610231,0|8,0:0|0:0,0:0:0:0:
132,256,113856,6,0,P|200:280|264:244,1,150.000005722046,4|8,1:2|0:0,0:0:0:0:
304,140,114330,1,0,0:0:0:0:
232,52,114488,1,0,0:0:0:0:
28,148,114804,2,0,L|52:220,1,75.0000028610231,8|0,0:0|0:0,0:0:0:0:
160,259,115120,6,0,L|230:127,1,150.000005722046,0|8,0:0|0:0,0:0:0:0:
456,112,115751,2,0,L|488:180,1,75.0000028610231,0|8,0:0|0:0,0:0:0:0:
404,256,116067,2,0,L|332:232,1,75.0000028610231,0|8,0:0|0:0,0:0:0:0:
256,148,116383,6,0,P|284:72|340:36,1,150.000005722046,0|8,0:0|0:0,0:0:0:0:
480,212,117014,1,0,0:0:0:0:
408,300,117172,1,8,0:0:0:0:
296,292,117330,2,0,L|236:244,1,75.0000028610231,0|8,0:0|0:0,0:0:0:0:
135,192,117646,2,0,P|98:254|116:328,1,150.000005722046,0|8,0:0|0:0,0:0:0:0:
228,328,118120,1,0,0:0:0:0:
320,264,118277,1,8,0:0:0:0:
320,256,118593,5,0,0:0:0:0:
304,240,118672,1,0,0:0:0:0:
288,224,118751,1,0,0:0:0:0:
272,208,118830,1,0,0:0:0:0:
256,192,118909,2,0,B|159:168,1,100,4|0,1:2|0:0,0:0:0:0:
56,252,119225,2,0,L|140:308,1,100
256,192,119541,2,0,B|307:106,1,100,4|0,1:2|0:0,0:0:0:0:
439,93,119857,2,0,L|420:192,1,100
332,288,120172,6,0,L|288:260,3,50,2|2|2|2,1:2|1:2|1:2|1:2,0:0:0:0:
212,248,120488,2,0,L|168:276,3,50,2|2|2|2,1:2|1:2|1:2|1:2,0:0:0:0:
92,256,120804,2,0,L|52:192,1,75.0000028610231,0|0,0:0|0:0,0:0:0:0:
124,68,121120,1,2,0:0:0:0:
152,76,121199,1,0,0:0:0:0:
180,84,121277,1,0,0:0:0:0:
208,92,121356,1,0,0:0:0:0:
236,100,121435,6,0,L|312:192,1,119.999996337891,4|8,1:2|0:0,0:0:0:0:
256,340,121751,2,0,L|224:224,1,119.999996337891,0|8,0:0|0:0,0:0:0:0:
149,123,122067,2,0,L|131:241,1,119.999996337891,0|8,0:0|0:0,0:0:0:0:
68,352,122383,2,0,L|35:237,1,119.999996337891,0|8,0:0|0:0,0:0:0:0:
80,84,122699,5,0,0:0:0:0:
236,100,122856,1,8,0:0:0:0:
187,247,123014,2,0,P|149:202|141:143,1,119.999996337891,0|8,0:0|0:0,0:0:0:0:
244,24,123330,1,0,0:0:0:0:
336,152,123488,1,8,0:0:0:0:
336,152,123567,1,0,0:0:0:0:
336,152,123646,2,0,L|217:167,1,119.999996337891,0|8,0:0|0:0,0:0:0:0:
124,296,123962,5,4,1:2:0:0:
272,348,124120,1,8,0:0:0:0:
208,208,124277,2,0,P|204:151|236:100,1,119.999996337891,0|8,0:0|0:0,0:0:0:0:
364,192,124593,2,0,P|360:249|392:300,1,119.999996337891,0|8,0:0|0:0,0:0:0:0:
504,192,124909,1,0,0:0:0:0:
396,80,125067,1,8,0:0:0:0:
288,192,125225,6,0,P|224:176|192:136,1,119.999996337891,0|8,0:0|0:0,0:0:0:0:
304,24,125541,1,0,0:0:0:0:
404,144,125699,1,8,0:0:0:0:
256,96,125856,2,0,P|200:120|168:168,1,119.999996337891,0|8,0:0|0:0,0:0:0:0:
220,228,126093,2,0,L|276:252,1,59.9999981689454
428,216,126330,1,8,0:0:0:0:
372,72,126488,6,0,L|256:44,1,119.999996337891,4|8,1:2|0:0,0:0:0:0:
140,152,126804,2,0,L|256:124,1,119.999996337891,0|8,0:0|0:0,0:0:0:0:
352,248,127120,1,0,0:0:0:0:
200,220,127277,1,8,0:0:0:0:
336,144,127435,1,0,0:0:0:0:
432,268,127593,1,8,0:0:0:0:
283,211,127751,6,0,P|255:159|263:101,1,119.999996337891,0|8,0:0|0:0,0:0:0:0:
416,72,128067,2,0,P|444:124|436:182,1,119.999996337891,0|8,0:0|0:0,0:0:0:0:
324,292,128383,1,0,0:0:0:0:
188,216,128541,1,8,0:0:0:0:
188,216,128620,1,0,0:0:0:0:
188,216,128699,2,0,L|140:104,1,119.999996337891,0|8,0:0|0:0,0:0:0:0:
12,192,129014,5,4,1:2:0:0:
144,276,129172,1,8,0:0:0:0:
256,163,129330,2,0,P|253:104|224:52,1,119.999996337891,0|8,0:0|0:0,0:0:0:0:
68,64,129646,2,0,P|103:111|159:127,1,119.999996337891,0|8,0:0|0:0,0:0:0:0:
300,56,129962,1,0,0:0:0:0:
376,192,130120,1,8,0:0:0:0:
228,236,130277,6,0,P|192:184|196:128,1,119.999996337891,0|8,0:0|0:0,0:0:0:0:
352,128,130593,2,0,P|388:76|384:20,1,119.999996337891,0|8,0:0|0:0,0:0:0:0:
236,76,130909,1,0,0:0:0:0:
304,216,131067,1,8,0:0:0:0:
444,144,131225,1,0,0:0:0:0:
420,116,131304,1,0,0:0:0:0:
396,88,131383,1,8,0:0:0:0:
372,60,131462,1,0,0:0:0:0:
348,32,131541,6,0,L|228:16,1,119.999996337891,4|8,1:2|0:0,0:0:0:0:
136,140,131856,2,0,L|256:124,1,119.999996337891,0|8,0:0|0:0,0:0:0:0:
348,248,132172,2,0,L|228:232,1,119.999996337891,0|8,0:0|0:0,0:0:0:0:
136,356,132488,2,0,L|256:340,1,119.999996337891,0|8,0:0|0:0,0:0:0:0:
364,228,132804,5,0,0:0:0:0:
256,116,132962,1,8,0:0:0:0:
212,264,133120,2,0,P|257:301|316:307,1,119.999996337891,0|8,0:0|0:0,0:0:0:0:
340,232,133356,2,0,L|320:176,1,59.9999981689454
180,104,133593,1,8,0:0:0:0:
72,216,133751,1,0,0:0:0:0:
228,192,133909,1,8,0:0:0:0:
87,123,134067,6,0,P|91:65|128:18,1,119.999996337891,4|8,1:2|0:0,0:0:0:0:
256,112,134383,2,0,P|314:108|361:71,1,119.999996337891,0|8,0:0|0:0,0:0:0:0:
496,156,134699,2,0,P|472:212|424:244,1,119.999996337891,0|8,0:0|0:0,0:0:0:0:
272,204,135014,2,0,P|212:172|160:176,1,119.999996337891,0|8,0:0|0:0,0:0:0:0:
36,268,135330,5,0,0:0:0:0:
176,336,135488,1,8,0:0:0:0:
92,204,135646,2,0,P|96:144|136:104,1,119.999996337891,0|8,0:0|0:0,0:0:0:0:
168,256,135962,2,0,P|122:295|66:295,1,119.999996337891,0|8,0:0|0:0,0:0:0:0:
24,228,136199,2,0,L|12:168,1,59.9999981689454
104,40,136435,1,8,0:0:0:0:
200,164,136593,6,0,P|248:204|304:204,1,119.999996337891,4|8,1:2|0:0,0:0:0:0:
396,76,136909,2,0,L|284:120,1,119.999996337891,0|8,0:0|0:0,0:0:0:0:
256,276,137225,1,0,0:0:0:0:
388,192,137383,1,8,0:0:0:0:
232,188,137541,1,0,0:0:0:0:
356,284,137699,1,8,0:0:0:0:
311,135,137856,6,0,P|266:97|208:91,1,119.999996337891,0|8,0:0|0:0,0:0:0:0:
128,228,138172,2,0,P|173:189|231:183,1,119.999996337891,0|8,0:0|0:0,0:0:0:0:
272,252,138409,2,0,L|256:312,1,59.9999981689454
100,336,138646,1,8,0:0:0:0:
36,192,138804,1,0,0:0:0:0:
172,116,138962,5,8,0:0:0:0:
172,116,139041,1,0,0:0:0:0:
172,116,139120,2,0,L|288:88,1,119.999996337891
460,348,139593,1,8,0:0:0:0:
460,348,139672,1,0,0:0:0:0:
460,348,139751,2,0,L|348:300,1,119.999996337891,0|8,0:0|0:0,0:0:0:0:
256,176,140067,1,0,0:0:0:0:
408,212,140225,1,0,0:0:0:0:
263,268,140383,6,8,P|204:256|168:212,1,119.999996337891,0|8,0:0|0:0,0:0:0:0:
252,80,140699,2,0,P|311:92|347:136,1,119.999996337891,0|8,0:0|0:0,0:0:0:0:
336,292,141014,1,8,0:0:0:0:
40,192,141330,1,8,0:0:0:0:
256,44,141646,6,0,L|352:16,1,100,6|8,0:0|0:0,0:0:0:0:
352,148,141962,2,0,L|256:120,1,100,2|8,0:0|0:0,0:0:0:0:
148,192,142277,1,2,0:0:0:0:
256,264,142435,1,10,0:0:0:0:
256,132,142593,1,0,0:0:0:0:
140,192,142751,1,10,0:0:0:0:
256,252,142909,6,0,L|348:208,1,100,2|8,0:0|0:0,0:0:0:0:
228,152,143225,2,0,L|136:108,1,100,2|8,0:0|0:0,0:0:0:0:
36,192,143541,1,2,2:0:0:0:
112,300,143699,2,0,L|140:344,2,50,2|2|2,2:0|2:0|2:0,2:0:0:0:
200,204,144014,1,2,2:0:0:0:
300,284,144172,6,0,P|261:314|212:316,1,100,6|8,0:0|0:0,0:0:0:0:
124,220,144488,2,0,P|91:183|42:172,1,100,2|8,0:0|0:0,0:0:0:0:
8,300,144804,1,2,0:0:0:0:
124,360,144962,1,10,0:0:0:0:
196,252,145120,1,0,0:0:0:0:
80,304,145277,1,10,0:0:0:0:
196,364,145435,6,0,L|264:292,1,100,2|8,0:0|0:0,0:0:0:0:
168,200,145751,2,0,L|100:128,1,100,2|8,0:0|0:0,0:0:0:0:
192,32,146067,1,2,2:0:0:0:
276,132,146225,2,0,L|252:176,2,50,2|2|2,2:0|2:0|2:0,2:0:0:0:
396,84,146541,1,2,2:0:0:0:
451,199,146699,6,0,P|433:244|395:277,1,100,6|8,0:0|0:0,0:0:0:0:
280,220,147014,2,0,P|324:197|373:201,1,100,2|8,0:0|0:0,0:0:0:0:
468,292,147330,1,2,0:0:0:0:
356,360,147488,1,10,0:0:0:0:
256,280,147646,1,0,0:0:0:0:
336,176,147804,1,10,0:0:0:0:
392,292,147962,6,0,L|304:340,1,100,2|8,0:0|0:0,0:0:0:0:
184,284,148277,2,0,L|144:192,1,100,2|10,0:0|0:0,0:0:0:0:
192,68,148593,1,0,0:0:0:0:
316,112,148751,1,10,0:0:0:0:
316,112,148830,1,0,0:0:0:0:
316,112,148909,2,0,P|320:160|304:208,1,100,0|10,0:0|0:0,0:0:0:0:
172,192,149225,5,6,0:0:0:0:
184,64,149383,1,8,0:0:0:0:
312,92,149541,2,0,L|399:140,1,100,2|8,0:0|0:0,0:0:0:0:
344,256,149856,2,0,L|256:207,1,100,2|10,0:0|0:0,0:0:0:0:
140,148,150172,1,0,0:0:0:0:
48,240,150330,1,10,0:0:0:0:
144,327,150488,6,0,P|176:290|188:242,1,100,2|8,0:0|0:0,0:0:0:0:
75,175,150804,2,0,P|43:138|31:90,1,100,2|10,0:0|0:0,0:0:0:0:
148,32,151120,2,0,L|240:70,1,100,0|10,0:0|0:0,0:0:0:0:
256,144,151356,2,0,L|216:176,1,50
116,260,151593,1,10,0:0:0:0:
224,336,151751,6,0,P|288:332|328:296,1,119.999996337891,4|8,1:2|0:0,0:0:0:0:
240,196,152067,1,0,0:0:0:0:
212,168,152146,1,0,0:0:0:0:
200,128,152225,1,8,0:0:0:0:
208,88,152304,1,0,0:0:0:0:
240,60,152383,2,0,L|357:36,1,119.999996337891,0|8,0:0|0:0,0:0:0:0:
432,144,152699,2,0,L|396:192,3,59.9999981689454,0|0|8|0,0:0|0:0|0:0|0:0,0:0:0:0:
356,176,153014,5,0,0:0:0:0:
316,160,153093,1,0,0:0:0:0:
276,144,153172,1,8,0:0:0:0:
236,128,153251,1,0,0:0:0:0:
196,112,153330,2,0,L|140:140,1,59.9999981689454
48,248,153488,2,0,L|100:276,1,59.9999981689454,8|0,0:0|0:0,0:0:0:0:
229,222,153646,2,0,L|143:139,1,119.999996337891,0|8,0:0|0:0,0:0:0:0:
244,52,153962,5,0,0:0:0:0:
272,84,154041,1,0,0:0:0:0:
300,116,154120,1,8,0:0:0:0:
328,148,154199,1,0,0:0:0:0:
356,180,154277,2,0,L|328:236,3,59.9999981689454,4|0|8|0,1:2|0:0|0:0|0:0,0:0:0:0:
216,192,154593,2,0,L|180:144,3,59.9999981689454,0|0|8|0,0:0|0:0|0:0|0:0,0:0:0:0:
68,96,154909,2,0,L|32:144,3,59.9999981689454,0|0|8|0,0:0|0:0|0:0|0:0,0:0:0:0:
60,264,155225,2,0,L|120:280,3,59.9999981689454,0|0|8|0,0:0|0:0|0:0|0:0,0:0:0:0:
136,160,155541,6,0,L|96:44,1,119.999996337891,0|8,0:0|0:0,0:0:0:0:
20,152,155856,1,0,0:0:0:0:
56,172,155935,1,0,0:0:0:0:
92,192,156014,1,8,0:0:0:0:
128,212,156093,1,0,0:0:0:0:
164,232,156172,2,0,L|216:204,3,59.9999981689454,0|0|8|0,0:0|0:0|0:0|0:0,0:0:0:0:
256,192,156488,2,0,L|256:312,1,119.999996337891,0|8,0:0|0:0,0:0:0:0:
128,340,156804,6,0,L|76:312,4,59.9999981689454,4|0|8|0|0,1:2|0:0|0:0|0:0|0:0,0:0:0:0:
20,152,157277,2,0,L|70:120,4,59.9999981689454,8|0|0|0|8,0:0|0:0|0:0|0:0|0:0,0:0:0:0:
236,152,157751,2,0,L|237:211,3,59.9999981689454,0|0|8|0,0:0|0:0|0:0|0:0,0:0:0:0:
200,232,158067,1,0,0:0:0:0:
160,236,158146,1,0,0:0:0:0:
120,228,158225,1,8,0:0:0:0:
92,196,158304,1,0,0:0:0:0:
88,156,158383,2,0,L|104:96,1,59.9999981689454
188,28,158541,2,0,L|204:88,1,59.9999981689454,8|0,0:0|0:0,0:0:0:0:
288,156,158699,2,0,L|320:36,1,119.999996337891,0|8,0:0|0:0,0:0:0:0:
436,96,159014,5,0,0:0:0:0:
448,136,159093,1,0,0:0:0:0:
460,176,159172,1,8,0:0:0:0:
472,216,159251,1,0,0:0:0:0:
484,256,159330,2,0,L|448:304,3,59.9999981689454,8|0|8|0,0:0|0:0|0:0|0:0,0:0:0:0:
332,296,159646,2,0,L|313:239,3,59.9999981689454,0|0|8|0,0:0|0:0|0:0|0:0,0:0:0:0:
204,208,159962,2,0,L|150:234,3,59.9999981689454,8|0|8|0,0:0|0:0|0:0|0:0,0:0:0:0:
48,184,160277,2,0,L|21:130,3,59.9999981689454,0|0|8|0,0:0|0:0|0:0|0:0,0:0:0:0:
80,32,160593,5,8,0:0:0:0:
204,76,160751,1,8,0:0:0:0:
204,208,160909,2,0,P|174:258|118:276,1,119.999996337891,8|8,0:0|0:0,0:0:0:0:
28,180,161225,2,0,L|120:100,1,119.999996337891,8|0,0:0|0:0,0:0:0:0:
200,96,161462,2,0,L|240:140,1,59.9999981689454
256,272,161699,1,0,0:0:0:0:
136,328,161856,6,0,P|111:258|140:191,1,150.000005722046,4|8,1:2|0:0,0:0:0:0:
256,152,162330,1,0,0:0:0:0:
328,248,162488,2,0,P|256:280|192:260,1,150.000005722046,0|8,0:0|0:0,0:0:0:0:
156,144,162962,1,0,0:0:0:0:
256,76,163120,6,0,L|328:56,1,75.0000028610231
388,160,163435,2,0,L|316:140,1,75.0000028610231,8|0,0:0|0:0,0:0:0:0:
212,204,163751,1,0,0:0:0:0:
408,344,164067,1,8,0:0:0:0:
480,116,164383,6,0,P|422:69|348:68,1,150.000005722046,0|8,0:0|0:0,0:0:0:0:
184,240,165014,2,0,P|240:192|316:192,1,150.000005722046
412,264,165488,1,8,0:0:0:0:
356,368,165646,2,0,P|292:336|268:264,1,150.000005722046
288,148,166120,5,8,0:0:0:0:
400,104,166277,2,0,L|476:88,1,75.0000028610231,0|8,0:0|0:0,0:0:0:0:
368,28,166593,2,0,L|292:12,1,75.0000028610231,0|8,0:0|0:0,0:0:0:0:
192,76,166909,6,0,L|224:224,1,150.000005722046,4|8,1:2|0:0,0:0:0:0:
160,328,167383,1,0,0:0:0:0:
56,264,167541,2,0,P|36:232|28:196,1,75.0000028610231
148,192,167856,2,0,P|181:175|207:149,1,75.0000028610231,8|0,0:0|0:0,0:0:0:0:
256,40,168172,5,0,0:0:0:0:
28,120,168488,1,8,0:0:0:0:
212,276,168804,2,0,L|256:216,1,75.0000028610231,0|8,0:0|0:0,0:0:0:0:
180,120,169120,2,0,L|136:60,1,75.0000028610231,0|8,0:0|0:0,0:0:0:0:
256,40,169435,6,0,P|317:77|342:149,1,150.000005722046,0|8,0:0|0:0,0:0:0:0:
132,268,170067,1,0,0:0:0:0:
72,164,170225,1,8,0:0:0:0:
140,64,170383,2,0,L|204:108,1,75.0000028610231,0|8,0:0|0:0,0:0:0:0:
280,200,170699,2,0,P|200:208|148:168,1,150.000005722046,0|8,0:0|0:0,0:0:0:0:
208,64,171172,1,0,0:0:0:0:
328,52,171330,1,8,0:0:0:0:
332,56,171646,5,0,0:0:0:0:
320,82,171725,1,0,0:0:0:0:
308,108,171804,1,0,0:0:0:0:
297,135,171883,1,0,0:0:0:0:
285,161,171962,2,0,L|188:192,1,100,4|0,1:2|0:0,0:0:0:0:
68,144,172277,1,0,0:0:0:0:
192,104,172435,1,0,0:0:0:0:
112,208,172593,2,0,L|40:280,1,100,4|0,1:2|0:0,0:0:0:0:
136,368,172909,1,0,0:0:0:0:
256,316,173067,1,0,0:0:0:0:
204,196,173225,6,0,L|172:156,1,50,2|2,1:2|1:2,0:0:0:0:
292,228,173383,2,0,L|324:268,1,50,2|2,1:2|1:2,0:0:0:0:
201,216,173541,2,0,L|155:193,1,50,2|2,1:2|1:2,0:0:0:0:
294,207,173699,2,0,L|340:230,1,50,2|2,1:2|1:2,0:0:0:0:
232,304,173856,6,0,L|267:107,1,200,0|0,1:0|0:0,0:0:0:0:
267,107,175120,5,8,0:0:0:0:
144,192,175277,1,0,0:0:0:0:
172,216,175356,1,0,0:0:0:0:
200,240,175435,1,10,0:0:0:0:
228,264,175514,1,0,0:0:0:0:
256,288,175593,1,0,0:0:0:0:
284,312,175672,1,0,0:0:0:0:
312,336,175751,6,0,P|365:304|384:252,1,119.999996337891,4|8,1:2|0:0,0:0:0:0:
256,164,176067,2,0,P|203:132|184:80,1,119.999996337891,0|8,0:0|0:0,0:0:0:0:
336,48,176383,2,0,L|456:24,1,119.999996337891,0|8,0:0|0:0,0:0:0:0:
448,180,176699,2,0,L|336:136,1,119.999996337891,0|8,0:0|0:0,0:0:0:0:
200,216,177014,5,4,1:2:0:0:
256,360,177172,2,0,L|304:324,1,59.9999981689454,8|0,0:0|0:0,0:0:0:0:
260,260,177330,2,0,L|140:260,1,119.999996337891,8|8,0:0|0:0,0:0:0:0:
36,144,177646,1,0,0:0:0:0:
148,36,177804,1,8,0:0:0:0:
148,36,177883,1,0,0:0:0:0:
148,36,177962,2,0,P|192:84|192:136,1,119.999996337891,0|8,0:0|0:0,0:0:0:0:
64,224,178277,5,4,1:2:0:0:
196,304,178435,2,0,L|256:288,2,59.9999981689454,8|0|0,0:0|0:0|0:0,0:0:0:0:
172,148,178751,1,8,0:0:0:0:
324,176,178909,2,0,P|361:230|356:283,1,119.999996337891,0|8,0:0|0:0,0:0:0:0:
308,344,179146,2,0,L|252:364,1,59.9999981689454
140,256,179383,1,8,0:0:0:0:
252,148,179541,6,0,P|240:80|204:48,1,119.999996337891,4|8,1:2|0:0,0:0:0:0:
60,108,179856,2,0,L|36:164,2,59.9999981689454,0|0|8,0:0|0:0|0:0,0:0:0:0:
188,196,180172,1,0,0:0:0:0:
128,340,180330,1,8,0:0:0:0:
128,340,180409,1,0,0:0:0:0:
128,340,180488,2,0,P|76:304|60:252,1,119.999996337891,0|8,0:0|0:0,0:0:0:0:
144,120,180804,5,4,1:2:0:0:
172,272,180962,1,8,0:0:0:0:
56,168,181120,1,0,0:0:0:0:
152,48,181277,1,8,0:0:0:0:
288,124,181435,2,0,P|308:180|300:240,1,119.999996337891,8|8,0:0|0:0,0:0:0:0:
144,232,181751,2,0,P|124:176|131:117,1,119.999996337891,8|8,0:0|0:0,0:0:0:0:
272,48,182067,5,4,1:2:0:0:
392,148,182225,1,8,0:0:0:0:
392,148,182304,1,0,0:0:0:0:
392,148,182383,2,0,P|355:203|304:217,1,119.999996337891,0|8,0:0|0:0,0:0:0:0:
164,148,182699,1,0,0:0:0:0:
316,120,182856,2,0,L|356:72,2,59.9999981689454,8|0|0,0:0|0:0|0:0,0:0:0:0:
224,248,183172,1,8,0:0:0:0:
352,340,183330,6,0,P|400:300|416:244,1,119.999996337891,4|8,1:2|0:0,0:0:0:0:
272,184,183646,2,0,P|224:144|208:88,1,119.999996337891,0|8,0:0|0:0,0:0:0:0:
352,28,183962,1,0,0:0:0:0:
428,164,184120,1,8,0:0:0:0:
284,108,184277,2,0,P|225:122|184:164,1,119.999996337891,0|8,0:0|0:0,0:0:0:0:
256,304,184593,5,4,1:2:0:0:
400,248,184751,1,8,0:0:0:0:
256,184,184909,1,0,0:0:0:0:
344,312,185067,1,8,0:0:0:0:
480,232,185225,2,0,P|464:176|420:136,1,119.999996337891,0|8,0:0|0:0,0:0:0:0:
264,112,185541,1,0,0:0:0:0:
232,136,185620,1,0,0:0:0:0:
200,160,185699,1,8,0:0:0:0:
168,184,185777,1,0,0:0:0:0:
136,208,185856,6,0,P|72:196|32:160,1,119.999996337891,4|8,1:2|0:0,0:0:0:0:
136,44,186172,2,0,L|256:40,1,119.999996337891,0|8,0:0|0:0,0:0:0:0:
290,244,186488,2,0,P|236:280|182:283,1,119.999996337891,0|8,0:0|0:0,0:0:0:0:
174,128,186804,2,0,L|256:40,1,119.999996337891,0|8,0:0|0:0,0:0:0:0:
408,76,187120,5,4,1:2:0:0:
372,228,187277,1,8,0:0:0:0:
372,228,187356,1,0,0:0:0:0:
372,228,187435,2,0,P|304:244|256:232,1,119.999996337891,8|8,0:0|0:0,0:0:0:0:
136,132,187751,1,0,0:0:0:0:
256,32,187909,2,0,L|316:44,1,59.9999981689454,8|0,0:0|0:0,0:0:0:0:
368,104,188067,2,0,P|332:152|276:164,1,119.999996337891,0|8,0:0|0:0,0:0:0:0:
168,52,188383,5,4,1:2:0:0:
68,172,188541,1,8,0:0:0:0:
200,260,188699,1,0,0:0:0:0:
132,120,188856,1,8,0:0:0:0:
32,240,189014,2,0,P|56:296|104:328,1,119.999996337891,0|8,0:0|0:0,0:0:0:0:
172,188,189330,2,0,P|228:165|285:176,1,119.999996337891,0|8,0:0|0:0,0:0:0:0:
428,240,189646,5,4,1:2:0:0:
328,360,189804,1,8,0:0:0:0:
236,236,189962,2,0,P|220:172|236:120,1,119.999996337891,0|8,0:0|0:0,0:0:0:0:
392,136,190277,2,0,P|408:72|392:20,1,119.999996337891,0|8,0:0|0:0,0:0:0:0:
312,20,190514,2,0,L|260:52,1,59.9999981689454
148,164,190751,1,8,0:0:0:0:
300,200,190909,6,0,L|337:86,1,119.999996337891,4|8,1:2|0:0,0:0:0:0:
192,144,191225,2,0,L|154:30,1,119.999996337891,0|8,0:0|0:0,0:0:0:0:
32,128,191541,1,8,0:0:0:0:
120,256,191699,1,8,0:0:0:0:
104,100,191856,1,8,0:0:0:0:
40,240,192014,1,8,0:0:0:0:
190,283,192172,6,0,P|235:251|254:191,1,119.999996337891,4|8,1:2|0:0,0:0:0:0:
380,100,192488,2,0,P|425:132|444:192,1,119.999996337891,0|8,0:0|0:0,0:0:0:0:
392,252,192725,2,0,L|336:272,1,59.9999981689454
224,160,192962,1,8,0:0:0:0:
328,44,193120,1,0,0:0:0:0:
316,200,193277,5,8,0:0:0:0:
316,200,193356,1,8,0:0:0:0:
316,200,193435,2,0,P|272:244|216:256,1,119.999996337891,8|8,0:0|0:0,0:0:0:0:
72,192,193751,1,0,0:0:0:0:
180,80,193909,1,8,0:0:0:0:
180,80,193988,1,8,0:0:0:0:
180,80,194067,2,0,P|188:144|164:192,1,119.999996337891,8|8,0:0|0:0,0:0:0:0:
32,276,194383,5,0,0:0:0:0:
28,120,194541,1,8,0:0:0:0:
108,252,194699,2,0,P|152:289|212:288,1,119.999996337891,0|8,0:0|0:0,0:0:0:0:
296,156,195014,2,0,P|237:154|192:192,1,119.999996337891,8|8,0:0|0:0,0:0:0:0:
288,316,195330,1,8,0:0:0:0:
476,68,195646,1,8,0:0:0:0:
164,80,195962,5,8,0:0:0:0:
256,204,196120,1,8,0:0:0:0:
100,192,196277,1,0,0:0:0:0:
372,36,196593,1,0,0:0:0:0:
256,324,196909,1,0,0:0:0:0:
64,80,197225,6,0,P|104:48|152:40,1,100,6|0,0:0|0:0,0:0:0:0:
244,132,197541,2,0,L|144:132,1,100,8|0,0:0|0:0,0:0:0:0:
28,192,197856,1,2,0:0:0:0:
92,304,198014,1,0,0:0:0:0:
204,236,198172,6,0,P|252:216|300:224,1,100,10|0,0:0|0:0,0:0:0:0:
356,340,198488,2,0,L|256:324,1,100,2|0,0:0|0:0,0:0:0:0:
140,264,198804,1,8,0:0:0:0:
176,140,198962,1,2,0:0:0:0:
176,140,199041,1,0,0:0:0:0:
176,140,199120,2,0,P|224:128|272:140,1,100
224,260,199435,1,10,0:0:0:0:
112,192,199593,2,0,L|80:152,1,50
8,176,199751,6,0,P|8:228|28:272,1,100,2|0,0:0|0:0,0:0:0:0:
156,256,200067,2,0,P|192:216|236:204,1,100,10|0,0:0|0:0,0:0:0:0:
352,264,200383,1,0,0:0:0:0:
256,352,200541,5,0,0:0:0:0:
256,352,200620,1,0,0:0:0:0:
256,352,200699,2,0,L|156:332,1,100,10|0,0:0|0:0,0:0:0:0:
84,224,201014,2,0,L|184:204,1,100,2|0,0:0|0:0,0:0:0:0:
256,96,201330,1,8,0:0:0:0:
144,32,201488,1,2,0:0:0:0:
56,128,201646,2,0,L|24:168,1,50
120,288,201804,2,0,L|168:264,1,50
200,116,201962,2,0,L|128:184,1,100,10|0,0:0|0:0,0:0:0:0:
236,288,202277,5,6,0:0:0:0:
352,192,202435,1,0,0:0:0:0:
268,68,202593,2,0,L|220:48,2,50,8|0|0,0:0|0:0|0:0,0:0:0:0:
228,212,202909,2,0,P|181:227|132:220,1,100,2|0,0:0|0:0,0:0:0:0:
56,112,203225,5,10,0:0:0:0:
148,20,203383,1,0,0:0:0:0:
268,68,203541,2,0,P|248:112|208:144,1,100,2|0,0:0|0:0,0:0:0:0:
88,192,203856,1,8,0:0:0:0:
136,312,204014,2,0,L|184:336,1,50,2|0,0:0|0:0,0:0:0:0:
256,320,204172,2,0,P|248:268|220:232,1,100
104,168,204488,2,0,P|92:112|108:72,1,100,10|0,0:0|0:0,0:0:0:0:
232,28,204804,5,2,0:0:0:0:
292,144,204962,1,0,0:0:0:0:
164,120,205120,1,10,0:0:0:0:
164,120,205199,1,0,0:0:0:0:
164,120,205277,2,0,L|132:80,2,50,0|0|0,0:0|0:0|0:0,0:0:0:0:
260,208,205593,2,0,L|312:216,1,50
380,184,205751,6,0,P|376:132|348:96,1,100,10|0,0:0|0:0,0:0:0:0:
204,48,206067,1,10,0:0:0:0:
180,196,206225,1,8,0:0:0:0:
276,80,206383,1,8,0:0:0:0:
128,68,206541,1,10,0:0:0:0:
248,156,206699,1,2,0:0:0:0:
480,40,207014,1,2,0:0:0:0:
388,284,207330,6,0,P|336:292|288:284,1,100,6|0,0:0|0:0,0:0:0:0:
192,200,207646,1,8,0:0:0:0:
256,88,207804,2,0,L|296:56,1,50
368,80,207962,2,0,L|328:172,1,100,2|0,0:0|0:0,0:0:0:0:
236,260,208277,5,10,0:0:0:0:
116,208,208435,1,0,0:0:0:0:
108,80,208593,2,0,P|148:44|192:32,1,100,2|0,0:0|0:0,0:0:0:0:
244,152,208909,2,0,L|220:196,2,50,8|0|2,0:0|0:0|0:0,0:0:0:0:
376,152,209225,1,0,0:0:0:0:
412,276,209383,1,0,0:0:0:0:
412,276,209462,1,0,0:0:0:0:
412,276,209541,2,0,P|369:301|320:304,1,100,10|0,0:0|0:0,0:0:0:0:
192,276,209856,5,2,0:0:0:0:
304,212,210014,1,0,0:0:0:0:
196,136,210172,2,0,L|236:104,1,50,10|0,0:0|0:0,0:0:0:0:
204,36,210330,2,0,P|156:44|116:76,1,100
60,192,210646,6,0,L|44:240,2,50,0|0|10,0:0|0:0|0:0,0:0:0:0:
192,204,210962,1,0,0:0:0:0:
256,316,211120,2,0,P|208:344|164:344,1,100,2|0,0:0|0:0,0:0:0:0:
124,220,211435,2,0,P|140:164|132:124,1,100,8|2,0:0|0:0,0:0:0:0:
32,40,211751,6,0,L|12:88,1,50
140,144,211909,2,0,L|180:112,1,50
56,180,212067,2,0,P|44:232|64:272,1,100,10|0,0:0|0:0,0:0:0:0:
204,332,212383,5,6,0:0:0:0:
328,248,212541,1,0,0:0:0:0:
228,136,212699,2,0,L|200:184,2,50,8|0|0,0:0|0:0|0:0,0:0:0:0:
372,176,213014,1,2,0:0:0:0:
360,324,213172,1,0,0:0:0:0:
224,260,213330,6,0,P|184:228|164:184,1,100,10|0,0:0|0:0,0:0:0:0:
304,128,213646,2,0,P|344:96|364:52,1,100,2|0,0:0|0:0,0:0:0:0:
216,32,213962,2,0,L|164:40,1,50,8|0,0:0|0:0,0:0:0:0:
108,88,214120,2,0,P|122:135|164:164,1,100,2|0,0:0|0:0,0:0:0:0:
304,212,214435,1,0,0:0:0:0:
304,212,214514,1,0,0:0:0:0:
304,212,214593,2,0,P|312:272|300:308,1,100,10|0,0:0|0:0,0:0:0:0:
148,296,214909,5,2,0:0:0:0:
236,172,215067,1,0,0:0:0:0:
380,220,215225,2,0,L|396:268,2,50,10|0|0,0:0|0:0|0:0,0:0:0:0:
232,252,215541,1,0,0:0:0:0:
352,340,215699,1,0,0:0:0:0:
464,240,215856,6,0,P|472:188|456:144,1,100,10|0,0:0|0:0,0:0:0:0:
316,196,216172,2,0,P|308:144|324:100,1,100,2|0,0:0|0:0,0:0:0:0:
460,40,216488,2,0,L|496:76,2,50,8|0|2,0:0|0:0|0:0,0:0:0:0:
388,172,216804,2,0,L|392:224,2,50,0|0|0,0:0|0:0|0:0,0:0:0:0:
248,232,217120,2,0,L|224:276,2,50,10|0|0,0:0|0:0|0:0,0:0:0:0:
256,192,217435,12,2,218383,2:0:0:0:
